The Fate of the Furious (2017)

PG-13 | 2h 16min | Action, Adventure, Crime | 14 April 2017 (USA)

When a mysterious woman seduces Dominic Toretto into the world of terrorism and a betrayal of those closest to him, the crew face trials that will test them as never before.

Watch trailer

Media information

General
Format : Matroska
Format version : Version 4
File size : 1.84 GiB
Duration : 2 h 28 min
Overall bit rate : 1 778 kb/s
Movie name : The.Fate.of.the.Furious.Extended.Directors.Cut.2017.1080p.10bit.BluRay.6CH.x265.HEVC

Video
ID : 1
Format : HEVC
Format/Info : High Efficiency Video Coding
Format profile : Main [email protected]@Main
Codec ID : V_MPEGH/ISO/HEVC
Duration : 2 h 28 min
Bit rate : 1 501 kb/s
Width : 1 920 pixels
Height : 800 pixels
Display aspect ratio : 2.40:1
Frame rate mode : Constant
Frame rate : 23.976 (24000/1001) FPS
Color space : YUV
Chroma subsampling : 4:2:0
Bit depth : 10 bits
Bits/(Pixel*Frame) : 0.041
Stream size : 1.55 GiB (84%)
Language : English
Default : Yes
Forced : No

Audio
ID : 2
Format : AAC LC
Codec ID : A_AAC-2
Duration : 2 h 28 min
Bit rate : 274 kb/s
Channel(s) : 6 channels
Channel layout : C L R Ls Rs LFE
Sampling rate : 48.0 kHz
Frame rate : 46.875 FPS (1024 SPF)
Compression mode : Lossy
Delay relative to video : 20 ms
Stream size : 290 MiB (15%)
Language : English
Default : Yes
Forced : No

Text #1
ID : 3
Format : UTF-8
Codec ID : S_TEXT/UTF8
Codec ID/Info : UTF-8 Plain Text
Duration : 2 h 27 min
Bit rate : 63 b/s
Count of elements : 2490
Stream size : 68.7 KiB (0%)
Language : English
Default : Yes
Forced : No

Text #2
ID : 4
Format : UTF-8
Codec ID : S_TEXT/UTF8
Codec ID/Info : UTF-8 Plain Text
Duration : 2 h 28 min
Bit rate : 81 b/s
Count of elements : 1820
Stream size : 87.9 KiB (0%)
Language : Arabic
Default : No
Forced : No

Text #3
ID : 5
Format : UTF-8
Codec ID : S_TEXT/UTF8
Codec ID/Info : UTF-8 Plain Text
Duration : 2 h 25 min
Bit rate : 56 b/s
Count of elements : 2060
Stream size : 60.5 KiB (0%)
Language : English
Default : No
Forced : No

Text #4
ID : 6
Format : UTF-8
Codec ID : S_TEXT/UTF8
Codec ID/Info : UTF-8 Plain Text
Duration : 2 h 19 min
Bit rate : 84 b/s
Count of elements : 1652
Stream size : 85.9 KiB (0%)
Language : Persian
Default : No
Forced : No

Text #5
ID : 7
Format : UTF-8
Codec ID : S_TEXT/UTF8
Codec ID/Info : UTF-8 Plain Text
Duration : 2 h 27 min
Bit rate : 48 b/s
Count of elements : 1709
Stream size : 52.1 KiB (0%)
Language : Malay
Default : No
Forced : No

[collapse]
Download Link(s)

Download

Direct download files get automatically deleted after a month or so. Posted on : 04/28/2020

[collapse]
Magnet Link

Magnet

The-Fate-of-the-Furious-2017-Extended-Directors-Cut-1080p-BluRay-x265-HEVC-10bit-AAC-5-1-1.8 GB

[collapse]

Media information

General
Format : Matroska
Format version : Version 4
File size : 950 MiB
Duration : 2 h 28 min
Overall bit rate : 896 kb/s
Movie name : The.Fate.of.the.Furious.Extended.Directors.Cut.2017.720p.10bit.BluRay.6CH.x265.HEVC

Video
ID : 1
Format : HEVC
Format/Info : High Efficiency Video Coding
Format profile : Main [email protected]@Main
Codec ID : V_MPEGH/ISO/HEVC
Duration : 2 h 28 min
Bit rate : 701 kb/s
Width : 1 280 pixels
Height : 534 pixels
Display aspect ratio : 2.35:1
Frame rate mode : Constant
Frame rate : 23.976 (24000/1001) FPS
Color space : YUV
Chroma subsampling : 4:2:0
Bit depth : 10 bits
Bits/(Pixel*Frame) : 0.043
Stream size : 743 MiB (78%)
Default : Yes
Forced : No
Color range : Limited
Color primaries : BT.709
Transfer characteristics : BT.709
Matrix coefficients : BT.709

Audio
ID : 2
Format : AAC LC
Codec ID : A_AAC-2
Duration : 2 h 28 min
Bit rate : 192 kb/s
Channel(s) : 6 channels
Channel layout : C L R Ls Rs LFE
Sampling rate : 48.0 kHz
Frame rate : 46.875 FPS (1024 SPF)
Compression mode : Lossy
Delay relative to video : -1 ms
Stream size : 204 MiB (21%)
Title : Surround
Language : English
Default : Yes
Forced : No

Text #1
ID : 3
Format : ASS
Codec ID : S_TEXT/ASS
Duration : 2 h 27 min
Bit rate : 112 b/s
Count of elements : 2490
Compression mode : Lossless
Stream size : 121 KiB (0%)
Language : English
Default : Yes
Forced : Yes

Text #2
ID : 4
Format : ASS
Codec ID : S_TEXT/ASS
Duration : 2 h 28 min
Bit rate : 116 b/s
Count of elements : 1820
Compression mode : Lossless
Stream size : 126 KiB (0%)
Language : Arabic
Default : No
Forced : No

Text #3
ID : 5
Format : ASS
Codec ID : S_TEXT/ASS
Duration : 2 h 25 min
Bit rate : 97 b/s
Count of elements : 2060
Compression mode : Lossless
Stream size : 104 KiB (0%)
Language : English
Default : No
Forced : No

Text #4
ID : 6
Format : ASS
Codec ID : S_TEXT/ASS
Duration : 2 h 19 min
Bit rate : 118 b/s
Count of elements : 1652
Compression mode : Lossless
Stream size : 121 KiB (0%)
Language : Persian
Default : No
Forced : No

Text #5
ID : 7
Format : ASS
Codec ID : S_TEXT/ASS
Duration : 2 h 27 min
Bit rate : 81 b/s
Count of elements : 1709
Compression mode : Lossless
Stream size : 88.0 KiB (0%)
Default : No
Forced : No

[collapse]
Download Link(s)

Download

Direct download files get automatically deleted after a month or so. Posted on : 04/28/2020

[collapse]
Magnet Link

Magnet

The-Fate-of-the-Furious-2017-Extended-Directors-Cut-1080p-BluRay-x265-HEVC-10bit-AAC-5-1-1.8 GB

[collapse]

You may also like...

error: nah :p~