The Roundup (2022)

Original title: Beomjoidosi 2 | 1h 46min | Action, Crime, Thriller

Followed by Ma Seok-do, who heads to a foreign country to extradite a suspect. However, he discovers additional murder cases and learns about a killer who had committed crimes against tourists for many years.

Watch trailer

Media information

General
Format : Matroska
Format version : Version 4
File size : 1.88 GiB
Duration : 1 h 46 min
Overall bit rate : 2 534 kb/s
Frame rate : 23.976 FPS
Movie name : The.Roundup.2022.1080p.10bit.BluRay.6CH.x265.HEVC

Video
ID : 1
Format : HEVC
Format/Info : High Efficiency Video Coding
Format profile : Main 10@L4@Main
Codec ID : V_MPEGH/ISO/HEVC
Duration : 1 h 46 min
Bit rate : 2 147 kb/s
Width : 1 920 pixels
Height : 804 pixels
Display aspect ratio : 2.39:1
Frame rate mode : Constant
Frame rate : 23.976 (24000/1001) FPS
Color space : YUV
Chroma subsampling : 4:2:0 (Type 0)
Bit depth : 10 bits
Bits/(Pixel*Frame) : 0.058
Stream size : 1.59 GiB (85%)
Default : Yes
Forced : No
Color range : Limited

Audio
ID : 2
Format : AAC LC
Codec ID : A_AAC-2
Duration : 1 h 46 min
Bit rate : 384 kb/s
Channel(s) : 6 channels
Channel layout : C L R Ls Rs LFE
Sampling rate : 48.0 kHz
Frame rate : 46.875 FPS (1024 SPF)
Compression mode : Lossy
Delay relative to video : 20 ms
Stream size : 292 MiB (15%)
Language : Korean
Default : Yes
Forced : No

Text
ID : 3
Format : UTF-8
Codec ID : S_TEXT/UTF8
Codec ID/Info : UTF-8 Plain Text
Duration : 1 h 39 min
Bit rate : 57 b/s
Frame rate : 0.277 FPS
Count of elements : 1646
Stream size : 41.6 KiB (0%)
Language : English
Default : Yes
Forced : No

[collapse]
Download Link(s)

Download

Direct download files get automatically deleted after a month or so. Posted on : 01/28/2024

[collapse]
Magnet Link

Magnet

The.Roundup.2022.1080p.BluRay.x265.HEVC.10bit.AAC.5.1.Korean.Tigole.QxR-5.3 GB

[collapse]

Media information

General
Format : Matroska
Format version : Version 4
File size : 1 012 MiB
Duration : 1 h 46 min
Overall bit rate : 1 334 kb/s
Frame rate : 23.976 FPS
Movie name : The.Roundup.2022.720p.10bit.BluRay.6CH.x265.HEVC

Video
ID : 1
Format : HEVC
Format/Info : High Efficiency Video Coding
Format profile : Main [email protected]@Main
Codec ID : V_MPEGH/ISO/HEVC
Duration : 1 h 46 min
Bit rate : 1 043 kb/s
Width : 1 280 pixels
Height : 536 pixels
Display aspect ratio : 2.39:1
Frame rate mode : Constant
Frame rate : 23.976 (24000/1001) FPS
Color space : YUV
Chroma subsampling : 4:2:0 (Type 0)
Bit depth : 10 bits
Bits/(Pixel*Frame) : 0.063
Stream size : 791 MiB (78%)
Default : Yes
Forced : No
Color range : Limited

Audio
ID : 2
Format : AAC LC
Codec ID : A_AAC-2
Duration : 1 h 46 min
Bit rate : 288 kb/s
Channel(s) : 6 channels
Channel layout : C L R Ls Rs LFE
Sampling rate : 48.0 kHz
Frame rate : 46.875 FPS (1024 SPF)
Compression mode : Lossy
Delay relative to video : 20 ms
Stream size : 219 MiB (22%)
Language : Korean
Default : Yes
Forced : No

Text
ID : 3
Format : UTF-8
Codec ID : S_TEXT/UTF8
Codec ID/Info : UTF-8 Plain Text
Duration : 1 h 39 min
Bit rate : 57 b/s
Frame rate : 0.277 FPS
Count of elements : 1646
Stream size : 41.6 KiB (0%)
Language : English
Default : Yes
Forced : No

[collapse]
Download Link(s)

Download

Direct download files get automatically deleted after a month or so. Posted on : 01/28/2024

[collapse]
Magnet Link

Magnet

The.Roundup.2022.1080p.BluRay.x265.HEVC.10bit.AAC.5.1.Korean.Tigole.QxR-5.3 GB

[collapse]

You may also like...

error: nah :p~