Gunpowder Milkshake (2017)

R | 1h 54min | Action, Adventure, Thriller

Three generations of women fight back against those who could take everything from them.

Watch trailer

Media information

General
Format : Matroska
Format version : Version 4
File size : 1.73 GiB
Duration : 1 h 54 min
Overall bit rate : 2 154 kb/s
Movie name : Gunpowder.Milkshake.2021.1080p.10bit.BluRay.6CH.x265.HEVC

Video
ID : 1
Format : HEVC
Format/Info : High Efficiency Video Coding
Format profile : Main [email protected]@Main
Codec ID : V_MPEGH/ISO/HEVC
Duration : 1 h 54 min
Bit rate : 1 948 kb/s
Width : 1 920 pixels
Height : 808 pixels
Display aspect ratio : 2.40:1
Frame rate mode : Constant
Frame rate : 24.000 FPS
Color space : YUV
Chroma subsampling : 4:2:0
Bit depth : 10 bits
Bits/(Pixel*Frame) : 0.052
Stream size : 1.56 GiB (90%)
Default : Yes
Forced : No

Audio
ID : 2
Format : AAC LC SBR
Commercial name : HE-AAC
Format settings : Explicit
Codec ID : A_AAC-2
Duration : 1 h 54 min
Bit rate : 205 kb/s
Channel(s) : 6 channels
Channel layout : C L R Ls Rs LFE
Sampling rate : 48.0 kHz
Frame rate : 23.438 FPS (2048 SPF)
Compression mode : Lossy
Delay relative to video : 23 ms
Stream size : 168 MiB (9%)
Language : English
Default : Yes
Forced : No

Text
ID : 3
Format : UTF-8
Codec ID : S_TEXT/UTF8
Codec ID/Info : UTF-8 Plain Text
Duration : 1 h 47 min
Bit rate : 34 b/s
Count of elements : 770
Stream size : 27.0 KiB (0%)
Language : English
Default : Yes
Forced : No

[collapse]

Download Link(s)

Download

Direct download files get automatically deleted after a month or so. Posted on : 10/12/2021

[collapse]
Magnet Link

Magnet

Gunpowder.Milkshake.2021.1080p.BluRay.REMUX.AVC.DTS-HD.MA.5.1-FGT-23.23 GB

[collapse]

Media information

General
Format : Matroska
Format version : Version 4
File size : 880 MiB
Duration : 1 h 54 min
Overall bit rate : 1 073 kb/s
Movie name : Gunpowder.Milkshake.2021.720p.10bit.BluRay.6CH.x265.HEVC

Video
ID : 1
Format : HEVC
Format/Info : High Efficiency Video Coding
Format profile : Main [email protected]@Main
Codec ID : V_MPEGH/ISO/HEVC
Duration : 1 h 54 min
Bit rate : 866 kb/s
Width : 1 280 pixels
Height : 536 pixels
Display aspect ratio : 2.40:1
Frame rate mode : Constant
Frame rate : 24.000 FPS
Color space : YUV
Chroma subsampling : 4:2:0
Bit depth : 10 bits
Bits/(Pixel*Frame) : 0.053
Stream size : 711 MiB (81%)
Default : Yes
Forced : No

Audio
ID : 2
Format : AAC LC SBR
Commercial name : HE-AAC
Format settings : Explicit
Codec ID : A_AAC-2
Duration : 1 h 54 min
Bit rate : 205 kb/s
Channel(s) : 6 channels
Channel layout : C L R Ls Rs LFE
Sampling rate : 48.0 kHz
Frame rate : 23.438 FPS (2048 SPF)
Compression mode : Lossy
Delay relative to video : 23 ms
Stream size : 168 MiB (19%)
Language : English
Default : Yes
Forced : No

Text
ID : 3
Format : UTF-8
Codec ID : S_TEXT/UTF8
Codec ID/Info : UTF-8 Plain Text
Duration : 1 h 47 min
Bit rate : 34 b/s
Count of elements : 770
Stream size : 27.0 KiB (0%)
Language : English
Default : Yes
Forced : No

[collapse]

Download Link(s)

Download

Direct download files get automatically deleted after a month or so. Posted on : 10/12/2021

[collapse]
Magnet Link

Magnet

Gunpowder.Milkshake.2021.1080p.BluRay.REMUX.AVC.DTS-HD.MA.5.1-FGT-23.23 GB

[collapse]

Media information

General
Format : Matroska
Format version : Version 4
File size : 1.57 GiB
Duration : 1 h 54 min
Overall bit rate : 1 956 kb/s
Movie name : Gunpowder.Milkshake.2021.1080p.10bit.WEBRip.6CH.x265.HEVC

Video
ID : 1
Format : HEVC
Format/Info : High Efficiency Video Coding
Format profile : Main [email protected]@Main
Codec ID : V_MPEGH/ISO/HEVC
Duration : 1 h 54 min
Bit rate : 1 749 kb/s
Width : 1 920 pixels
Height : 808 pixels
Display aspect ratio : 2.40:1
Frame rate mode : Constant
Frame rate : 24.000 FPS
Color space : YUV
Chroma subsampling : 4:2:0
Bit depth : 10 bits
Bits/(Pixel*Frame) : 0.047
Stream size : 1.40 GiB (89%)
Default : Yes
Forced : No

Audio
ID : 2
Format : AAC LC SBR
Commercial name : HE-AAC
Format settings : Explicit
Codec ID : A_AAC-2
Duration : 1 h 54 min
Bit rate : 205 kb/s
Channel(s) : 6 channels
Channel layout : C L R Ls Rs LFE
Sampling rate : 48.0 kHz
Frame rate : 23.438 FPS (2048 SPF)
Compression mode : Lossy
Delay relative to video : 23 ms
Stream size : 169 MiB (10%)
Language : English
Default : Yes
Forced : No

Text #1
ID : 3
Format : UTF-8
Codec ID : S_TEXT/UTF8
Codec ID/Info : UTF-8 Plain Text
Duration : 1 h 54 min
Bit rate : 49 b/s
Count of elements : 1559
Stream size : 41.4 KiB (0%)
Title : English (SDH)
Language : English
Default : Yes
Forced : No

Text #2
ID : 4
Format : UTF-8
Codec ID : S_TEXT/UTF8
Codec ID/Info : UTF-8 Plain Text
Duration : 1 s 875 ms
Bit rate : 59 b/s
Count of elements : 1
Stream size : 14.0 Bytes (0%)
Title : English (Forced)
Language : English
Default : No
Forced : Yes

Text #3
ID : 5
Format : UTF-8
Codec ID : S_TEXT/UTF8
Codec ID/Info : UTF-8 Plain Text
Duration : 1 h 48 min
Bit rate : 31 b/s
Count of elements : 701
Stream size : 25.2 KiB (0%)
Title : Dansk
Language : Danish
Default : No
Forced : No

Text #4
ID : 6
Format : UTF-8
Codec ID : S_TEXT/UTF8
Codec ID/Info : UTF-8 Plain Text
Duration : 1 h 48 min
Bit rate : 31 b/s
Count of elements : 756
Stream size : 25.2 KiB (0%)
Title : Suomi
Language : Finnish
Default : No
Forced : No

Text #5
ID : 7
Format : UTF-8
Codec ID : S_TEXT/UTF8
Codec ID/Info : UTF-8 Plain Text
Duration : 1 h 53 min
Bit rate : 31 b/s
Count of elements : 988
Stream size : 26.5 KiB (0%)
Title : Français
Language : French
Default : No
Forced : No

Text #6
ID : 8
Format : UTF-8
Codec ID : S_TEXT/UTF8
Codec ID/Info : UTF-8 Plain Text
Duration : 1 h 49 min
Bit rate : 30 b/s
Count of elements : 750
Stream size : 24.2 KiB (0%)
Title : Norsk Bokmål
Language : Norwegian Bokmal
Default : No
Forced : No

Text #7
ID : 9
Format : UTF-8
Codec ID : S_TEXT/UTF8
Codec ID/Info : UTF-8 Plain Text
Duration : 1 h 48 min
Bit rate : 34 b/s
Count of elements : 760
Stream size : 26.9 KiB (0%)
Title : Svenska
Language : Swedish
Default : No
Forced : No

[collapse]

Download Link(s)

Download

Direct download files get automatically deleted after a month or so. Posted on : 07/15/2021

[collapse]
Magnet Link

Magnet

Gunpowder.Milkshake.2021.1080p.WEB.h264-RUMOUR-2.99 GB

[collapse]

Media information

General
Format : Matroska
Format version : Version 4
File size : 799 MiB
Duration : 1 h 54 min
Overall bit rate : 972 kb/s
Movie name : Gunpowder.Milkshake.2021.720p.10bit.WEBRip.6CH.x265.HEVC

Video
ID : 1
Format : HEVC
Format/Info : High Efficiency Video Coding
Format profile : Main [email protected]@Main
Codec ID : V_MPEGH/ISO/HEVC
Duration : 1 h 54 min
Bit rate : 765 kb/s
Width : 1 280 pixels
Height : 536 pixels
Display aspect ratio : 2.40:1
Frame rate mode : Constant
Frame rate : 24.000 FPS
Color space : YUV
Chroma subsampling : 4:2:0
Bit depth : 10 bits
Bits/(Pixel*Frame) : 0.046
Stream size : 628 MiB (79%)
Default : Yes
Forced : No

Audio
ID : 2
Format : AAC LC SBR
Commercial name : HE-AAC
Format settings : Explicit
Codec ID : A_AAC-2
Duration : 1 h 54 min
Bit rate : 205 kb/s
Channel(s) : 6 channels
Channel layout : C L R Ls Rs LFE
Sampling rate : 48.0 kHz
Frame rate : 23.438 FPS (2048 SPF)
Compression mode : Lossy
Delay relative to video : 23 ms
Stream size : 169 MiB (21%)
Language : English
Default : Yes
Forced : No

Text #1
ID : 3
Format : UTF-8
Codec ID : S_TEXT/UTF8
Codec ID/Info : UTF-8 Plain Text
Duration : 1 h 54 min
Bit rate : 49 b/s
Count of elements : 1559
Stream size : 41.4 KiB (0%)
Title : English (SDH)
Language : English
Default : Yes
Forced : No

Text #2
ID : 4
Format : UTF-8
Codec ID : S_TEXT/UTF8
Codec ID/Info : UTF-8 Plain Text
Duration : 1 s 875 ms
Bit rate : 59 b/s
Count of elements : 1
Stream size : 14.0 Bytes (0%)
Title : English (Forced)
Language : English
Default : No
Forced : Yes

Text #3
ID : 5
Format : UTF-8
Codec ID : S_TEXT/UTF8
Codec ID/Info : UTF-8 Plain Text
Duration : 1 h 48 min
Bit rate : 31 b/s
Count of elements : 701
Stream size : 25.2 KiB (0%)
Title : Dansk
Language : Danish
Default : No
Forced : No

Text #4
ID : 6
Format : UTF-8
Codec ID : S_TEXT/UTF8
Codec ID/Info : UTF-8 Plain Text
Duration : 1 h 48 min
Bit rate : 31 b/s
Count of elements : 756
Stream size : 25.2 KiB (0%)
Title : Suomi
Language : Finnish
Default : No
Forced : No

Text #5
ID : 7
Format : UTF-8
Codec ID : S_TEXT/UTF8
Codec ID/Info : UTF-8 Plain Text
Duration : 1 h 53 min
Bit rate : 31 b/s
Count of elements : 988
Stream size : 26.5 KiB (0%)
Title : Français
Language : French
Default : No
Forced : No

Text #6
ID : 8
Format : UTF-8
Codec ID : S_TEXT/UTF8
Codec ID/Info : UTF-8 Plain Text
Duration : 1 h 49 min
Bit rate : 30 b/s
Count of elements : 750
Stream size : 24.2 KiB (0%)
Title : Norsk Bokmål
Language : Norwegian Bokmal
Default : No
Forced : No

Text #7
ID : 9
Format : UTF-8
Codec ID : S_TEXT/UTF8
Codec ID/Info : UTF-8 Plain Text
Duration : 1 h 48 min
Bit rate : 34 b/s
Count of elements : 760
Stream size : 26.9 KiB (0%)
Title : Svenska
Language : Swedish
Default : No
Forced : No

[collapse]

Download Link(s)

Download

Direct download files get automatically deleted after a month or so. Posted on : 07/14/2021

[collapse]
Magnet Link

Magnet

Gunpowder.Milkshake.2021.1080p.WEB.h264-RUMOUR-2.99 GB

[collapse]

You may also like...

error: nah :p~