Master (2021)

Not Rated | 2h 59min | Action, Thriller | 13 January 2021 (USA)

An alcoholic professor is sent to a juvenile school, where he clashes with a gangster who uses the school children for criminal activities.

Watch trailer

Media information

General
Format : Matroska
Format version : Version 4
File size : 1.02 GiB
Duration : 2 h 57 min
Overall bit rate : 822 kb/s
Movie name : Master.2021.Hindi.720p.10bit.WEBRip.2CH.x265.HEVC

Video
ID : 1
Format : HEVC
Format/Info : High Efficiency Video Coding
Format profile : Main [email protected]@Main
Codec ID : V_MPEGH/ISO/HEVC
Duration : 2 h 57 min
Bit rate : 724 kb/s
Width : 1 280 pixels
Height : 528 pixels
Display aspect ratio : 2.40:1
Frame rate mode : Constant
Frame rate : 24.000 FPS
Color space : YUV
Chroma subsampling : 4:2:0
Bit depth : 10 bits
Bits/(Pixel*Frame) : 0.045
Stream size : 919 MiB (88%)
Default : Yes
Forced : No
Color range : Limited
Color primaries : BT.709
Transfer characteristics : BT.709
Matrix coefficients : BT.709

Audio
ID : 2
Format : AAC LC
Codec ID : A_AAC-2
Duration : 2 h 57 min
Bit rate : 96.0 kb/s
Channel(s) : 2 channels
Channel layout : L R
Sampling rate : 44.1 kHz
Frame rate : 43.066 FPS (1024 SPF)
Compression mode : Lossy
Stream size : 122 MiB (12%)
Language : Hindi
Default : Yes
Forced : No

Text
ID : 3
Format : UTF-8
Codec ID : S_TEXT/UTF8
Codec ID/Info : UTF-8 Plain Text
Duration : 2 h 52 min
Bit rate : 63 b/s
Count of elements : 2494
Stream size : 80.3 KiB (0%)
Language : English
Default : Yes
Forced : No

[collapse]
Download Link(s)

Download

Direct download files get automatically deleted after a month or so. Posted on : 02/04/2021

[collapse]
Magnet Link

Magnet

Master-2021-Hindi-HQ-Line-720p-WEBRip-x264-AAC-1.7 GB

[collapse]

You may also like...

error: nah :p~