E.T. the Extra-Terrestrial (1982)

PG | 1h 55min | Adventure, Family, Sci-Fi

A troubled child summons the courage to help a friendly alien escape Earth and return to his home world.

Watch trailer

Media information

General
Format : Matroska
Format version : Version 4
File size : 2.15 GiB
Duration : 1 h 54 min
Overall bit rate : 2 681 kb/s
Frame rate : 23.976 FPS
Movie name : E.T.the.Extra-Terrestrial.1982.1080p.10bit.BluRay.6CH.x265.HEVC

Video
ID : 1
Format : HEVC
Format/Info : High Efficiency Video Coding
Format profile : Main 10@L4@Main
Codec ID : V_MPEGH/ISO/HEVC
Duration : 1 h 54 min
Bit rate : 2 294 kb/s
Width : 1 920 pixels
Height : 1 040 pixels
Display aspect ratio : 1.85:1
Frame rate mode : Constant
Frame rate : 23.976 (24000/1001) FPS
Color space : YUV
Chroma subsampling : 4:2:0 (Type 0)
Bit depth : 10 bits
Bits/(Pixel*Frame) : 0.048
Stream size : 1.84 GiB (86%)
Default : Yes
Forced : No
Color range : Limited

Audio
ID : 2
Format : AAC LC
Codec ID : A_AAC-2
Duration : 1 h 54 min
Bit rate : 384 kb/s
Channel(s) : 6 channels
Channel layout : L R C Cb Lb Rb
Sampling rate : 48.0 kHz
Frame rate : 46.875 FPS (1024 SPF)
Compression mode : Lossy
Stream size : 315 MiB (14%)
Language : English
Default : Yes
Forced : No

Text
ID : 3
Format : UTF-8
Codec ID : S_TEXT/UTF8
Codec ID/Info : UTF-8 Plain Text
Duration : 1 h 47 min
Bit rate : 39 b/s
Frame rate : 0.180 FPS
Count of elements : 1161
Stream size : 31.5 KiB (0%)
Language : English
Default : Yes
Forced : No

[collapse]
Download Link(s)

Download

Direct download files get automatically deleted after a month or so. Posted on: 12/08/2023

[collapse]

Media information

General
Format : Matroska
Format version : Version 4
File size : 1.16 GiB
Duration : 1 h 54 min
Overall bit rate : 1 454 kb/s
Frame rate : 23.976 FPS
Movie name : E.T.the.Extra-Terrestrial.1982.720p.10bit.BluRay.6CH.x265.HEVC

Video
ID : 1
Format : HEVC
Format/Info : High Efficiency Video Coding
Format profile : Main [email protected]@Main
Codec ID : V_MPEGH/ISO/HEVC
Duration : 1 h 54 min
Bit rate : 1 164 kb/s
Width : 1 280 pixels
Height : 696 pixels
Display aspect ratio : 1.85:1
Frame rate mode : Constant
Frame rate : 23.976 (24000/1001) FPS
Color space : YUV
Chroma subsampling : 4:2:0 (Type 0)
Bit depth : 10 bits
Bits/(Pixel*Frame) : 0.054
Stream size : 954 MiB (80%)
Default : Yes
Forced : No
Color range : Limited

Audio
ID : 2
Format : AAC LC
Codec ID : A_AAC-2
Duration : 1 h 54 min
Bit rate : 288 kb/s
Channel(s) : 6 channels
Channel layout : L R C Cb Lb Rb
Sampling rate : 48.0 kHz
Frame rate : 46.875 FPS (1024 SPF)
Compression mode : Lossy
Stream size : 236 MiB (20%)
Language : English
Default : Yes
Forced : No

Text
ID : 3
Format : UTF-8
Codec ID : S_TEXT/UTF8
Codec ID/Info : UTF-8 Plain Text
Duration : 1 h 47 min
Bit rate : 39 b/s
Frame rate : 0.180 FPS
Count of elements : 1161
Stream size : 31.5 KiB (0%)
Language : English
Default : Yes
Forced : No

[collapse]
Download Link(s)

Download

Direct download files get automatically deleted after a month or so. Posted on: 12/08/2023

[collapse]

Magnet Link

Magnet

E.T.The.Extra-Terrestrial.1982.1080p.BluRay.X264-AMIABLE-8.74 GB

[collapse]

You may also like...

error: nah :p~