Reno 911!: The Hunt for QAnon (2021)

TV Special | Comedy

Follows the deputies of the Reno Sheriff’s Department as they hunt for Q, the one behind all the QAnon conspiracies. Their efforts cause them to get stuck at a QAnon convention at sea.

Watch trailer

Media information

General
Format : Matroska
Format version : Version 4
File size : 784 MiB
Duration : 1 h 24 min
Overall bit rate : 1 290 kb/s
Movie name : Reno.911.The.Hunt.for.QAnon.2021.720p.10bit.WEBRip.6CH.x265.HEVC

Video
ID : 1
Format : HEVC
Format/Info : High Efficiency Video Coding
Format profile : Main [email protected]@Main
Codec ID : V_MPEGH/ISO/HEVC
Duration : 1 h 24 min
Bit rate : 1 085 kb/s
Width : 1 280 pixels
Height : 720 pixels
Display aspect ratio : 16:9
Frame rate mode : Constant
Frame rate : 24.000 FPS
Color space : YUV
Chroma subsampling : 4:2:0
Bit depth : 10 bits
Bits/(Pixel*Frame) : 0.049
Stream size : 659 MiB (84%)
Default : Yes
Forced : No
Color range : Limited
Color primaries : BT.709
Transfer characteristics : BT.709
Matrix coefficients : BT.709

Audio
ID : 2
Format : AAC LC SBR
Commercial name : HE-AAC
Format settings : Explicit
Codec ID : A_AAC-2
Duration : 1 h 24 min
Bit rate : 204 kb/s
Channel(s) : 6 channels
Channel layout : C L R Ls Rs LFE
Sampling rate : 48.0 kHz
Frame rate : 23.438 FPS (2048 SPF)
Compression mode : Lossy
Delay relative to video : 23 ms
Stream size : 124 MiB (16%)
Language : English
Default : Yes
Forced : No

Text
ID : 3
Format : UTF-8
Codec ID : S_TEXT/UTF8
Codec ID/Info : UTF-8 Plain Text
Duration : 1 h 24 min
Bit rate : 95 b/s
Count of elements : 2135
Stream size : 59.5 KiB (0%)
Language : English
Default : Yes
Forced : No

[collapse]
Download Link(s)

Download

Direct download files get automatically deleted after a month or so. Posted on : 12/23/2021

[collapse]
Magnet Link

Magnet

Reno.911.The.Hunt.for.QAnon.2021.1080p.WEB.H264-NAISU-6.94 GB

[collapse]

You may also like...

error: nah :p~