The Sympathizer (2024)

TV Mini Series | TV-MA | Comedy, Drama, History

Near the end of the Vietnam War, a plant who was embedded in the South Vietnam army flees to the United States and takes up residence in a refugee community where he continues to secretly spy and report back to the Viet Cong.

Watch trailer

Media Info and Download Links | S01E07-1080p.10bit.WEBRip.6CH.x265.HEVC

General
Format : Matroska
Format version : Version 4
File size : 850 MiB
Duration : 59 min 43 s
Overall bit rate : 1 989 kb/s
Frame rate : 23.976 FPS
Movie name : The.Sympathizer.S01E07.1080p.10bit.WEBRip.6CH.x265.HEVC

Video
ID : 1
Format : HEVC
Format/Info : High Efficiency Video Coding
Format profile : Main 10@L4@Main
Codec ID : V_MPEGH/ISO/HEVC
Duration : 59 min 43 s
Bit rate : 1 775 kb/s
Width : 1 920 pixels
Height : 960 pixels
Display aspect ratio : 2.000
Frame rate mode : Constant
Frame rate : 23.976 (24000/1001) FPS
Color space : YUV
Chroma subsampling : 4:2:0
Bit depth : 10 bits
Bits/(Pixel*Frame) : 0.040
Stream size : 758 MiB (89%)
Default : Yes
Forced : No
Color range : Limited
Color primaries : BT.709
Transfer characteristics : BT.709
Matrix coefficients : BT.709

Audio
ID : 2
Format : AAC LC SBR
Commercial name : HE-AAC
Format settings : Explicit
Codec ID : A_AAC-2
Duration : 59 min 43 s
Bit rate : 212 kb/s
Channel(s) : 6 channels
Channel layout : C L R Ls Rs LFE
Sampling rate : 48.0 kHz
Frame rate : 23.438 FPS (2048 SPF)
Compression mode : Lossy
Delay relative to video : 23 ms
Stream size : 90.5 MiB (11%)
Language : English
Default : Yes
Forced : No

Text #1
ID : 3
Format : UTF-8
Codec ID : S_TEXT/UTF8
Codec ID/Info : UTF-8 Plain Text
Duration : 56 min 18 s
Bit rate : 9 b/s
Frame rate : 0.033 FPS
Count of elements : 111
Stream size : 3.82 KiB (0%)
Title : English
Language : English
Default : No
Forced : No

Text #2
ID : 4
Format : UTF-8
Codec ID : S_TEXT/UTF8
Codec ID/Info : UTF-8 Plain Text
Duration : 59 min 33 s
Bit rate : 19 b/s
Frame rate : 0.099 FPS
Count of elements : 355
Stream size : 8.31 KiB (0%)
Title : English (SDH)
Language : English
Default : Yes
Forced : No

Text #3
ID : 5
Format : UTF-8
Codec ID : S_TEXT/UTF8
Codec ID/Info : UTF-8 Plain Text
Duration : 59 min 15 s
Bit rate : 45 b/s
Frame rate : 0.165 FPS
Count of elements : 588
Stream size : 19.7 KiB (0%)
Title : Español
Language : Spanish
Default : No
Forced : No

Text #4
ID : 6
Format : UTF-8
Codec ID : S_TEXT/UTF8
Codec ID/Info : UTF-8 Plain Text
Duration : 59 min 15 s
Bit rate : 44 b/s
Frame rate : 0.165 FPS
Count of elements : 586
Stream size : 19.2 KiB (0%)
Title : Português
Language : Portuguese
Default : No
Forced : No

Text #5
ID : 7
Format : UTF-8
Codec ID : S_TEXT/UTF8
Codec ID/Info : UTF-8 Plain Text
Duration : 59 min 33 s
Bit rate : 57 b/s
Frame rate : 0.244 FPS
Count of elements : 872
Stream size : 24.9 KiB (0%)
Title : Español (SDH)
Language : Spanish
Default : No
Forced : No

Download

Direct download files get automatically deleted after a month or so. Posted on : 05/27/2024

[collapse]
Media Info and Download Links | S01E07-720p.10bit.WEBRip.2CH.x265.HEVC

General
Format : Matroska
Format version : Version 4
File size : 326 MiB
Duration : 59 min 43 s
Overall bit rate : 763 kb/s
Frame rate : 23.976 FPS
Movie name : The.Sympathizer.S01E07.720p.10bit.WEBRip.2CH.x265.HEVC

Video
ID : 1
Format : HEVC
Format/Info : High Efficiency Video Coding
Format profile : Main [email protected]@Main
Codec ID : V_MPEGH/ISO/HEVC
Duration : 59 min 43 s
Bit rate : 688 kb/s
Width : 1 280 pixels
Height : 640 pixels
Display aspect ratio : 2.000
Frame rate mode : Constant
Frame rate : 23.976 (24000/1001) FPS
Color space : YUV
Chroma subsampling : 4:2:0
Bit depth : 10 bits
Bits/(Pixel*Frame) : 0.035
Stream size : 294 MiB (90%)
Default : Yes
Forced : No
Color range : Limited
Color primaries : BT.709
Transfer characteristics : BT.709
Matrix coefficients : BT.709

Audio
ID : 2
Format : AAC LC SBR
Commercial name : HE-AAC
Format settings : Explicit
Codec ID : A_AAC-2
Duration : 59 min 43 s
Bit rate : 72.0 kb/s
Channel(s) : 2 channels
Channel layout : L R
Sampling rate : 48.0 kHz
Frame rate : 23.438 FPS (2048 SPF)
Compression mode : Lossy
Delay relative to video : 23 ms
Stream size : 31.1 MiB (10%)
Language : English
Default : Yes
Forced : No

Text #1
ID : 3
Format : UTF-8
Codec ID : S_TEXT/UTF8
Codec ID/Info : UTF-8 Plain Text
Duration : 56 min 18 s
Bit rate : 9 b/s
Frame rate : 0.033 FPS
Count of elements : 111
Stream size : 3.82 KiB (0%)
Title : English
Language : English
Default : No
Forced : No

Text #2
ID : 4
Format : UTF-8
Codec ID : S_TEXT/UTF8
Codec ID/Info : UTF-8 Plain Text
Duration : 59 min 33 s
Bit rate : 19 b/s
Frame rate : 0.099 FPS
Count of elements : 355
Stream size : 8.31 KiB (0%)
Title : English (SDH)
Language : English
Default : Yes
Forced : No

Text #3
ID : 5
Format : UTF-8
Codec ID : S_TEXT/UTF8
Codec ID/Info : UTF-8 Plain Text
Duration : 59 min 15 s
Bit rate : 45 b/s
Frame rate : 0.165 FPS
Count of elements : 588
Stream size : 19.7 KiB (0%)
Title : Español
Language : Spanish
Default : No
Forced : No

Text #4
ID : 6
Format : UTF-8
Codec ID : S_TEXT/UTF8
Codec ID/Info : UTF-8 Plain Text
Duration : 59 min 15 s
Bit rate : 44 b/s
Frame rate : 0.165 FPS
Count of elements : 586
Stream size : 19.2 KiB (0%)
Title : Português
Language : Portuguese
Default : No
Forced : No

Text #5
ID : 7
Format : UTF-8
Codec ID : S_TEXT/UTF8
Codec ID/Info : UTF-8 Plain Text
Duration : 59 min 33 s
Bit rate : 57 b/s
Frame rate : 0.244 FPS
Count of elements : 872
Stream size : 24.9 KiB (0%)
Title : Español (SDH)
Language : Spanish
Default : No
Forced : No

Download

Direct download files get automatically deleted after a month or so. Posted on : 05/27/2024

[collapse]

Media Info and Download Links | S01E06-1080p.10bit.WEBRip.6CH.x265.HEVC

General
Format : Matroska
Format version : Version 4
File size : 718 MiB
Duration : 52 min 50 s
Overall bit rate : 1 899 kb/s
Frame rate : 23.976 FPS
Movie name : The.Sympathizer.S01E06.1080p.10bit.WEBRip.6CH.x265.HEVC

Video
ID : 1
Format : HEVC
Format/Info : High Efficiency Video Coding
Format profile : Main 10@L4@Main
Codec ID : V_MPEGH/ISO/HEVC
Duration : 52 min 50 s
Bit rate : 1 702 kb/s
Width : 1 920 pixels
Height : 960 pixels
Display aspect ratio : 2.000
Frame rate mode : Constant
Frame rate : 23.976 (24000/1001) FPS
Color space : YUV
Chroma subsampling : 4:2:0
Bit depth : 10 bits
Bits/(Pixel*Frame) : 0.039
Stream size : 643 MiB (90%)
Default : Yes
Forced : No
Color range : Limited
Color primaries : BT.709
Transfer characteristics : BT.709
Matrix coefficients : BT.709

Audio
ID : 2
Format : AAC LC SBR
Commercial name : HE-AAC
Format settings : Explicit
Codec ID : A_AAC-2
Duration : 52 min 50 s
Bit rate : 192 kb/s
Channel(s) : 6 channels
Channel layout : C L R Ls Rs LFE
Sampling rate : 48.0 kHz
Frame rate : 23.438 FPS (2048 SPF)
Compression mode : Lossy
Delay relative to video : 23 ms
Stream size : 73.7 MiB (10%)
Language : English
Default : Yes
Forced : No

Text #1
ID : 3
Format : UTF-8
Codec ID : S_TEXT/UTF8
Codec ID/Info : UTF-8 Plain Text
Duration : 49 min 29 s
Bit rate : 49 b/s
Frame rate : 0.168 FPS
Count of elements : 500
Stream size : 17.9 KiB (0%)
Title : English
Language : English
Default : No
Forced : No

Text #2
ID : 4
Format : UTF-8
Codec ID : S_TEXT/UTF8
Codec ID/Info : UTF-8 Plain Text
Duration : 52 min 41 s
Bit rate : 57 b/s
Frame rate : 0.224 FPS
Count of elements : 709
Stream size : 22.1 KiB (0%)
Title : English [SDH]
Language : English
Default : Yes
Forced : No

Text #3
ID : 5
Format : UTF-8
Codec ID : S_TEXT/UTF8
Codec ID/Info : UTF-8 Plain Text
Duration : 52 min 19 s
Bit rate : 64 b/s
Frame rate : 0.236 FPS
Count of elements : 740
Stream size : 24.7 KiB (0%)
Title : Latin America Spanish
Language : Spanish
Default : No
Forced : No

Text #4
ID : 6
Format : UTF-8
Codec ID : S_TEXT/UTF8
Codec ID/Info : UTF-8 Plain Text
Duration : 52 min 41 s
Bit rate : 74 b/s
Frame rate : 0.283 FPS
Count of elements : 895
Stream size : 28.9 KiB (0%)
Title : Latin America Spanish [SDH]
Language : Spanish
Default : No
Forced : No

Text #5
ID : 7
Format : UTF-8
Codec ID : S_TEXT/UTF8
Codec ID/Info : UTF-8 Plain Text
Duration : 52 min 19 s
Bit rate : 60 b/s
Frame rate : 0.228 FPS
Count of elements : 715
Stream size : 23.3 KiB (0%)
Title : Portuguese Brazilian
Language : Portuguese
Default : No
Forced : No

Download

Direct download files get automatically deleted after a month or so. Posted on : 05/20/2024

[collapse]
Media Info and Download Links | S01E06-720p.10bit.WEBRip.2CH.x265.HEVC

General
Format : Matroska
Format version : Version 4
File size : 281 MiB
Duration : 52 min 50 s
Overall bit rate : 745 kb/s
Frame rate : 23.976 FPS
Movie name : The.Sympathizer.S01E06.720p.10bit.WEBRip.2CH.x265.HEVC

Video
ID : 1
Format : HEVC
Format/Info : High Efficiency Video Coding
Format profile : Main [email protected]@Main
Codec ID : V_MPEGH/ISO/HEVC
Duration : 52 min 50 s
Bit rate : 673 kb/s
Width : 1 280 pixels
Height : 640 pixels
Display aspect ratio : 2.000
Frame rate mode : Constant
Frame rate : 23.976 (24000/1001) FPS
Color space : YUV
Chroma subsampling : 4:2:0
Bit depth : 10 bits
Bits/(Pixel*Frame) : 0.034
Stream size : 254 MiB (90%)
Default : Yes
Forced : No
Color range : Limited
Color primaries : BT.709
Transfer characteristics : BT.709
Matrix coefficients : BT.709

Audio
ID : 2
Format : AAC LC SBR
Commercial name : HE-AAC
Format settings : Explicit
Codec ID : A_AAC-2
Duration : 52 min 50 s
Bit rate : 69.1 kb/s
Channel(s) : 2 channels
Channel layout : L R
Sampling rate : 48.0 kHz
Frame rate : 23.438 FPS (2048 SPF)
Compression mode : Lossy
Delay relative to video : 23 ms
Stream size : 26.1 MiB (9%)
Language : English
Default : Yes
Forced : No

Text #1
ID : 3
Format : UTF-8
Codec ID : S_TEXT/UTF8
Codec ID/Info : UTF-8 Plain Text
Duration : 49 min 29 s
Bit rate : 49 b/s
Frame rate : 0.168 FPS
Count of elements : 500
Stream size : 17.9 KiB (0%)
Title : English
Language : English
Default : No
Forced : No

Text #2
ID : 4
Format : UTF-8
Codec ID : S_TEXT/UTF8
Codec ID/Info : UTF-8 Plain Text
Duration : 52 min 41 s
Bit rate : 57 b/s
Frame rate : 0.224 FPS
Count of elements : 709
Stream size : 22.1 KiB (0%)
Title : English [SDH]
Language : English
Default : Yes
Forced : No

Text #3
ID : 5
Format : UTF-8
Codec ID : S_TEXT/UTF8
Codec ID/Info : UTF-8 Plain Text
Duration : 52 min 19 s
Bit rate : 64 b/s
Frame rate : 0.236 FPS
Count of elements : 740
Stream size : 24.7 KiB (0%)
Title : Latin America Spanish
Language : Spanish
Default : No
Forced : No

Text #4
ID : 6
Format : UTF-8
Codec ID : S_TEXT/UTF8
Codec ID/Info : UTF-8 Plain Text
Duration : 52 min 41 s
Bit rate : 74 b/s
Frame rate : 0.283 FPS
Count of elements : 895
Stream size : 28.9 KiB (0%)
Title : Latin America Spanish [SDH]
Language : Spanish
Default : No
Forced : No

Text #5
ID : 7
Format : UTF-8
Codec ID : S_TEXT/UTF8
Codec ID/Info : UTF-8 Plain Text
Duration : 52 min 19 s
Bit rate : 60 b/s
Frame rate : 0.228 FPS
Count of elements : 715
Stream size : 23.3 KiB (0%)
Title : Portuguese Brazilian
Language : Portuguese
Default : No
Forced : No

Download

Direct download files get automatically deleted after a month or so. Posted on : 05/20/2024

[collapse]

Media Info and Download Links | S01E05-1080p.10bit.WEBRip.6CH.x265.HEVC

General
Format : Matroska
Format version : Version 4
File size : 765 MiB
Duration : 57 min 20 s
Overall bit rate : 1 866 kb/s
Frame rate : 23.976 FPS
Movie name : The.Sympathizer.S01E05.1080p.10bit.WEBRip.6CH.x265.HEVC

Video
ID : 1
Format : HEVC
Format/Info : High Efficiency Video Coding
Format profile : Main 10@L4@Main
Codec ID : V_MPEGH/ISO/HEVC
Duration : 57 min 20 s
Bit rate : 1 665 kb/s
Width : 1 920 pixels
Height : 960 pixels
Display aspect ratio : 2.000
Frame rate mode : Constant
Frame rate : 23.976 (24000/1001) FPS
Color space : YUV
Chroma subsampling : 4:2:0
Bit depth : 10 bits
Bits/(Pixel*Frame) : 0.038
Stream size : 683 MiB (89%)
Default : Yes
Forced : No
Color range : Limited
Color primaries : BT.709
Transfer characteristics : BT.709
Matrix coefficients : BT.709

Audio
ID : 2
Format : AAC LC SBR
Commercial name : HE-AAC
Format settings : Explicit
Codec ID : A_AAC-2
Duration : 57 min 20 s
Bit rate : 197 kb/s
Channel(s) : 6 channels
Channel layout : C L R Ls Rs LFE
Sampling rate : 48.0 kHz
Frame rate : 23.438 FPS (2048 SPF)
Compression mode : Lossy
Delay relative to video : 23 ms
Stream size : 80.6 MiB (11%)
Language : English
Default : Yes
Forced : No

Text #1
ID : 3
Format : UTF-8
Codec ID : S_TEXT/UTF8
Codec ID/Info : UTF-8 Plain Text
Duration : 51 min 55 s
Bit rate : 47 b/s
Frame rate : 0.155 FPS
Count of elements : 484
Stream size : 18.0 KiB (0%)
Language : English (US)
Default : No
Forced : No

Text #2
ID : 4
Format : UTF-8
Codec ID : S_TEXT/UTF8
Codec ID/Info : UTF-8 Plain Text
Duration : 57 min 9 s
Bit rate : 54 b/s
Frame rate : 0.208 FPS
Count of elements : 713
Stream size : 22.6 KiB (0%)
Title : SDH
Language : English (US)
Default : Yes
Forced : No

Text #3
ID : 5
Format : UTF-8
Codec ID : S_TEXT/UTF8
Codec ID/Info : UTF-8 Plain Text
Duration : 57 min 7 s
Bit rate : 104 b/s
Frame rate : 0.203 FPS
Count of elements : 697
Stream size : 43.5 KiB (0%)
Language : Bulgarian (BG)
Default : No
Forced : No

Text #4
ID : 6
Format : UTF-8
Codec ID : S_TEXT/UTF8
Codec ID/Info : UTF-8 Plain Text
Duration : 57 min 7 s
Bit rate : 54 b/s
Frame rate : 0.177 FPS
Count of elements : 606
Stream size : 22.9 KiB (0%)
Language : Czech (CZ)
Default : No
Forced : No

Text #5
ID : 7
Format : UTF-8
Codec ID : S_TEXT/UTF8
Codec ID/Info : UTF-8 Plain Text
Duration : 56 min 52 s
Bit rate : 59 b/s
Frame rate : 0.163 FPS
Count of elements : 556
Stream size : 24.6 KiB (0%)
Language : Danish (DK)
Default : No
Forced : No

Text #6
ID : 8
Format : UTF-8
Codec ID : S_TEXT/UTF8
Codec ID/Info : UTF-8 Plain Text
Duration : 56 min 52 s
Bit rate : 62 b/s
Frame rate : 0.223 FPS
Count of elements : 761
Stream size : 25.9 KiB (0%)
Title : Spanish (Latin America)
Language : Spanish (Latin America)
Default : No
Forced : No

Text #7
ID : 9
Format : UTF-8
Codec ID : S_TEXT/UTF8
Codec ID/Info : UTF-8 Plain Text
Duration : 53 min 55 s
Bit rate : 64 b/s
Frame rate : 0.216 FPS
Count of elements : 699
Stream size : 25.6 KiB (0%)
Title : Spanish (Spain)
Language : Spanish (ES)
Default : No
Forced : No

Text #8
ID : 10
Format : UTF-8
Codec ID : S_TEXT/UTF8
Codec ID/Info : UTF-8 Plain Text
Duration : 56 min 52 s
Bit rate : 51 b/s
Frame rate : 0.193 FPS
Count of elements : 658
Stream size : 21.4 KiB (0%)
Language : Estonian (EE)
Default : No
Forced : No

Text #9
ID : 11
Format : UTF-8
Codec ID : S_TEXT/UTF8
Codec ID/Info : UTF-8 Plain Text
Duration : 56 min 52 s
Bit rate : 60 b/s
Frame rate : 0.191 FPS
Count of elements : 652
Stream size : 25.3 KiB (0%)
Language : Finnish (FI)
Default : No
Forced : No

Text #10
ID : 12
Format : UTF-8
Codec ID : S_TEXT/UTF8
Codec ID/Info : UTF-8 Plain Text
Duration : 57 min 7 s
Bit rate : 49 b/s
Frame rate : 0.192 FPS
Count of elements : 658
Stream size : 20.8 KiB (0%)
Language : Croatian (HR)
Default : No
Forced : No

Text #11
ID : 13
Format : UTF-8
Codec ID : S_TEXT/UTF8
Codec ID/Info : UTF-8 Plain Text
Duration : 57 min 7 s
Bit rate : 57 b/s
Frame rate : 0.195 FPS
Count of elements : 667
Stream size : 24.0 KiB (0%)
Language : Hungarian (HU)
Default : No
Forced : No

Text #12
ID : 14
Format : UTF-8
Codec ID : S_TEXT/UTF8
Codec ID/Info : UTF-8 Plain Text
Duration : 56 min 52 s
Bit rate : 57 b/s
Frame rate : 0.194 FPS
Count of elements : 661
Stream size : 23.8 KiB (0%)
Language : Lithuanian (LT)
Default : No
Forced : No

Text #13
ID : 15
Format : UTF-8
Codec ID : S_TEXT/UTF8
Codec ID/Info : UTF-8 Plain Text
Duration : 56 min 52 s
Bit rate : 56 b/s
Frame rate : 0.195 FPS
Count of elements : 667
Stream size : 23.5 KiB (0%)
Language : Latvian (LV)
Default : No
Forced : No

Text #14
ID : 16
Format : UTF-8
Codec ID : S_TEXT/UTF8
Codec ID/Info : UTF-8 Plain Text
Duration : 57 min 7 s
Bit rate : 99 b/s
Frame rate : 0.176 FPS
Count of elements : 603
Stream size : 41.8 KiB (0%)
Language : Macedonian (MK)
Default : No
Forced : No

Text #15
ID : 17
Format : UTF-8
Codec ID : S_TEXT/UTF8
Codec ID/Info : UTF-8 Plain Text
Duration : 56 min 52 s
Bit rate : 58 b/s
Frame rate : 0.180 FPS
Count of elements : 614
Stream size : 24.5 KiB (0%)
Language : Dutch (NL)
Default : No
Forced : No

Text #16
ID : 18
Format : UTF-8
Codec ID : S_TEXT/UTF8
Codec ID/Info : UTF-8 Plain Text
Duration : 56 min 52 s
Bit rate : 54 b/s
Frame rate : 0.136 FPS
Count of elements : 463
Stream size : 22.9 KiB (0%)
Language : Norwegian (NO)
Default : No
Forced : No

Text #17
ID : 19
Format : UTF-8
Codec ID : S_TEXT/UTF8
Codec ID/Info : UTF-8 Plain Text
Duration : 57 min 7 s
Bit rate : 48 b/s
Frame rate : 0.188 FPS
Count of elements : 646
Stream size : 20.4 KiB (0%)
Language : Polish (PL)
Default : No
Forced : No

Text #18
ID : 20
Format : UTF-8
Codec ID : S_TEXT/UTF8
Codec ID/Info : UTF-8 Plain Text
Duration : 56 min 52 s
Bit rate : 19 b/s
Frame rate : 0.074 FPS
Count of elements : 254
Stream size : 7.99 KiB (0%)
Title : Portuguese (Brazil)
Language : Portuguese (BR)
Default : No
Forced : No

Text #19
ID : 21
Format : UTF-8
Codec ID : S_TEXT/UTF8
Codec ID/Info : UTF-8 Plain Text
Duration : 56 min 52 s
Bit rate : 61 b/s
Frame rate : 0.197 FPS
Count of elements : 672
Stream size : 25.8 KiB (0%)
Title : Portuguese (Portugal)
Language : Portuguese (PT)
Default : No
Forced : No

Text #20
ID : 22
Format : UTF-8
Codec ID : S_TEXT/UTF8
Codec ID/Info : UTF-8 Plain Text
Duration : 57 min 7 s
Bit rate : 61 b/s
Frame rate : 0.192 FPS
Count of elements : 658
Stream size : 25.6 KiB (0%)
Language : Romanian (RO)
Default : No
Forced : No

Text #21
ID : 23
Format : UTF-8
Codec ID : S_TEXT/UTF8
Codec ID/Info : UTF-8 Plain Text
Duration : 56 min 52 s
Bit rate : 57 b/s
Frame rate : 0.200 FPS
Count of elements : 681
Stream size : 24.0 KiB (0%)
Language : Slovak (SK)
Default : No
Forced : No

Text #22
ID : 24
Format : UTF-8
Codec ID : S_TEXT/UTF8
Codec ID/Info : UTF-8 Plain Text
Duration : 57 min 7 s
Bit rate : 52 b/s
Frame rate : 0.183 FPS
Count of elements : 626
Stream size : 22.1 KiB (0%)
Language : Slovenian (SI)
Default : No
Forced : No

Text #23
ID : 25
Format : UTF-8
Codec ID : S_TEXT/UTF8
Codec ID/Info : UTF-8 Plain Text
Duration : 57 min 7 s
Bit rate : 53 b/s
Frame rate : 0.195 FPS
Count of elements : 670
Stream size : 22.4 KiB (0%)
Language : Serbian-Latn-RS
Default : No
Forced : No

Text #24
ID : 26
Format : UTF-8
Codec ID : S_TEXT/UTF8
Codec ID/Info : UTF-8 Plain Text
Duration : 56 min 52 s
Bit rate : 55 b/s
Frame rate : 0.141 FPS
Count of elements : 482
Stream size : 23.1 KiB (0%)
Language : Swedish (SE)
Default : No
Forced : No

Download

Direct download files get automatically deleted after a month or so. Posted on : 05/13/2024

[collapse]
Media Info and Download Links | S01E05-720p.10bit.WEBRip.2CH.x265.HEVC

General
Format : Matroska
Format version : Version 4
File size : 307 MiB
Duration : 57 min 20 s
Overall bit rate : 749 kb/s
Frame rate : 23.976 FPS
Movie name : The.Sympathizer.S01E05.720p.10bit.WEBRip.2CH.x265.HEVC

Video
ID : 1
Format : HEVC
Format/Info : High Efficiency Video Coding
Format profile : Main [email protected]@Main
Codec ID : V_MPEGH/ISO/HEVC
Duration : 57 min 20 s
Bit rate : 674 kb/s
Width : 1 280 pixels
Height : 640 pixels
Display aspect ratio : 2.000
Frame rate mode : Constant
Frame rate : 23.976 (24000/1001) FPS
Color space : YUV
Chroma subsampling : 4:2:0
Bit depth : 10 bits
Bits/(Pixel*Frame) : 0.034
Stream size : 276 MiB (90%)
Default : Yes
Forced : No
Color range : Limited
Color primaries : BT.709
Transfer characteristics : BT.709
Matrix coefficients : BT.709

Audio
ID : 2
Format : AAC LC SBR
Commercial name : HE-AAC
Format settings : Explicit
Codec ID : A_AAC-2
Duration : 57 min 20 s
Bit rate : 70.2 kb/s
Channel(s) : 2 channels
Channel layout : L R
Sampling rate : 48.0 kHz
Frame rate : 23.438 FPS (2048 SPF)
Compression mode : Lossy
Delay relative to video : 23 ms
Stream size : 28.8 MiB (9%)
Language : English
Default : Yes
Forced : No

Text #1
ID : 3
Format : UTF-8
Codec ID : S_TEXT/UTF8
Codec ID/Info : UTF-8 Plain Text
Duration : 51 min 55 s
Bit rate : 47 b/s
Frame rate : 0.155 FPS
Count of elements : 484
Stream size : 18.0 KiB (0%)
Language : English (US)
Default : No
Forced : No

Text #2
ID : 4
Format : UTF-8
Codec ID : S_TEXT/UTF8
Codec ID/Info : UTF-8 Plain Text
Duration : 57 min 9 s
Bit rate : 54 b/s
Frame rate : 0.208 FPS
Count of elements : 713
Stream size : 22.6 KiB (0%)
Title : SDH
Language : English (US)
Default : Yes
Forced : No

Text #3
ID : 5
Format : UTF-8
Codec ID : S_TEXT/UTF8
Codec ID/Info : UTF-8 Plain Text
Duration : 57 min 7 s
Bit rate : 104 b/s
Frame rate : 0.203 FPS
Count of elements : 697
Stream size : 43.5 KiB (0%)
Language : Bulgarian (BG)
Default : No
Forced : No

Text #4
ID : 6
Format : UTF-8
Codec ID : S_TEXT/UTF8
Codec ID/Info : UTF-8 Plain Text
Duration : 57 min 7 s
Bit rate : 54 b/s
Frame rate : 0.177 FPS
Count of elements : 606
Stream size : 22.9 KiB (0%)
Language : Czech (CZ)
Default : No
Forced : No

Text #5
ID : 7
Format : UTF-8
Codec ID : S_TEXT/UTF8
Codec ID/Info : UTF-8 Plain Text
Duration : 56 min 52 s
Bit rate : 59 b/s
Frame rate : 0.163 FPS
Count of elements : 556
Stream size : 24.6 KiB (0%)
Language : Danish (DK)
Default : No
Forced : No

Text #6
ID : 8
Format : UTF-8
Codec ID : S_TEXT/UTF8
Codec ID/Info : UTF-8 Plain Text
Duration : 56 min 52 s
Bit rate : 62 b/s
Frame rate : 0.223 FPS
Count of elements : 761
Stream size : 25.9 KiB (0%)
Title : Spanish (Latin America)
Language : Spanish (Latin America)
Default : No
Forced : No

Text #7
ID : 9
Format : UTF-8
Codec ID : S_TEXT/UTF8
Codec ID/Info : UTF-8 Plain Text
Duration : 53 min 55 s
Bit rate : 64 b/s
Frame rate : 0.216 FPS
Count of elements : 699
Stream size : 25.6 KiB (0%)
Title : Spanish (Spain)
Language : Spanish (ES)
Default : No
Forced : No

Text #8
ID : 10
Format : UTF-8
Codec ID : S_TEXT/UTF8
Codec ID/Info : UTF-8 Plain Text
Duration : 56 min 52 s
Bit rate : 51 b/s
Frame rate : 0.193 FPS
Count of elements : 658
Stream size : 21.4 KiB (0%)
Language : Estonian (EE)
Default : No
Forced : No

Text #9
ID : 11
Format : UTF-8
Codec ID : S_TEXT/UTF8
Codec ID/Info : UTF-8 Plain Text
Duration : 56 min 52 s
Bit rate : 60 b/s
Frame rate : 0.191 FPS
Count of elements : 652
Stream size : 25.3 KiB (0%)
Language : Finnish (FI)
Default : No
Forced : No

Text #10
ID : 12
Format : UTF-8
Codec ID : S_TEXT/UTF8
Codec ID/Info : UTF-8 Plain Text
Duration : 57 min 7 s
Bit rate : 49 b/s
Frame rate : 0.192 FPS
Count of elements : 658
Stream size : 20.8 KiB (0%)
Language : Croatian (HR)
Default : No
Forced : No

Text #11
ID : 13
Format : UTF-8
Codec ID : S_TEXT/UTF8
Codec ID/Info : UTF-8 Plain Text
Duration : 57 min 7 s
Bit rate : 57 b/s
Frame rate : 0.195 FPS
Count of elements : 667
Stream size : 24.0 KiB (0%)
Language : Hungarian (HU)
Default : No
Forced : No

Text #12
ID : 14
Format : UTF-8
Codec ID : S_TEXT/UTF8
Codec ID/Info : UTF-8 Plain Text
Duration : 56 min 52 s
Bit rate : 57 b/s
Frame rate : 0.194 FPS
Count of elements : 661
Stream size : 23.8 KiB (0%)
Language : Lithuanian (LT)
Default : No
Forced : No

Text #13
ID : 15
Format : UTF-8
Codec ID : S_TEXT/UTF8
Codec ID/Info : UTF-8 Plain Text
Duration : 56 min 52 s
Bit rate : 56 b/s
Frame rate : 0.195 FPS
Count of elements : 667
Stream size : 23.5 KiB (0%)
Language : Latvian (LV)
Default : No
Forced : No

Text #14
ID : 16
Format : UTF-8
Codec ID : S_TEXT/UTF8
Codec ID/Info : UTF-8 Plain Text
Duration : 57 min 7 s
Bit rate : 99 b/s
Frame rate : 0.176 FPS
Count of elements : 603
Stream size : 41.8 KiB (0%)
Language : Macedonian (MK)
Default : No
Forced : No

Text #15
ID : 17
Format : UTF-8
Codec ID : S_TEXT/UTF8
Codec ID/Info : UTF-8 Plain Text
Duration : 56 min 52 s
Bit rate : 58 b/s
Frame rate : 0.180 FPS
Count of elements : 614
Stream size : 24.5 KiB (0%)
Language : Dutch (NL)
Default : No
Forced : No

Text #16
ID : 18
Format : UTF-8
Codec ID : S_TEXT/UTF8
Codec ID/Info : UTF-8 Plain Text
Duration : 56 min 52 s
Bit rate : 54 b/s
Frame rate : 0.136 FPS
Count of elements : 463
Stream size : 22.9 KiB (0%)
Language : Norwegian (NO)
Default : No
Forced : No

Text #17
ID : 19
Format : UTF-8
Codec ID : S_TEXT/UTF8
Codec ID/Info : UTF-8 Plain Text
Duration : 57 min 7 s
Bit rate : 48 b/s
Frame rate : 0.188 FPS
Count of elements : 646
Stream size : 20.4 KiB (0%)
Language : Polish (PL)
Default : No
Forced : No

Text #18
ID : 20
Format : UTF-8
Codec ID : S_TEXT/UTF8
Codec ID/Info : UTF-8 Plain Text
Duration : 56 min 52 s
Bit rate : 19 b/s
Frame rate : 0.074 FPS
Count of elements : 254
Stream size : 7.99 KiB (0%)
Title : Portuguese (Brazil)
Language : Portuguese (BR)
Default : No
Forced : No

Text #19
ID : 21
Format : UTF-8
Codec ID : S_TEXT/UTF8
Codec ID/Info : UTF-8 Plain Text
Duration : 56 min 52 s
Bit rate : 61 b/s
Frame rate : 0.197 FPS
Count of elements : 672
Stream size : 25.8 KiB (0%)
Title : Portuguese (Portugal)
Language : Portuguese (PT)
Default : No
Forced : No

Text #20
ID : 22
Format : UTF-8
Codec ID : S_TEXT/UTF8
Codec ID/Info : UTF-8 Plain Text
Duration : 57 min 7 s
Bit rate : 61 b/s
Frame rate : 0.192 FPS
Count of elements : 658
Stream size : 25.6 KiB (0%)
Language : Romanian (RO)
Default : No
Forced : No

Text #21
ID : 23
Format : UTF-8
Codec ID : S_TEXT/UTF8
Codec ID/Info : UTF-8 Plain Text
Duration : 56 min 52 s
Bit rate : 57 b/s
Frame rate : 0.200 FPS
Count of elements : 681
Stream size : 24.0 KiB (0%)
Language : Slovak (SK)
Default : No
Forced : No

Text #22
ID : 24
Format : UTF-8
Codec ID : S_TEXT/UTF8
Codec ID/Info : UTF-8 Plain Text
Duration : 57 min 7 s
Bit rate : 52 b/s
Frame rate : 0.183 FPS
Count of elements : 626
Stream size : 22.1 KiB (0%)
Language : Slovenian (SI)
Default : No
Forced : No

Text #23
ID : 25
Format : UTF-8
Codec ID : S_TEXT/UTF8
Codec ID/Info : UTF-8 Plain Text
Duration : 57 min 7 s
Bit rate : 53 b/s
Frame rate : 0.195 FPS
Count of elements : 670
Stream size : 22.4 KiB (0%)
Language : Serbian-Latn-RS
Default : No
Forced : No

Text #24
ID : 26
Format : UTF-8
Codec ID : S_TEXT/UTF8
Codec ID/Info : UTF-8 Plain Text
Duration : 56 min 52 s
Bit rate : 55 b/s
Frame rate : 0.141 FPS
Count of elements : 482
Stream size : 23.1 KiB (0%)
Language : Swedish (SE)
Default : No
Forced : No

Download

Direct download files get automatically deleted after a month or so. Posted on : 05/13/2024

[collapse]

Media Info and Download Links | S01E04-1080p.10bit.WEBRip.6CH.x265.HEVC

General
Format : Matroska
Format version : Version 4
File size : 994 MiB
Duration : 58 min 36 s
Overall bit rate : 2 371 kb/s
Frame rate : 23.976 FPS
Movie name : The.Sympathizer.S01E04.1080p.10bit.WEBRip.6CH.x265.HEVC

Video
ID : 1
Format : HEVC
Format/Info : High Efficiency Video Coding
Format profile : Main 10@L4@Main
Codec ID : V_MPEGH/ISO/HEVC
Duration : 58 min 36 s
Bit rate : 2 171 kb/s
Width : 1 920 pixels
Height : 960 pixels
Display aspect ratio : 2.000
Frame rate mode : Constant
Frame rate : 23.976 (24000/1001) FPS
Color space : YUV
Chroma subsampling : 4:2:0
Bit depth : 10 bits
Bits/(Pixel*Frame) : 0.049
Stream size : 910 MiB (92%)
Default : Yes
Forced : No
Color range : Limited
Color primaries : BT.709
Transfer characteristics : BT.709
Matrix coefficients : BT.709

Audio
ID : 2
Format : AAC LC SBR
Commercial name : HE-AAC
Format settings : Explicit
Codec ID : A_AAC-2
Duration : 58 min 36 s
Bit rate : 197 kb/s
Channel(s) : 6 channels
Channel layout : C L R Ls Rs LFE
Sampling rate : 48.0 kHz
Frame rate : 23.438 FPS (2048 SPF)
Compression mode : Lossy
Delay relative to video : 23 ms
Stream size : 82.8 MiB (8%)
Language : English
Default : Yes
Forced : No

Text #1
ID : 3
Format : UTF-8
Codec ID : S_TEXT/UTF8
Codec ID/Info : UTF-8 Plain Text
Duration : 52 min 56 s
Bit rate : 73 b/s
Frame rate : 0.253 FPS
Count of elements : 802
Stream size : 28.7 KiB (0%)
Title : English
Language : English
Default : No
Forced : No

Text #2
ID : 4
Format : UTF-8
Codec ID : S_TEXT/UTF8
Codec ID/Info : UTF-8 Plain Text
Duration : 58 min 27 s
Bit rate : 88 b/s
Frame rate : 0.318 FPS
Count of elements : 1114
Stream size : 37.7 KiB (0%)
Title : English [SDH]
Language : English
Default : Yes
Forced : No

Text #3
ID : 5
Format : UTF-8
Codec ID : S_TEXT/UTF8
Codec ID/Info : UTF-8 Plain Text
Duration : 58 min 8 s
Bit rate : 77 b/s
Frame rate : 0.288 FPS
Count of elements : 1005
Stream size : 33.0 KiB (0%)
Title : Latin America Spanish
Language : Spanish
Default : No
Forced : No

Text #4
ID : 6
Format : UTF-8
Codec ID : S_TEXT/UTF8
Codec ID/Info : UTF-8 Plain Text
Duration : 58 min 27 s
Bit rate : 95 b/s
Frame rate : 0.355 FPS
Count of elements : 1246
Stream size : 40.9 KiB (0%)
Title : Latin America Spanish [SDH]
Language : Spanish
Default : No
Forced : No

Text #5
ID : 7
Format : UTF-8
Codec ID : S_TEXT/UTF8
Codec ID/Info : UTF-8 Plain Text
Duration : 58 min 8 s
Bit rate : 71 b/s
Frame rate : 0.274 FPS
Count of elements : 955
Stream size : 30.6 KiB (0%)
Title : Portuguese Brazilian
Language : Portuguese
Default : No
Forced : No

Download

Direct download files get automatically deleted after a month or so. Posted on : 05/06/2024

[collapse]
Media Info and Download Links | S01E04-720p.10bit.WEBRip.2CH.x265.HEVC

General
Format : Matroska
Format version : Version 4
File size : 423 MiB
Duration : 58 min 36 s
Overall bit rate : 1 010 kb/s
Frame rate : 23.976 FPS
Movie name : The.Sympathizer.S01E04.720p.10bit.WEBRip.2CH.x265.HEVC

Video
ID : 1
Format : HEVC
Format/Info : High Efficiency Video Coding
Format profile : Main [email protected]@Main
Codec ID : V_MPEGH/ISO/HEVC
Duration : 58 min 36 s
Bit rate : 939 kb/s
Width : 1 280 pixels
Height : 640 pixels
Display aspect ratio : 2.000
Frame rate mode : Constant
Frame rate : 23.976 (24000/1001) FPS
Color space : YUV
Chroma subsampling : 4:2:0
Bit depth : 10 bits
Bits/(Pixel*Frame) : 0.048
Stream size : 393 MiB (93%)
Default : Yes
Forced : No
Color range : Limited
Color primaries : BT.709
Transfer characteristics : BT.709
Matrix coefficients : BT.709

Audio
ID : 2
Format : AAC LC SBR
Commercial name : HE-AAC
Format settings : Explicit
Codec ID : A_AAC-2
Duration : 58 min 36 s
Bit rate : 68.5 kb/s
Channel(s) : 2 channels
Channel layout : L R
Sampling rate : 48.0 kHz
Frame rate : 23.438 FPS (2048 SPF)
Compression mode : Lossy
Delay relative to video : 23 ms
Stream size : 28.7 MiB (7%)
Language : English
Default : Yes
Forced : No

Text #1
ID : 3
Format : UTF-8
Codec ID : S_TEXT/UTF8
Codec ID/Info : UTF-8 Plain Text
Duration : 52 min 56 s
Bit rate : 73 b/s
Frame rate : 0.253 FPS
Count of elements : 802
Stream size : 28.7 KiB (0%)
Title : English
Language : English
Default : No
Forced : No

Text #2
ID : 4
Format : UTF-8
Codec ID : S_TEXT/UTF8
Codec ID/Info : UTF-8 Plain Text
Duration : 58 min 27 s
Bit rate : 88 b/s
Frame rate : 0.318 FPS
Count of elements : 1114
Stream size : 37.7 KiB (0%)
Title : English [SDH]
Language : English
Default : Yes
Forced : No

Text #3
ID : 5
Format : UTF-8
Codec ID : S_TEXT/UTF8
Codec ID/Info : UTF-8 Plain Text
Duration : 58 min 8 s
Bit rate : 77 b/s
Frame rate : 0.288 FPS
Count of elements : 1005
Stream size : 33.0 KiB (0%)
Title : Latin America Spanish
Language : Spanish
Default : No
Forced : No

Text #4
ID : 6
Format : UTF-8
Codec ID : S_TEXT/UTF8
Codec ID/Info : UTF-8 Plain Text
Duration : 58 min 27 s
Bit rate : 95 b/s
Frame rate : 0.355 FPS
Count of elements : 1246
Stream size : 40.9 KiB (0%)
Title : Latin America Spanish [SDH]
Language : Spanish
Default : No
Forced : No

Text #5
ID : 7
Format : UTF-8
Codec ID : S_TEXT/UTF8
Codec ID/Info : UTF-8 Plain Text
Duration : 58 min 8 s
Bit rate : 71 b/s
Frame rate : 0.274 FPS
Count of elements : 955
Stream size : 30.6 KiB (0%)
Title : Portuguese Brazilian
Language : Portuguese
Default : No
Forced : No

Download

Direct download files get automatically deleted after a month or so. Posted on : 05/06/2024

[collapse]

Media Info and Download Links | S01E03-1080p.10bit.WEBRip.6CH.x265.HEVC

General
Format : Matroska
Format version : Version 4
File size : 831 MiB
Duration : 59 min 58 s
Overall bit rate : 1 938 kb/s
Frame rate : 23.976 FPS
Movie name : The.Sympathizer.S01E03.1080p.10bit.WEBRip.6CH.x265.HEVC

Video
ID : 1
Format : HEVC
Format/Info : High Efficiency Video Coding
Format profile : Main 10@L4@Main
Codec ID : V_MPEGH/ISO/HEVC
Duration : 59 min 58 s
Bit rate : 1 728 kb/s
Width : 1 920 pixels
Height : 960 pixels
Display aspect ratio : 2.000
Frame rate mode : Constant
Frame rate : 23.976 (24000/1001) FPS
Color space : YUV
Chroma subsampling : 4:2:0
Bit depth : 10 bits
Bits/(Pixel*Frame) : 0.039
Stream size : 741 MiB (89%)
Default : Yes
Forced : No
Color range : Limited
Color primaries : BT.709
Transfer characteristics : BT.709
Matrix coefficients : BT.709

Audio
ID : 2
Format : AAC LC SBR
Commercial name : HE-AAC
Format settings : Explicit
Codec ID : A_AAC-2
Duration : 59 min 58 s
Bit rate : 207 kb/s
Channel(s) : 6 channels
Channel layout : C L R Ls Rs LFE
Sampling rate : 48.0 kHz
Frame rate : 23.438 FPS (2048 SPF)
Compression mode : Lossy
Delay relative to video : 23 ms
Stream size : 88.8 MiB (11%)
Language : English
Default : Yes
Forced : No

Text #1
ID : 3
Format : UTF-8
Codec ID : S_TEXT/UTF8
Codec ID/Info : UTF-8 Plain Text
Duration : 55 min 45 s
Bit rate : 38 b/s
Frame rate : 0.134 FPS
Count of elements : 449
Stream size : 15.7 KiB (0%)
Title : English
Language : English
Default : No
Forced : No

Text #2
ID : 4
Format : UTF-8
Codec ID : S_TEXT/UTF8
Codec ID/Info : UTF-8 Plain Text
Duration : 59 min 48 s
Bit rate : 49 b/s
Frame rate : 0.203 FPS
Count of elements : 727
Stream size : 21.6 KiB (0%)
Title : English (SDH)
Language : English
Default : Yes
Forced : No

Text #3
ID : 5
Format : UTF-8
Codec ID : S_TEXT/UTF8
Codec ID/Info : UTF-8 Plain Text
Duration : 59 min 31 s
Bit rate : 58 b/s
Frame rate : 0.214 FPS
Count of elements : 766
Stream size : 25.3 KiB (0%)
Title : Español
Language : Spanish
Default : No
Forced : No

Text #4
ID : 6
Format : UTF-8
Codec ID : S_TEXT/UTF8
Codec ID/Info : UTF-8 Plain Text
Duration : 59 min 30 s
Bit rate : 55 b/s
Frame rate : 0.222 FPS
Count of elements : 793
Stream size : 24.2 KiB (0%)
Title : Português
Language : Portuguese
Default : No
Forced : No

Text #5
ID : 7
Format : UTF-8
Codec ID : S_TEXT/UTF8
Codec ID/Info : UTF-8 Plain Text
Duration : 59 min 48 s
Bit rate : 71 b/s
Frame rate : 0.286 FPS
Count of elements : 1025
Stream size : 31.1 KiB (0%)
Title : Español (SDH)
Language : Spanish
Default : No
Forced : No

Download

Direct download files get automatically deleted after a month or so. Posted on : 04/29/2024

[collapse]
Media Info and Download Links | S01E03-720p.10bit.WEBRip.2CH.x265.HEVC

General
Format : Matroska
Format version : Version 4
File size : 326 MiB
Duration : 59 min 58 s
Overall bit rate : 759 kb/s
Frame rate : 23.976 FPS
Movie name : The.Sympathizer.S01E03.720p.10bit.WEBRip.2CH.x265.HEVC

Video
ID : 1
Format : HEVC
Format/Info : High Efficiency Video Coding
Format profile : Main [email protected]@Main
Codec ID : V_MPEGH/ISO/HEVC
Duration : 59 min 58 s
Bit rate : 686 kb/s
Width : 1 280 pixels
Height : 640 pixels
Display aspect ratio : 2.000
Frame rate mode : Constant
Frame rate : 23.976 (24000/1001) FPS
Color space : YUV
Chroma subsampling : 4:2:0
Bit depth : 10 bits
Bits/(Pixel*Frame) : 0.035
Stream size : 294 MiB (90%)
Default : Yes
Forced : No
Color range : Limited
Color primaries : BT.709
Transfer characteristics : BT.709
Matrix coefficients : BT.709

Audio
ID : 2
Format : AAC LC SBR
Commercial name : HE-AAC
Format settings : Explicit
Codec ID : A_AAC-2
Duration : 59 min 58 s
Bit rate : 70.2 kb/s
Channel(s) : 2 channels
Channel layout : L R
Sampling rate : 48.0 kHz
Frame rate : 23.438 FPS (2048 SPF)
Compression mode : Lossy
Delay relative to video : 23 ms
Stream size : 30.1 MiB (9%)
Language : English
Default : Yes
Forced : No

Text #1
ID : 3
Format : UTF-8
Codec ID : S_TEXT/UTF8
Codec ID/Info : UTF-8 Plain Text
Duration : 55 min 45 s
Bit rate : 38 b/s
Frame rate : 0.134 FPS
Count of elements : 449
Stream size : 15.7 KiB (0%)
Title : English
Language : English
Default : No
Forced : No

Text #2
ID : 4
Format : UTF-8
Codec ID : S_TEXT/UTF8
Codec ID/Info : UTF-8 Plain Text
Duration : 59 min 48 s
Bit rate : 49 b/s
Frame rate : 0.203 FPS
Count of elements : 727
Stream size : 21.6 KiB (0%)
Title : English (SDH)
Language : English
Default : Yes
Forced : No

Text #3
ID : 5
Format : UTF-8
Codec ID : S_TEXT/UTF8
Codec ID/Info : UTF-8 Plain Text
Duration : 59 min 31 s
Bit rate : 58 b/s
Frame rate : 0.214 FPS
Count of elements : 766
Stream size : 25.3 KiB (0%)
Title : Español
Language : Spanish
Default : No
Forced : No

Text #4
ID : 6
Format : UTF-8
Codec ID : S_TEXT/UTF8
Codec ID/Info : UTF-8 Plain Text
Duration : 59 min 30 s
Bit rate : 55 b/s
Frame rate : 0.222 FPS
Count of elements : 793
Stream size : 24.2 KiB (0%)
Title : Português
Language : Portuguese
Default : No
Forced : No

Text #5
ID : 7
Format : UTF-8
Codec ID : S_TEXT/UTF8
Codec ID/Info : UTF-8 Plain Text
Duration : 59 min 48 s
Bit rate : 71 b/s
Frame rate : 0.286 FPS
Count of elements : 1025
Stream size : 31.1 KiB (0%)
Title : Español (SDH)
Language : Spanish
Default : No
Forced : No

Download

Direct download files get automatically deleted after a month or so. Posted on : 04/29/2024

[collapse]

Media Info and Download Links | S01E02-1080p.10bit.WEBRip.6CH.x265.HEVC

General
Format : Matroska
Format version : Version 4
File size : 851 MiB
Duration : 59 min 52 s
Overall bit rate : 1 987 kb/s
Frame rate : 23.976 FPS
Movie name : The.Sympathizer.S01E02.1080p.10bit.WEBRip.6CH.x265.HEVC

Video
ID : 1
Format : HEVC
Format/Info : High Efficiency Video Coding
Format profile : Main 10@L4@Main
Codec ID : V_MPEGH/ISO/HEVC
Duration : 59 min 52 s
Bit rate : 1 785 kb/s
Width : 1 920 pixels
Height : 960 pixels
Display aspect ratio : 2.000
Frame rate mode : Constant
Frame rate : 23.976 (24000/1001) FPS
Color space : YUV
Chroma subsampling : 4:2:0
Bit depth : 10 bits
Bits/(Pixel*Frame) : 0.040
Stream size : 764 MiB (90%)
Default : Yes
Forced : No
Color range : Limited
Color primaries : BT.709
Transfer characteristics : BT.709
Matrix coefficients : BT.709

Audio
ID : 2
Format : AAC LC SBR
Commercial name : HE-AAC
Format settings : Explicit
Codec ID : A_AAC-2
Duration : 59 min 52 s
Bit rate : 200 kb/s
Channel(s) : 6 channels
Channel layout : C L R Ls Rs LFE
Sampling rate : 48.0 kHz
Frame rate : 23.438 FPS (2048 SPF)
Compression mode : Lossy
Delay relative to video : 23 ms
Stream size : 85.7 MiB (10%)
Language : English
Default : Yes
Forced : No

Text #1
ID : 3
Format : UTF-8
Codec ID : S_TEXT/UTF8
Codec ID/Info : UTF-8 Plain Text
Duration : 52 min 18 s
Bit rate : 48 b/s
Frame rate : 0.163 FPS
Count of elements : 513
Stream size : 18.7 KiB (0%)
Title : English
Language : English
Default : No
Forced : No

Text #2
ID : 4
Format : UTF-8
Codec ID : S_TEXT/UTF8
Codec ID/Info : UTF-8 Plain Text
Duration : 59 min 37 s
Bit rate : 57 b/s
Frame rate : 0.218 FPS
Count of elements : 779
Stream size : 25.0 KiB (0%)
Title : English (SDH)
Language : English
Default : Yes
Forced : No

Text #3
ID : 5
Format : UTF-8
Codec ID : S_TEXT/UTF8
Codec ID/Info : UTF-8 Plain Text
Duration : 59 min 25 s
Bit rate : 58 b/s
Frame rate : 0.215 FPS
Count of elements : 766
Stream size : 25.6 KiB (0%)
Title : Español
Language : Spanish
Default : No
Forced : No

Text #4
ID : 6
Format : UTF-8
Codec ID : S_TEXT/UTF8
Codec ID/Info : UTF-8 Plain Text
Duration : 59 min 24 s
Bit rate : 56 b/s
Frame rate : 0.214 FPS
Count of elements : 762
Stream size : 24.7 KiB (0%)
Title : Português
Language : Portuguese
Default : No
Forced : No

Text #5
ID : 7
Format : UTF-8
Codec ID : S_TEXT/UTF8
Codec ID/Info : UTF-8 Plain Text
Duration : 59 min 37 s
Bit rate : 73 b/s
Frame rate : 0.277 FPS
Count of elements : 992
Stream size : 32.1 KiB (0%)
Title : Español (SDH)
Language : Spanish
Default : No
Forced : No

Download

Direct download files get automatically deleted after a month or so. Posted on : 04/22/2024

[collapse]
Media Info and Download Links | S01E02-720p.10bit.WEBRip.2CH.x265.HEVC

General
Format : Matroska
Format version : Version 4
File size : 324 MiB
Duration : 59 min 52 s
Overall bit rate : 756 kb/s
Frame rate : 23.976 FPS
Movie name : The.Sympathizer.S01E02.720p.10bit.WEBRip.2CH.x265.HEVC

Video
ID : 1
Format : HEVC
Format/Info : High Efficiency Video Coding
Format profile : Main [email protected]@Main
Codec ID : V_MPEGH/ISO/HEVC
Duration : 59 min 52 s
Bit rate : 686 kb/s
Width : 1 280 pixels
Height : 640 pixels
Display aspect ratio : 2.000
Frame rate mode : Constant
Frame rate : 23.976 (24000/1001) FPS
Color space : YUV
Chroma subsampling : 4:2:0
Bit depth : 10 bits
Bits/(Pixel*Frame) : 0.035
Stream size : 294 MiB (91%)
Default : Yes
Forced : No
Color range : Limited
Color primaries : BT.709
Transfer characteristics : BT.709
Matrix coefficients : BT.709

Audio
ID : 2
Format : AAC LC SBR
Commercial name : HE-AAC
Format settings : Explicit
Codec ID : A_AAC-2
Duration : 59 min 52 s
Bit rate : 66.2 kb/s
Channel(s) : 2 channels
Channel layout : L R
Sampling rate : 48.0 kHz
Frame rate : 23.438 FPS (2048 SPF)
Compression mode : Lossy
Delay relative to video : 23 ms
Stream size : 28.8 MiB (9%)
Language : English
Default : Yes
Forced : No

Text #1
ID : 3
Format : UTF-8
Codec ID : S_TEXT/UTF8
Codec ID/Info : UTF-8 Plain Text
Duration : 52 min 18 s
Bit rate : 48 b/s
Frame rate : 0.163 FPS
Count of elements : 513
Stream size : 18.7 KiB (0%)
Title : English
Language : English
Default : No
Forced : No

Text #2
ID : 4
Format : UTF-8
Codec ID : S_TEXT/UTF8
Codec ID/Info : UTF-8 Plain Text
Duration : 59 min 37 s
Bit rate : 57 b/s
Frame rate : 0.218 FPS
Count of elements : 779
Stream size : 25.0 KiB (0%)
Title : English (SDH)
Language : English
Default : Yes
Forced : No

Text #3
ID : 5
Format : UTF-8
Codec ID : S_TEXT/UTF8
Codec ID/Info : UTF-8 Plain Text
Duration : 59 min 25 s
Bit rate : 58 b/s
Frame rate : 0.215 FPS
Count of elements : 766
Stream size : 25.6 KiB (0%)
Title : Español
Language : Spanish
Default : No
Forced : No

Text #4
ID : 6
Format : UTF-8
Codec ID : S_TEXT/UTF8
Codec ID/Info : UTF-8 Plain Text
Duration : 59 min 24 s
Bit rate : 56 b/s
Frame rate : 0.214 FPS
Count of elements : 762
Stream size : 24.7 KiB (0%)
Title : Português
Language : Portuguese
Default : No
Forced : No

Text #5
ID : 7
Format : UTF-8
Codec ID : S_TEXT/UTF8
Codec ID/Info : UTF-8 Plain Text
Duration : 59 min 37 s
Bit rate : 73 b/s
Frame rate : 0.277 FPS
Count of elements : 992
Stream size : 32.1 KiB (0%)
Title : Español (SDH)
Language : Spanish
Default : No
Forced : No

Download

Direct download files get automatically deleted after a month or so. Posted on : 04/22/2024

[collapse]

Media Info and Download Links | S01E01-1080p.10bit.WEBRip.6CH.x265.HEVC

General
Format : Matroska
Format version : Version 4
File size : 782 MiB
Duration : 57 min 15 s
Overall bit rate : 1 911 kb/s
Frame rate : 23.976 FPS
Movie name : The.Sympathizer.S01E01.1080p.10bit.WEBRip.6CH.x265.HEVC

Video
ID : 1
Format : HEVC
Format/Info : High Efficiency Video Coding
Format profile : Main 10@L4@Main
Codec ID : V_MPEGH/ISO/HEVC
Duration : 57 min 15 s
Bit rate : 1 703 kb/s
Width : 1 920 pixels
Height : 960 pixels
Display aspect ratio : 2.000
Frame rate mode : Constant
Frame rate : 23.976 (24000/1001) FPS
Color space : YUV
Chroma subsampling : 4:2:0
Bit depth : 10 bits
Bits/(Pixel*Frame) : 0.039
Stream size : 697 MiB (89%)
Default : Yes
Forced : No
Color range : Limited
Color primaries : BT.709
Transfer characteristics : BT.709
Matrix coefficients : BT.709

Audio
ID : 2
Format : AAC LC SBR
Commercial name : HE-AAC
Format settings : Explicit
Codec ID : A_AAC-2
Duration : 57 min 15 s
Bit rate : 206 kb/s
Channel(s) : 6 channels
Channel layout : C L R Ls Rs LFE
Sampling rate : 48.0 kHz
Frame rate : 23.438 FPS (2048 SPF)
Compression mode : Lossy
Delay relative to video : 23 ms
Stream size : 84.2 MiB (11%)
Language : English
Default : Yes
Forced : No

Text #1
ID : 3
Format : UTF-8
Codec ID : S_TEXT/UTF8
Codec ID/Info : UTF-8 Plain Text
Duration : 52 min 59 s
Bit rate : 31 b/s
Frame rate : 0.099 FPS
Count of elements : 315
Stream size : 12.3 KiB (0%)
Language : English (US)
Default : No
Forced : No

Text #2
ID : 4
Format : UTF-8
Codec ID : S_TEXT/UTF8
Codec ID/Info : UTF-8 Plain Text
Duration : 56 min 56 s
Bit rate : 42 b/s
Frame rate : 0.171 FPS
Count of elements : 584
Stream size : 17.6 KiB (0%)
Title : SDH
Language : English (US)
Default : Yes
Forced : No

Text #3
ID : 5
Format : UTF-8
Codec ID : S_TEXT/UTF8
Codec ID/Info : UTF-8 Plain Text
Duration : 56 min 51 s
Bit rate : 54 b/s
Frame rate : 0.190 FPS
Count of elements : 649
Stream size : 22.7 KiB (0%)
Title : Latin American
Language : Spanish (Latin America)
Default : No
Forced : No

Text #4
ID : 6
Format : UTF-8
Codec ID : S_TEXT/UTF8
Codec ID/Info : UTF-8 Plain Text
Duration : 56 min 48 s
Bit rate : 54 b/s
Frame rate : 0.194 FPS
Count of elements : 660
Stream size : 22.7 KiB (0%)
Title : Brazilian
Language : Portuguese (BR)
Default : No
Forced : No

Download

Direct download files get automatically deleted after a month or so. Posted on : 04/15/2024

[collapse]
Media Info and Download Links | S01E01-720p.10bit.WEBRip.2CH.x265.HEVC

General
Format : Matroska
Format version : Version 4
File size : 309 MiB
Duration : 57 min 15 s
Overall bit rate : 754 kb/s
Frame rate : 23.976 FPS
Movie name : The.Sympathizer.S01E01.720p.10bit.WEBRip.2CH.x265.HEVC

Video
ID : 1
Format : HEVC
Format/Info : High Efficiency Video Coding
Format profile : Main [email protected]@Main
Codec ID : V_MPEGH/ISO/HEVC
Duration : 57 min 15 s
Bit rate : 683 kb/s
Width : 1 280 pixels
Height : 640 pixels
Display aspect ratio : 2.000
Frame rate mode : Constant
Frame rate : 23.976 (24000/1001) FPS
Color space : YUV
Chroma subsampling : 4:2:0
Bit depth : 10 bits
Bits/(Pixel*Frame) : 0.035
Stream size : 280 MiB (91%)
Default : Yes
Forced : No
Color range : Limited
Color primaries : BT.709
Transfer characteristics : BT.709
Matrix coefficients : BT.709

Audio
ID : 2
Format : AAC LC SBR
Commercial name : HE-AAC
Format settings : Explicit
Codec ID : A_AAC-2
Duration : 57 min 15 s
Bit rate : 69.2 kb/s
Channel(s) : 2 channels
Channel layout : L R
Sampling rate : 48.0 kHz
Frame rate : 23.438 FPS (2048 SPF)
Compression mode : Lossy
Delay relative to video : 23 ms
Stream size : 28.3 MiB (9%)
Language : English
Default : Yes
Forced : No

Text #1
ID : 3
Format : UTF-8
Codec ID : S_TEXT/UTF8
Codec ID/Info : UTF-8 Plain Text
Duration : 52 min 59 s
Bit rate : 31 b/s
Frame rate : 0.099 FPS
Count of elements : 315
Stream size : 12.3 KiB (0%)
Language : English (US)
Default : No
Forced : No

Text #2
ID : 4
Format : UTF-8
Codec ID : S_TEXT/UTF8
Codec ID/Info : UTF-8 Plain Text
Duration : 56 min 56 s
Bit rate : 42 b/s
Frame rate : 0.171 FPS
Count of elements : 584
Stream size : 17.6 KiB (0%)
Title : SDH
Language : English (US)
Default : Yes
Forced : No

Text #3
ID : 5
Format : UTF-8
Codec ID : S_TEXT/UTF8
Codec ID/Info : UTF-8 Plain Text
Duration : 56 min 51 s
Bit rate : 54 b/s
Frame rate : 0.190 FPS
Count of elements : 649
Stream size : 22.7 KiB (0%)
Title : Latin American
Language : Spanish (Latin America)
Default : No
Forced : No

Text #4
ID : 6
Format : UTF-8
Codec ID : S_TEXT/UTF8
Codec ID/Info : UTF-8 Plain Text
Duration : 56 min 48 s
Bit rate : 54 b/s
Frame rate : 0.194 FPS
Count of elements : 660
Stream size : 22.7 KiB (0%)
Title : Brazilian
Language : Portuguese (BR)
Default : No
Forced : No

Download

Direct download files get automatically deleted after a month or so. Posted on : 04/15/2024

[collapse]

You may also like...

error: nah :p~