Upgraded (2024)

R | 1h 44min | Comedy, Romance

When Ana is upgraded to first class on a work trip, she meets handsome Will, who mistakes Ana for her boss, Claire. A white lie then sets off a glamorous chain of events, romance and opportunity, until her fib threatens to surface.

Watch trailer

Media information

General
Format : Matroska
Format version : Version 4
File size : 1.42 GiB
Duration : 1 h 45 min
Overall bit rate : 1 920 kb/s
Frame rate : 24.000 FPS
Movie name : Upgraded.2024.1080p.10bit.WEBRip.6CH.x265.HEVC

Video
ID : 1
Format : HEVC
Format/Info : High Efficiency Video Coding
Format profile : Main 10@L4@Main
Codec ID : V_MPEGH/ISO/HEVC
Duration : 1 h 45 min
Bit rate : 1 713 kb/s
Width : 1 920 pixels
Height : 800 pixels
Display aspect ratio : 2.40:1
Frame rate mode : Constant
Frame rate : 24.000 FPS
Color space : YUV
Chroma subsampling : 4:2:0
Bit depth : 10 bits
Bits/(Pixel*Frame) : 0.046
Stream size : 1.26 GiB (89%)
Default : Yes
Forced : No
Color range : Limited
Color primaries : BT.709
Transfer characteristics : BT.709
Matrix coefficients : BT.709

Audio
ID : 2
Format : AAC LC SBR
Commercial name : HE-AAC
Format settings : Explicit
Codec ID : A_AAC-2
Duration : 1 h 45 min
Bit rate : 199 kb/s
Channel(s) : 6 channels
Channel layout : C L R Ls Rs LFE
Sampling rate : 48.0 kHz
Frame rate : 23.438 FPS (2048 SPF)
Compression mode : Lossy
Delay relative to video : 23 ms
Stream size : 150 MiB (10%)
Language : English
Default : Yes
Forced : No

Text #1
ID : 3
Format : UTF-8
Codec ID : S_TEXT/UTF8
Codec ID/Info : UTF-8 Plain Text
Duration : 1 h 40 min
Bit rate : 88 b/s
Frame rate : 0.307 FPS
Count of elements : 1855
Stream size : 65.1 KiB (0%)
Language : English (US)
Default : No
Forced : No

Text #2
ID : 4
Format : UTF-8
Codec ID : S_TEXT/UTF8
Codec ID/Info : UTF-8 Plain Text
Duration : 1 h 40 min
Bit rate : 92 b/s
Frame rate : 0.322 FPS
Count of elements : 1945
Stream size : 68.3 KiB (0%)
Title : SDH
Language : English (US)
Default : Yes
Forced : No

Text #3
ID : 5
Format : UTF-8
Codec ID : S_TEXT/UTF8
Codec ID/Info : UTF-8 Plain Text
Duration : 1 h 43 min
Bit rate : 130 b/s
Frame rate : 0.291 FPS
Count of elements : 1812
Stream size : 99.4 KiB (0%)
Language : Arabic (001)
Default : No
Forced : No

Text #4
ID : 6
Format : UTF-8
Codec ID : S_TEXT/UTF8
Codec ID/Info : UTF-8 Plain Text
Duration : 1 h 43 min
Bit rate : 79 b/s
Frame rate : 0.289 FPS
Count of elements : 1805
Stream size : 60.4 KiB (0%)
Language : Czech (CZ)
Default : No
Forced : No

Text #5
ID : 7
Format : UTF-8
Codec ID : S_TEXT/UTF8
Codec ID/Info : UTF-8 Plain Text
Duration : 1 h 43 min
Bit rate : 70 b/s
Frame rate : 0.288 FPS
Count of elements : 1797
Stream size : 53.7 KiB (0%)
Language : Danish (DK)
Default : No
Forced : No

Text #6
ID : 8
Format : UTF-8
Codec ID : S_TEXT/UTF8
Codec ID/Info : UTF-8 Plain Text
Duration : 1 h 43 min
Bit rate : 77 b/s
Frame rate : 0.286 FPS
Count of elements : 1783
Stream size : 58.7 KiB (0%)
Language : German (DE)
Default : No
Forced : No

Text #7
ID : 9
Format : UTF-8
Codec ID : S_TEXT/UTF8
Codec ID/Info : UTF-8 Plain Text
Duration : 1 h 43 min
Bit rate : 138 b/s
Frame rate : 0.290 FPS
Count of elements : 1809
Stream size : 105 KiB (0%)
Language : Greek (GR)
Default : No
Forced : No

Text #8
ID : 10
Format : UTF-8
Codec ID : S_TEXT/UTF8
Codec ID/Info : UTF-8 Plain Text
Duration : 1 h 43 min
Bit rate : 75 b/s
Frame rate : 0.290 FPS
Count of elements : 1810
Stream size : 57.5 KiB (0%)
Language : Spanish (ES)
Default : No
Forced : No

Text #9
ID : 11
Format : UTF-8
Codec ID : S_TEXT/UTF8
Codec ID/Info : UTF-8 Plain Text
Duration : 1 h 43 min
Bit rate : 72 b/s
Frame rate : 0.286 FPS
Count of elements : 1786
Stream size : 55.5 KiB (0%)
Language : Finnish (FI)
Default : No
Forced : No

Text #10
ID : 12
Format : UTF-8
Codec ID : S_TEXT/UTF8
Codec ID/Info : UTF-8 Plain Text
Duration : 1 h 43 min
Bit rate : 76 b/s
Frame rate : 0.288 FPS
Count of elements : 1793
Stream size : 58.3 KiB (0%)
Language : Filipino (PH)
Default : No
Forced : No

Text #11
ID : 13
Format : UTF-8
Codec ID : S_TEXT/UTF8
Codec ID/Info : UTF-8 Plain Text
Duration : 1 h 43 min
Bit rate : 69 b/s
Frame rate : 0.287 FPS
Count of elements : 1790
Stream size : 52.7 KiB (0%)
Language : French (FR)
Default : No
Forced : No

Text #12
ID : 14
Format : UTF-8
Codec ID : S_TEXT/UTF8
Codec ID/Info : UTF-8 Plain Text
Duration : 1 h 43 min
Bit rate : 120 b/s
Frame rate : 0.291 FPS
Count of elements : 1815
Stream size : 91.5 KiB (0%)
Language : Hebrew (IL)
Default : No
Forced : No

Text #13
ID : 15
Format : UTF-8
Codec ID : S_TEXT/UTF8
Codec ID/Info : UTF-8 Plain Text
Duration : 1 h 43 min
Bit rate : 191 b/s
Frame rate : 0.291 FPS
Count of elements : 1815
Stream size : 146 KiB (0%)
Language : Hindi (IN)
Default : No
Forced : No

Text #14
ID : 16
Format : UTF-8
Codec ID : S_TEXT/UTF8
Codec ID/Info : UTF-8 Plain Text
Duration : 1 h 43 min
Bit rate : 83 b/s
Frame rate : 0.290 FPS
Count of elements : 1807
Stream size : 63.7 KiB (0%)
Language : Hungarian (HU)
Default : No
Forced : No

Text #15
ID : 17
Format : UTF-8
Codec ID : S_TEXT/UTF8
Codec ID/Info : UTF-8 Plain Text
Duration : 1 h 43 min
Bit rate : 73 b/s
Frame rate : 0.290 FPS
Count of elements : 1807
Stream size : 56.2 KiB (0%)
Language : Indonesian (ID)
Default : No
Forced : No

Text #16
ID : 18
Format : UTF-8
Codec ID : S_TEXT/UTF8
Codec ID/Info : UTF-8 Plain Text
Duration : 1 h 43 min
Bit rate : 74 b/s
Frame rate : 0.288 FPS
Count of elements : 1795
Stream size : 56.4 KiB (0%)
Language : Italian (IT)
Default : No
Forced : No

Text #17
ID : 19
Format : UTF-8
Codec ID : S_TEXT/UTF8
Codec ID/Info : UTF-8 Plain Text
Duration : 1 h 43 min
Bit rate : 57 b/s
Frame rate : 0.265 FPS
Count of elements : 1649
Stream size : 44.0 KiB (0%)
Language : Japanese (JP)
Default : No
Forced : No

Text #18
ID : 20
Format : UTF-8
Codec ID : S_TEXT/UTF8
Codec ID/Info : UTF-8 Plain Text
Duration : 1 h 43 min
Bit rate : 75 b/s
Frame rate : 0.291 FPS
Count of elements : 1812
Stream size : 57.6 KiB (0%)
Language : Korean (KR)
Default : No
Forced : No

Text #19
ID : 21
Format : UTF-8
Codec ID : S_TEXT/UTF8
Codec ID/Info : UTF-8 Plain Text
Duration : 1 h 43 min
Bit rate : 81 b/s
Frame rate : 0.290 FPS
Count of elements : 1808
Stream size : 61.8 KiB (0%)
Language : Malay (MY)
Default : No
Forced : No

Text #20
ID : 22
Format : UTF-8
Codec ID : S_TEXT/UTF8
Codec ID/Info : UTF-8 Plain Text
Duration : 1 h 43 min
Bit rate : 73 b/s
Frame rate : 0.289 FPS
Count of elements : 1804
Stream size : 56.2 KiB (0%)
Language : Norwegian Bokmal (NO)
Default : No
Forced : No

Text #21
ID : 23
Format : UTF-8
Codec ID : S_TEXT/UTF8
Codec ID/Info : UTF-8 Plain Text
Duration : 1 h 43 min
Bit rate : 69 b/s
Frame rate : 0.288 FPS
Count of elements : 1794
Stream size : 53.1 KiB (0%)
Language : Dutch (NL)
Default : No
Forced : No

Text #22
ID : 24
Format : UTF-8
Codec ID : S_TEXT/UTF8
Codec ID/Info : UTF-8 Plain Text
Duration : 1 h 43 min
Bit rate : 66 b/s
Frame rate : 0.287 FPS
Count of elements : 1790
Stream size : 50.4 KiB (0%)
Language : Polish (PL)
Default : No
Forced : No

Text #23
ID : 25
Format : UTF-8
Codec ID : S_TEXT/UTF8
Codec ID/Info : UTF-8 Plain Text
Duration : 1 h 43 min
Bit rate : 78 b/s
Frame rate : 0.288 FPS
Count of elements : 1798
Stream size : 59.9 KiB (0%)
Language : Portuguese (PT)
Default : No
Forced : No

Text #24
ID : 26
Format : UTF-8
Codec ID : S_TEXT/UTF8
Codec ID/Info : UTF-8 Plain Text
Duration : 1 h 43 min
Bit rate : 76 b/s
Frame rate : 0.289 FPS
Count of elements : 1800
Stream size : 58.5 KiB (0%)
Language : Romanian (RO)
Default : No
Forced : No

Text #25
ID : 27
Format : UTF-8
Codec ID : S_TEXT/UTF8
Codec ID/Info : UTF-8 Plain Text
Duration : 1 h 43 min
Bit rate : 126 b/s
Frame rate : 0.291 FPS
Count of elements : 1815
Stream size : 96.4 KiB (0%)
Language : Russian (RU)
Default : No
Forced : No

Text #26
ID : 28
Format : UTF-8
Codec ID : S_TEXT/UTF8
Codec ID/Info : UTF-8 Plain Text
Duration : 1 h 43 min
Bit rate : 75 b/s
Frame rate : 0.289 FPS
Count of elements : 1805
Stream size : 57.3 KiB (0%)
Language : Swedish (SE)
Default : No
Forced : No

Text #27
ID : 29
Format : UTF-8
Codec ID : S_TEXT/UTF8
Codec ID/Info : UTF-8 Plain Text
Duration : 1 h 43 min
Bit rate : 197 b/s
Frame rate : 0.291 FPS
Count of elements : 1815
Stream size : 150 KiB (0%)
Language : Tamil (IN)
Default : No
Forced : No

Text #28
ID : 30
Format : UTF-8
Codec ID : S_TEXT/UTF8
Codec ID/Info : UTF-8 Plain Text
Duration : 1 h 43 min
Bit rate : 192 b/s
Frame rate : 0.291 FPS
Count of elements : 1815
Stream size : 146 KiB (0%)
Language : Telugu (IN)
Default : No
Forced : No

Text #29
ID : 31
Format : UTF-8
Codec ID : S_TEXT/UTF8
Codec ID/Info : UTF-8 Plain Text
Duration : 1 h 43 min
Bit rate : 198 b/s
Frame rate : 0.291 FPS
Count of elements : 1815
Stream size : 151 KiB (0%)
Language : Thai (TH)
Default : No
Forced : No

Text #30
ID : 32
Format : UTF-8
Codec ID : S_TEXT/UTF8
Codec ID/Info : UTF-8 Plain Text
Duration : 1 h 43 min
Bit rate : 73 b/s
Frame rate : 0.290 FPS
Count of elements : 1807
Stream size : 55.9 KiB (0%)
Language : Turkish (TR)
Default : No
Forced : No

Text #31
ID : 33
Format : UTF-8
Codec ID : S_TEXT/UTF8
Codec ID/Info : UTF-8 Plain Text
Duration : 1 h 43 min
Bit rate : 125 b/s
Frame rate : 0.291 FPS
Count of elements : 1813
Stream size : 95.4 KiB (0%)
Title : Ukraine
Language : Ukrainian (UA)
Default : No
Forced : No

Text #32
ID : 34
Format : UTF-8
Codec ID : S_TEXT/UTF8
Codec ID/Info : UTF-8 Plain Text
Duration : 1 h 43 min
Bit rate : 100 b/s
Frame rate : 0.290 FPS
Count of elements : 1808
Stream size : 76.8 KiB (0%)
Title : Vietnam
Language : Vietnamese (VN)
Default : No
Forced : No

Text #33
ID : 35
Format : UTF-8
Codec ID : S_TEXT/UTF8
Codec ID/Info : UTF-8 Plain Text
Duration : 1 h 43 min
Bit rate : 76 b/s
Frame rate : 0.291 FPS
Count of elements : 1815
Stream size : 58.5 KiB (0%)
Title : Simplified
Language : Chinese (Simplified)
Default : No
Forced : No

Text #34
ID : 36
Format : UTF-8
Codec ID : S_TEXT/UTF8
Codec ID/Info : UTF-8 Plain Text
Duration : 1 h 43 min
Bit rate : 63 b/s
Frame rate : 0.291 FPS
Count of elements : 1815
Stream size : 48.1 KiB (0%)
Title : Traditional
Language : Chinese (Traditional)
Default : No
Forced : No

[collapse]
Download Link(s)

Download

Direct download files get automatically deleted after a month or so. Posted on : 02/10/2024

[collapse]
Magnet Link

Magnet

Upgraded.2024.1080p.AMZN.WEB-DL.DDP5.1.Atmos.H.264-FLUX.TGx-6.5 GB

[collapse]

Media information

General
Format : Matroska
Format version : Version 4
File size : 720 MiB
Duration : 1 h 45 min
Overall bit rate : 953 kb/s
Frame rate : 24.000 FPS
Movie name : Upgraded.2024.720p.10bit.WEBRip.6CH.x265.HEVC

Video
ID : 1
Format : HEVC
Format/Info : High Efficiency Video Coding
Format profile : Main [email protected]@Main
Codec ID : V_MPEGH/ISO/HEVC
Duration : 1 h 45 min
Bit rate : 746 kb/s
Width : 1 280 pixels
Height : 536 pixels
Display aspect ratio : 2.39:1
Frame rate mode : Constant
Frame rate : 24.000 FPS
Color space : YUV
Chroma subsampling : 4:2:0
Bit depth : 10 bits
Bits/(Pixel*Frame) : 0.045
Stream size : 563 MiB (78%)
Default : Yes
Forced : No
Color range : Limited
Color primaries : BT.709
Transfer characteristics : BT.709
Matrix coefficients : BT.709

Audio
ID : 2
Format : AAC LC SBR
Commercial name : HE-AAC
Format settings : Explicit
Codec ID : A_AAC-2
Duration : 1 h 45 min
Bit rate : 199 kb/s
Channel(s) : 6 channels
Channel layout : C L R Ls Rs LFE
Sampling rate : 48.0 kHz
Frame rate : 23.438 FPS (2048 SPF)
Compression mode : Lossy
Delay relative to video : 23 ms
Stream size : 150 MiB (21%)
Language : English
Default : Yes
Forced : No

Text #1
ID : 3
Format : UTF-8
Codec ID : S_TEXT/UTF8
Codec ID/Info : UTF-8 Plain Text
Duration : 1 h 40 min
Bit rate : 88 b/s
Frame rate : 0.307 FPS
Count of elements : 1855
Stream size : 65.1 KiB (0%)
Language : English (US)
Default : No
Forced : No

Text #2
ID : 4
Format : UTF-8
Codec ID : S_TEXT/UTF8
Codec ID/Info : UTF-8 Plain Text
Duration : 1 h 40 min
Bit rate : 92 b/s
Frame rate : 0.322 FPS
Count of elements : 1945
Stream size : 68.3 KiB (0%)
Title : SDH
Language : English (US)
Default : Yes
Forced : No

Text #3
ID : 5
Format : UTF-8
Codec ID : S_TEXT/UTF8
Codec ID/Info : UTF-8 Plain Text
Duration : 1 h 43 min
Bit rate : 130 b/s
Frame rate : 0.291 FPS
Count of elements : 1812
Stream size : 99.4 KiB (0%)
Language : Arabic (001)
Default : No
Forced : No

Text #4
ID : 6
Format : UTF-8
Codec ID : S_TEXT/UTF8
Codec ID/Info : UTF-8 Plain Text
Duration : 1 h 43 min
Bit rate : 79 b/s
Frame rate : 0.289 FPS
Count of elements : 1805
Stream size : 60.4 KiB (0%)
Language : Czech (CZ)
Default : No
Forced : No

Text #5
ID : 7
Format : UTF-8
Codec ID : S_TEXT/UTF8
Codec ID/Info : UTF-8 Plain Text
Duration : 1 h 43 min
Bit rate : 70 b/s
Frame rate : 0.288 FPS
Count of elements : 1797
Stream size : 53.7 KiB (0%)
Language : Danish (DK)
Default : No
Forced : No

Text #6
ID : 8
Format : UTF-8
Codec ID : S_TEXT/UTF8
Codec ID/Info : UTF-8 Plain Text
Duration : 1 h 43 min
Bit rate : 77 b/s
Frame rate : 0.286 FPS
Count of elements : 1783
Stream size : 58.7 KiB (0%)
Language : German (DE)
Default : No
Forced : No

Text #7
ID : 9
Format : UTF-8
Codec ID : S_TEXT/UTF8
Codec ID/Info : UTF-8 Plain Text
Duration : 1 h 43 min
Bit rate : 138 b/s
Frame rate : 0.290 FPS
Count of elements : 1809
Stream size : 105 KiB (0%)
Language : Greek (GR)
Default : No
Forced : No

Text #8
ID : 10
Format : UTF-8
Codec ID : S_TEXT/UTF8
Codec ID/Info : UTF-8 Plain Text
Duration : 1 h 43 min
Bit rate : 75 b/s
Frame rate : 0.290 FPS
Count of elements : 1810
Stream size : 57.5 KiB (0%)
Language : Spanish (ES)
Default : No
Forced : No

Text #9
ID : 11
Format : UTF-8
Codec ID : S_TEXT/UTF8
Codec ID/Info : UTF-8 Plain Text
Duration : 1 h 43 min
Bit rate : 72 b/s
Frame rate : 0.286 FPS
Count of elements : 1786
Stream size : 55.5 KiB (0%)
Language : Finnish (FI)
Default : No
Forced : No

Text #10
ID : 12
Format : UTF-8
Codec ID : S_TEXT/UTF8
Codec ID/Info : UTF-8 Plain Text
Duration : 1 h 43 min
Bit rate : 76 b/s
Frame rate : 0.288 FPS
Count of elements : 1793
Stream size : 58.3 KiB (0%)
Language : Filipino (PH)
Default : No
Forced : No

Text #11
ID : 13
Format : UTF-8
Codec ID : S_TEXT/UTF8
Codec ID/Info : UTF-8 Plain Text
Duration : 1 h 43 min
Bit rate : 69 b/s
Frame rate : 0.287 FPS
Count of elements : 1790
Stream size : 52.7 KiB (0%)
Language : French (FR)
Default : No
Forced : No

Text #12
ID : 14
Format : UTF-8
Codec ID : S_TEXT/UTF8
Codec ID/Info : UTF-8 Plain Text
Duration : 1 h 43 min
Bit rate : 120 b/s
Frame rate : 0.291 FPS
Count of elements : 1815
Stream size : 91.5 KiB (0%)
Language : Hebrew (IL)
Default : No
Forced : No

Text #13
ID : 15
Format : UTF-8
Codec ID : S_TEXT/UTF8
Codec ID/Info : UTF-8 Plain Text
Duration : 1 h 43 min
Bit rate : 191 b/s
Frame rate : 0.291 FPS
Count of elements : 1815
Stream size : 146 KiB (0%)
Language : Hindi (IN)
Default : No
Forced : No

Text #14
ID : 16
Format : UTF-8
Codec ID : S_TEXT/UTF8
Codec ID/Info : UTF-8 Plain Text
Duration : 1 h 43 min
Bit rate : 83 b/s
Frame rate : 0.290 FPS
Count of elements : 1807
Stream size : 63.7 KiB (0%)
Language : Hungarian (HU)
Default : No
Forced : No

Text #15
ID : 17
Format : UTF-8
Codec ID : S_TEXT/UTF8
Codec ID/Info : UTF-8 Plain Text
Duration : 1 h 43 min
Bit rate : 73 b/s
Frame rate : 0.290 FPS
Count of elements : 1807
Stream size : 56.2 KiB (0%)
Language : Indonesian (ID)
Default : No
Forced : No

Text #16
ID : 18
Format : UTF-8
Codec ID : S_TEXT/UTF8
Codec ID/Info : UTF-8 Plain Text
Duration : 1 h 43 min
Bit rate : 74 b/s
Frame rate : 0.288 FPS
Count of elements : 1795
Stream size : 56.4 KiB (0%)
Language : Italian (IT)
Default : No
Forced : No

Text #17
ID : 19
Format : UTF-8
Codec ID : S_TEXT/UTF8
Codec ID/Info : UTF-8 Plain Text
Duration : 1 h 43 min
Bit rate : 57 b/s
Frame rate : 0.265 FPS
Count of elements : 1649
Stream size : 44.0 KiB (0%)
Language : Japanese (JP)
Default : No
Forced : No

Text #18
ID : 20
Format : UTF-8
Codec ID : S_TEXT/UTF8
Codec ID/Info : UTF-8 Plain Text
Duration : 1 h 43 min
Bit rate : 75 b/s
Frame rate : 0.291 FPS
Count of elements : 1812
Stream size : 57.6 KiB (0%)
Language : Korean (KR)
Default : No
Forced : No

Text #19
ID : 21
Format : UTF-8
Codec ID : S_TEXT/UTF8
Codec ID/Info : UTF-8 Plain Text
Duration : 1 h 43 min
Bit rate : 81 b/s
Frame rate : 0.290 FPS
Count of elements : 1808
Stream size : 61.8 KiB (0%)
Language : Malay (MY)
Default : No
Forced : No

Text #20
ID : 22
Format : UTF-8
Codec ID : S_TEXT/UTF8
Codec ID/Info : UTF-8 Plain Text
Duration : 1 h 43 min
Bit rate : 73 b/s
Frame rate : 0.289 FPS
Count of elements : 1804
Stream size : 56.2 KiB (0%)
Language : Norwegian Bokmal (NO)
Default : No
Forced : No

Text #21
ID : 23
Format : UTF-8
Codec ID : S_TEXT/UTF8
Codec ID/Info : UTF-8 Plain Text
Duration : 1 h 43 min
Bit rate : 69 b/s
Frame rate : 0.288 FPS
Count of elements : 1794
Stream size : 53.1 KiB (0%)
Language : Dutch (NL)
Default : No
Forced : No

Text #22
ID : 24
Format : UTF-8
Codec ID : S_TEXT/UTF8
Codec ID/Info : UTF-8 Plain Text
Duration : 1 h 43 min
Bit rate : 66 b/s
Frame rate : 0.287 FPS
Count of elements : 1790
Stream size : 50.4 KiB (0%)
Language : Polish (PL)
Default : No
Forced : No

Text #23
ID : 25
Format : UTF-8
Codec ID : S_TEXT/UTF8
Codec ID/Info : UTF-8 Plain Text
Duration : 1 h 43 min
Bit rate : 78 b/s
Frame rate : 0.288 FPS
Count of elements : 1798
Stream size : 59.9 KiB (0%)
Language : Portuguese (PT)
Default : No
Forced : No

Text #24
ID : 26
Format : UTF-8
Codec ID : S_TEXT/UTF8
Codec ID/Info : UTF-8 Plain Text
Duration : 1 h 43 min
Bit rate : 76 b/s
Frame rate : 0.289 FPS
Count of elements : 1800
Stream size : 58.5 KiB (0%)
Language : Romanian (RO)
Default : No
Forced : No

Text #25
ID : 27
Format : UTF-8
Codec ID : S_TEXT/UTF8
Codec ID/Info : UTF-8 Plain Text
Duration : 1 h 43 min
Bit rate : 126 b/s
Frame rate : 0.291 FPS
Count of elements : 1815
Stream size : 96.4 KiB (0%)
Language : Russian (RU)
Default : No
Forced : No

Text #26
ID : 28
Format : UTF-8
Codec ID : S_TEXT/UTF8
Codec ID/Info : UTF-8 Plain Text
Duration : 1 h 43 min
Bit rate : 75 b/s
Frame rate : 0.289 FPS
Count of elements : 1805
Stream size : 57.3 KiB (0%)
Language : Swedish (SE)
Default : No
Forced : No

Text #27
ID : 29
Format : UTF-8
Codec ID : S_TEXT/UTF8
Codec ID/Info : UTF-8 Plain Text
Duration : 1 h 43 min
Bit rate : 197 b/s
Frame rate : 0.291 FPS
Count of elements : 1815
Stream size : 150 KiB (0%)
Language : Tamil (IN)
Default : No
Forced : No

Text #28
ID : 30
Format : UTF-8
Codec ID : S_TEXT/UTF8
Codec ID/Info : UTF-8 Plain Text
Duration : 1 h 43 min
Bit rate : 192 b/s
Frame rate : 0.291 FPS
Count of elements : 1815
Stream size : 146 KiB (0%)
Language : Telugu (IN)
Default : No
Forced : No

Text #29
ID : 31
Format : UTF-8
Codec ID : S_TEXT/UTF8
Codec ID/Info : UTF-8 Plain Text
Duration : 1 h 43 min
Bit rate : 198 b/s
Frame rate : 0.291 FPS
Count of elements : 1815
Stream size : 151 KiB (0%)
Language : Thai (TH)
Default : No
Forced : No

Text #30
ID : 32
Format : UTF-8
Codec ID : S_TEXT/UTF8
Codec ID/Info : UTF-8 Plain Text
Duration : 1 h 43 min
Bit rate : 73 b/s
Frame rate : 0.290 FPS
Count of elements : 1807
Stream size : 55.9 KiB (0%)
Language : Turkish (TR)
Default : No
Forced : No

Text #31
ID : 33
Format : UTF-8
Codec ID : S_TEXT/UTF8
Codec ID/Info : UTF-8 Plain Text
Duration : 1 h 43 min
Bit rate : 125 b/s
Frame rate : 0.291 FPS
Count of elements : 1813
Stream size : 95.4 KiB (0%)
Title : Ukraine
Language : Ukrainian (UA)
Default : No
Forced : No

Text #32
ID : 34
Format : UTF-8
Codec ID : S_TEXT/UTF8
Codec ID/Info : UTF-8 Plain Text
Duration : 1 h 43 min
Bit rate : 100 b/s
Frame rate : 0.290 FPS
Count of elements : 1808
Stream size : 76.8 KiB (0%)
Title : Vietnam
Language : Vietnamese (VN)
Default : No
Forced : No

Text #33
ID : 35
Format : UTF-8
Codec ID : S_TEXT/UTF8
Codec ID/Info : UTF-8 Plain Text
Duration : 1 h 43 min
Bit rate : 76 b/s
Frame rate : 0.291 FPS
Count of elements : 1815
Stream size : 58.5 KiB (0%)
Title : Simplified
Language : Chinese (Simplified)
Default : No
Forced : No

Text #34
ID : 36
Format : UTF-8
Codec ID : S_TEXT/UTF8
Codec ID/Info : UTF-8 Plain Text
Duration : 1 h 43 min
Bit rate : 63 b/s
Frame rate : 0.291 FPS
Count of elements : 1815
Stream size : 48.1 KiB (0%)
Title : Traditional
Language : Chinese (Traditional)
Default : No
Forced : No

[collapse]
Download Link(s)

Download

Direct download files get automatically deleted after a month or so. Posted on : 02/10/2024

[collapse]
Magnet Link

Magnet

Upgraded.2024.1080p.AMZN.WEB-DL.DDP5.1.Atmos.H.264-FLUX.TGx-6.5 GB

[collapse]

You may also like...

error: nah :p~
(Asia/Nicosia UTC:2) -->