The Revenant (2015)

R | 2h 36min | Action, Adventure, Drama

A frontiersman on a fur trading expedition in the 1820s fights for survival after being mauled by a bear and left for dead by members of his own hunting team.

Watch trailer

Media information

General
Format : Matroska
Format version : Version 4
File size : 4.39 GiB
Duration : 2 h 36 min
Overall bit rate : 4 022 kb/s
Movie name : The.Revenant.2015.2160p.10bit.BluRay.8CH.x265.HEVC

Video
ID : 1
Format : HEVC
Format/Info : High Efficiency Video Coding
Format profile : Main [email protected]@Main
HDR format : SMPTE ST 2086, HDR10 compatible
Codec ID : V_MPEGH/ISO/HEVC
Duration : 2 h 36 min
Bit rate : 3 597 kb/s
Width : 3 840 pixels
Height : 2 160 pixels
Display aspect ratio : 16:9
Frame rate mode : Constant
Frame rate : 23.976 (24000/1001) FPS
Color space : YUV
Chroma subsampling : 4:2:0 (Type 2)
Bit depth : 10 bits
Bits/(Pixel*Frame) : 0.018
Stream size : 3.93 GiB (89%)
Default : Yes
Forced : No
Color range : Limited
Color primaries : BT.2020
Transfer characteristics : PQ
Matrix coefficients : BT.2020 non-constant
Mastering display color primaries : Display P3
Mastering display luminance : min: 0.0000 cd/m2, max: 1000 cd/m2

Audio
ID : 2
Format : AAC LC
Codec ID : A_AAC-2
Duration : 2 h 36 min
Bit rate : 384 kb/s
Channel(s) : 8 channels
Channel layout : C L R Ls Rs Lw Rw LFE
Sampling rate : 48.0 kHz
Frame rate : 46.875 FPS (1024 SPF)
Compression mode : Lossy
Delay relative to video : -14 ms
Stream size : 431 MiB (10%)
Language : English
Default : Yes
Forced : No

Text #1
ID : 3
Format : PGS
Muxing mode : zlib
Codec ID : S_HDMV/PGS
Duration : 2 h 25 min
Bit rate : 21.7 kb/s
Frame rate : 0.291 FPS
Count of elements : 2533
Stream size : 22.5 MiB (0%)
Language : English
Default : Yes
Forced : No

Text #2
ID : 4
Format : PGS
Muxing mode : zlib
Codec ID : S_HDMV/PGS
Duration : 2 h 20 min
Bit rate : 1 342 b/s
Frame rate : 0.030 FPS
Count of elements : 254
Stream size : 1.35 MiB (0%)
Language : English
Default : No
Forced : No

Text #3
ID : 5
Format : PGS
Muxing mode : zlib
Codec ID : S_HDMV/PGS
Duration : 2 h 35 min
Bit rate : 12.0 kb/s
Frame rate : 0.180 FPS
Count of elements : 1672
Stream size : 13.3 MiB (0%)
Language : Spanish
Default : No
Forced : No

Text #4
ID : 6
Format : PGS
Muxing mode : zlib
Codec ID : S_HDMV/PGS
Duration : 2 h 35 min
Bit rate : 10.7 kb/s
Frame rate : 0.188 FPS
Count of elements : 1745
Stream size : 11.8 MiB (0%)
Language : French
Default : No
Forced : No

Text #5
ID : 7
Format : PGS
Muxing mode : zlib
Codec ID : S_HDMV/PGS
Duration : 2 h 35 min
Bit rate : 12.2 kb/s
Frame rate : 0.169 FPS
Count of elements : 1574
Stream size : 13.6 MiB (0%)
Language : Danish
Default : No
Forced : No

Text #6
ID : 8
Format : PGS
Muxing mode : zlib
Codec ID : S_HDMV/PGS
Duration : 2 h 35 min
Bit rate : 11.2 kb/s
Frame rate : 0.174 FPS
Count of elements : 1622
Stream size : 12.4 MiB (0%)
Language : Dutch
Default : No
Forced : No

Text #7
ID : 9
Format : PGS
Muxing mode : zlib
Codec ID : S_HDMV/PGS
Duration : 2 h 35 min
Bit rate : 10.6 kb/s
Frame rate : 0.180 FPS
Count of elements : 1673
Stream size : 11.8 MiB (0%)
Language : Finnish
Default : No
Forced : No

Text #8
ID : 10
Format : PGS
Muxing mode : zlib
Codec ID : S_HDMV/PGS
Duration : 2 h 35 min
Bit rate : 13.9 kb/s
Frame rate : 0.198 FPS
Count of elements : 1844
Stream size : 15.4 MiB (0%)
Language : German
Default : No
Forced : No

Text #9
ID : 11
Format : PGS
Muxing mode : zlib
Codec ID : S_HDMV/PGS
Duration : 2 h 35 min
Bit rate : 12.4 kb/s
Frame rate : 0.181 FPS
Count of elements : 1688
Stream size : 13.8 MiB (0%)
Language : Italian
Default : No
Forced : No

Text #10
ID : 12
Format : PGS
Muxing mode : zlib
Codec ID : S_HDMV/PGS
Duration : 2 h 35 min
Bit rate : 11.4 kb/s
Frame rate : 0.179 FPS
Count of elements : 1670
Stream size : 12.7 MiB (0%)
Language : Norwegian
Default : No
Forced : No

Text #11
ID : 13
Format : PGS
Muxing mode : zlib
Codec ID : S_HDMV/PGS
Duration : 2 h 35 min
Bit rate : 11.9 kb/s
Frame rate : 0.178 FPS
Count of elements : 1660
Stream size : 13.2 MiB (0%)
Language : Swedish
Default : No
Forced : No

[collapse]
Download Link(s)

Download

Direct download files get automatically deleted after a month or so. Posted on : 08/10/2022

[collapse]
Magnet Link

Magnet

The.Revenant.2015.2160p.BluRay.REMUX.HEVC.DTS-HD.MA.7.1-FGT-48.88 GB

[collapse]

Media information

General
Format : Matroska
Format version : Version 4
File size : 2.45 GiB
Duration : 2 h 36 min
Overall bit rate : 2 243 kb/s
Movie name : The.Revenant.2015.1080p.10bit.BluRay.6CH.x265.HEVC

Video
ID : 1
Format : HEVC
Format/Info : High Efficiency Video Coding
Format profile : Main [email protected]@Main
Codec ID : V_MPEGH/ISO/HEVC
Duration : 2 h 36 min
Bit rate : 1 856 kb/s
Width : 1 920 pixels
Height : 808 pixels
Display aspect ratio : 2.40:1
Frame rate mode : Constant
Frame rate : 23.976 FPS
Color space : YUV
Chroma subsampling : 4:2:0 (Type 0)
Bit depth : 10 bits
Bits/(Pixel*Frame) : 0.050
Stream size : 2.03 GiB (83%)
Default : Yes
Forced : No
Color range : Limited

Audio
ID : 2
Format : AAC LC
Codec ID : A_AAC-2
Duration : 2 h 36 min
Bit rate : 384 kb/s
Channel(s) : 6 channels
Channel layout : L R C Cb Lb Rb
Sampling rate : 48.0 kHz
Frame rate : 46.875 FPS (1024 SPF)
Compression mode : Lossy
Delay relative to video : -21 ms
Stream size : 430 MiB (17%)
Language : English
Default : Yes
Forced : No

Text
ID : 3
Format : UTF-8
Codec ID : S_TEXT/UTF8
Codec ID/Info : UTF-8 Plain Text
Duration : 2 h 25 min
Bit rate : 42 b/s
Frame rate : 0.146 FPS
Count of elements : 1275
Stream size : 45.4 KiB (0%)
Language : English
Default : Yes
Forced : No

[collapse]
Download Link(s)

Download

Direct download files get automatically deleted after a month or so. Posted on : 08/10/2022

[collapse]
Magnet Link

Magnet

The.Revenant.2015.1080p.BluRay.x264-SPARKS-10.94 GB

[collapse]

Media information

General
Format : Matroska
Format version : Version 4
File size : 1.37 GiB
Duration : 2 h 36 min
Overall bit rate : 1 259 kb/s
Movie name : The.Revenant.2015.720p.10bit.BluRay.6CH.x265.HEVC

Video
ID : 1
Format : HEVC
Format/Info : High Efficiency Video Coding
Format profile : Main [email protected]@Main
Codec ID : V_MPEGH/ISO/HEVC
Duration : 2 h 36 min
Bit rate : 968 kb/s
Width : 1 280 pixels
Height : 536 pixels
Display aspect ratio : 2.40:1
Frame rate mode : Constant
Frame rate : 23.976 FPS
Color space : YUV
Chroma subsampling : 4:2:0 (Type 0)
Bit depth : 10 bits
Bits/(Pixel*Frame) : 0.059
Stream size : 1.06 GiB (77%)
Default : Yes
Forced : No
Color range : Limited

Audio
ID : 2
Format : AAC LC
Codec ID : A_AAC-2
Duration : 2 h 36 min
Bit rate : 288 kb/s
Channel(s) : 6 channels
Channel layout : L R C Cb Lb Rb
Sampling rate : 48.0 kHz
Frame rate : 46.875 FPS (1024 SPF)
Compression mode : Lossy
Delay relative to video : -21 ms
Stream size : 323 MiB (23%)
Language : English
Default : Yes
Forced : No

Text
ID : 3
Format : UTF-8
Codec ID : S_TEXT/UTF8
Codec ID/Info : UTF-8 Plain Text
Duration : 2 h 25 min
Bit rate : 42 b/s
Frame rate : 0.146 FPS
Count of elements : 1275
Stream size : 45.4 KiB (0%)
Language : English
Default : Yes
Forced : No

[collapse]
Download Link(s)

Download

Direct download files get automatically deleted after a month or so. Posted on : 08/10/2022

[collapse]
Magnet Link

Magnet

The.Revenant.2015.1080p.BluRay.x264-SPARKS-10.94 GB

[collapse]

You may also like...

error: nah :p~