Terminator 2: Judgment Day (1991)

Terminator 2: Judgment Day (original title)|R | 2h 17min | Action, Sci-Fi, Thriller | 3 July 1991 (USA)

A cyborg, identical to the one who failed to kill Sarah Connor, must now protect her ten year old son, John Connor, from a more advanced cyborg.

Watch trailer

Media information

General
Format : Matroska
Format version : Version 4
File size : 2.51 GiB
Duration : 2 h 17 min
Overall bit rate : 2 621 kb/s
Movie name : Terminator.2.Judgement.Day.1991.Theatrical.REMASTERED.1080p.10bit.BluRay.6CH.x265.HEVC

Video
ID : 1
Format : HEVC
Format/Info : High Efficiency Video Coding
Format profile : Main 10@L4@Main
Codec ID : V_MPEGH/ISO/HEVC
Duration : 2 h 17 min
Bit rate : 2 234 kb/s
Width : 1 920 pixels
Height : 800 pixels
Display aspect ratio : 2.40:1
Frame rate mode : Constant
Frame rate : 23.976 (24000/1001) FPS
Color space : YUV
Chroma subsampling : 4:2:0 (Type 0)
Bit depth : 10 bits
Bits/(Pixel*Frame) : 0.061
Stream size : 2.14 GiB (85%)
Default : Yes
Forced : No
Color range : Limited

Audio
ID : 2
Format : AAC LC
Codec ID : A_AAC-2
Duration : 2 h 17 min
Bit rate : 384 kb/s
Channel(s) : 6 channels
Channel layout : L R C Cb Lb Rb
Sampling rate : 48.0 kHz
Frame rate : 46.875 FPS (1024 SPF)
Compression mode : Lossy
Stream size : 377 MiB (15%)
Language : English
Default : Yes
Forced : No

Text
ID : 3
Format : UTF-8
Codec ID : S_TEXT/UTF8
Codec ID/Info : UTF-8 Plain Text
Duration : 2 h 15 min
Bit rate : 40 b/s
Frame rate : 0.137 FPS
Count of elements : 1118
Stream size : 40.6 KiB (0%)
Language : English
Default : Yes
Forced : No

[collapse]
Download Link(s)

Download

Direct download files get automatically deleted after a month or so. Posted on : 12/21/2022

[collapse]
Magnet Link

Magnet

Terminator.2.Judgement.Day.1991.Theatrical.REMASTERED.1080p.BluRay.x264-JustWatch-12.03 GB

[collapse]

Media information

General
Format : Matroska
Format version : Version 4
File size : 1.37 GiB
Duration : 2 h 17 min
Overall bit rate : 1 435 kb/s
Movie name : Terminator.2.Judgement.Day.1991.Theatrical.REMASTERED.720p.10bit.BluRay.6CH.x265.HEVC

Video
ID : 1
Format : HEVC
Format/Info : High Efficiency Video Coding
Format profile : Main [email protected]@Main
Codec ID : V_MPEGH/ISO/HEVC
Duration : 2 h 17 min
Bit rate : 1 144 kb/s
Width : 1 280 pixels
Height : 536 pixels
Display aspect ratio : 2.40:1
Frame rate mode : Constant
Frame rate : 23.976 (24000/1001) FPS
Color space : YUV
Chroma subsampling : 4:2:0 (Type 0)
Bit depth : 10 bits
Bits/(Pixel*Frame) : 0.070
Stream size : 1.10 GiB (80%)
Default : Yes
Forced : No
Color range : Limited

Audio
ID : 2
Format : AAC LC
Codec ID : A_AAC-2
Duration : 2 h 17 min
Bit rate : 288 kb/s
Channel(s) : 6 channels
Channel layout : L R C Cb Lb Rb
Sampling rate : 48.0 kHz
Frame rate : 46.875 FPS (1024 SPF)
Compression mode : Lossy
Stream size : 283 MiB (20%)
Language : English
Default : Yes
Forced : No

Text
ID : 3
Format : UTF-8
Codec ID : S_TEXT/UTF8
Codec ID/Info : UTF-8 Plain Text
Duration : 2 h 15 min
Bit rate : 40 b/s
Frame rate : 0.137 FPS
Count of elements : 1118
Stream size : 40.6 KiB (0%)
Language : English
Default : Yes
Forced : No

[collapse]
Download Link(s)

Download

Direct download files get automatically deleted after a month or so. Posted on : 12/21/2022

[collapse]
Magnet Link

Magnet

Terminator.2.Judgement.Day.1991.Theatrical.REMASTERED.1080p.BluRay.x264-JustWatch-12.03 GB

[collapse]

You may also like...

error: nah :p~