Sultan (2021)

Sulthan (original title)|2h 25min | Action, Drama | 2 April 2021 (India)

A man raised by gangsters tries to reform them, and a hired job to protect a village presents him with the perfect opportunity.

Watch trailer

Media information

General
Format : Matroska
Format version : Version 4
File size : 2.10 GiB
Duration : 2 h 36 min
Overall bit rate : 1 921 kb/s
Movie name : Sulthan.2021.Tamil.1080p.10bit.WEBRip.6CH.x265.HEVC

Video
ID : 1
Format : HEVC
Format/Info : High Efficiency Video Coding
Format profile : Main [email protected]@Main
Codec ID : V_MPEGH/ISO/HEVC
Duration : 2 h 36 min
Bit rate : 1 727 kb/s
Width : 1 920 pixels
Height : 816 pixels
Display aspect ratio : 2.35:1
Frame rate mode : Constant
Frame rate : 24.000 FPS
Color space : YUV
Chroma subsampling : 4:2:0 (Type 0)
Bit depth : 10 bits
Bits/(Pixel*Frame) : 0.046
Stream size : 1.89 GiB (90%)
Default : Yes
Forced : No
Color range : Limited
Color primaries : BT.709
Transfer characteristics : BT.709
Matrix coefficients : BT.709

Audio
ID : 2
Format : E-AC-3
Format/Info : Enhanced AC-3
Commercial name : Dolby Digital Plus
Codec ID : A_EAC3
Duration : 2 h 36 min
Bit rate mode : Constant
Bit rate : 192 kb/s
Channel(s) : 6 channels
Channel layout : L R C LFE Ls Rs
Sampling rate : 48.0 kHz
Frame rate : 31.250 FPS (1536 SPF)
Bit depth : 32 bits
Compression mode : Lossy
Delay relative to video : 1 s 40 ms
Stream size : 215 MiB (10%)
Language : Tamil
Service kind : Complete Main
Default : Yes
Forced : No

Text
ID : 3
Format : UTF-8
Codec ID : S_TEXT/UTF8
Codec ID/Info : UTF-8 Plain Text
Duration : 2 h 32 min
Bit rate : 61 b/s
Count of elements : 2017
Stream size : 69.0 KiB (0%)
Language : English
Default : Yes
Forced : No

[collapse]
Download Link(s)

Download

Direct download files get automatically deleted after a month or so. Posted on : 05/08/2021

[collapse]
Magnet Link

Magnet

Tamil.DS4K.1080p.WEBRip.x265.HEVC.10bit.DDP.Atmos.5.1.ESub.Musafirboy-3.0 GB

[collapse]

Media information

General
Format : Matroska
Format version : Version 4
File size : 1.05 GiB
Duration : 2 h 36 min
Overall bit rate : 963 kb/s
Movie name : Sulthan.2021.Tamil.720p.10bit.WEBRip.6CH.x265.HEVC

Video
ID : 1
Format : HEVC
Format/Info : High Efficiency Video Coding
Format profile : Main [email protected]@Main
Codec ID : V_MPEGH/ISO/HEVC
Duration : 2 h 36 min
Bit rate : 769 kb/s
Width : 1 280 pixels
Height : 544 pixels
Display aspect ratio : 2.35:1
Frame rate mode : Constant
Frame rate : 24.000 FPS
Color space : YUV
Chroma subsampling : 4:2:0 (Type 0)
Bit depth : 10 bits
Bits/(Pixel*Frame) : 0.046
Stream size : 860 MiB (80%)
Default : Yes
Forced : No
Color range : Limited
Color primaries : BT.709
Transfer characteristics : BT.709
Matrix coefficients : BT.709

Audio
ID : 2
Format : E-AC-3
Format/Info : Enhanced AC-3
Commercial name : Dolby Digital Plus
Codec ID : A_EAC3
Duration : 2 h 36 min
Bit rate mode : Constant
Bit rate : 192 kb/s
Channel(s) : 6 channels
Channel layout : L R C LFE Ls Rs
Sampling rate : 48.0 kHz
Frame rate : 31.250 FPS (1536 SPF)
Bit depth : 32 bits
Compression mode : Lossy
Delay relative to video : 1 s 40 ms
Stream size : 215 MiB (20%)
Language : Tamil
Service kind : Complete Main
Default : Yes
Forced : No

Text
ID : 3
Format : UTF-8
Codec ID : S_TEXT/UTF8
Codec ID/Info : UTF-8 Plain Text
Duration : 2 h 32 min
Bit rate : 61 b/s
Count of elements : 2017
Stream size : 69.0 KiB (0%)
Language : English
Default : Yes
Forced : No

[collapse]
Download Link(s)

Download

Direct download files get automatically deleted after a month or so. Posted on : 05/08/2021

[collapse]
Magnet Link

Magnet

Tamil.DS4K.1080p.WEBRip.x265.HEVC.10bit.DDP.Atmos.5.1.ESub.Musafirboy-3.0 GB

[collapse]

You may also like...

error: nah :p~