Scent of a Woman (1992)

R | 2h 36min | Drama

A prep school student needing money agrees to “babysit” a blind man, but the job is not at all what he anticipated.

Watch trailer

Media information

General
Format : Matroska
Format version : Version 4
File size : 2.68 GiB
Duration : 2 h 36 min
Overall bit rate : 2 452 kb/s
Movie name : Scent.of.a.Woman.1992.1080p.10bit.BluRay.6CH.x265.HEVC

Video
ID : 1
Format : HEVC
Format/Info : High Efficiency Video Coding
Format profile : Main [email protected]@Main
Codec ID : V_MPEGH/ISO/HEVC
Duration : 2 h 36 min
Bit rate : 2 065 kb/s
Width : 1 920 pixels
Height : 1 040 pixels
Display aspect ratio : 1.85:1
Frame rate mode : Constant
Frame rate : 23.976 (24000/1001) FPS
Color space : YUV
Chroma subsampling : 4:2:0 (Type 0)
Bit depth : 10 bits
Bits/(Pixel*Frame) : 0.043
Stream size : 2.26 GiB (84%)
Default : Yes
Forced : No
Color range : Limited

Audio
ID : 2
Format : AAC LC
Codec ID : A_AAC-2
Duration : 2 h 36 min
Bit rate : 384 kb/s
Channel(s) : 6 channels
Channel layout : L R C Cb Lb Rb
Sampling rate : 48.0 kHz
Frame rate : 46.875 FPS (1024 SPF)
Compression mode : Lossy
Delay relative to video : -21 ms
Stream size : 429 MiB (16%)
Language : English
Default : Yes
Forced : No

Text #1
ID : 3
Format : UTF-8
Codec ID : S_TEXT/UTF8
Codec ID/Info : UTF-8 Plain Text
Duration : 2 h 29 min
Bit rate : 61 b/s
Frame rate : 0.252 FPS
Count of elements : 2272
Stream size : 67.3 KiB (0%)
Language : English
Default : No
Forced : No

Text #2
ID : 4
Format : UTF-8
Codec ID : S_TEXT/UTF8
Codec ID/Info : UTF-8 Plain Text
Duration : 2 h 30 min
Bit rate : 62 b/s
Frame rate : 0.264 FPS
Count of elements : 2385
Stream size : 69.5 KiB (0%)
Title : SDH
Language : English
Default : Yes
Forced : No

[collapse]
Download Link(s)

Download

Direct download files get automatically deleted after a month or so. Posted on : 06/30/2022

[collapse]
Magnet Link

Magnet

Scent.of.a.Woman.1992.1080p.BluRay.x264.DTS-FiDELiO-13.37 GB

[collapse]

Media information

General
Format : Matroska
Format version : Version 4
File size : 1.45 GiB
Duration : 2 h 36 min
Overall bit rate : 1 323 kb/s
Movie name : Scent.of.a.Woman.1992.720p.10bit.BluRay.6CH.x265.HEVC

Video
ID : 1
Format : HEVC
Format/Info : High Efficiency Video Coding
Format profile : Main [email protected]@Main
Codec ID : V_MPEGH/ISO/HEVC
Duration : 2 h 36 min
Bit rate : 1 033 kb/s
Width : 1 280 pixels
Height : 696 pixels
Display aspect ratio : 1.85:1
Frame rate mode : Constant
Frame rate : 23.976 (24000/1001) FPS
Color space : YUV
Chroma subsampling : 4:2:0 (Type 0)
Bit depth : 10 bits
Bits/(Pixel*Frame) : 0.048
Stream size : 1.13 GiB (78%)
Default : Yes
Forced : No
Color range : Limited

Audio
ID : 2
Format : AAC LC
Codec ID : A_AAC-2
Duration : 2 h 36 min
Bit rate : 288 kb/s
Channel(s) : 6 channels
Channel layout : L R C Cb Lb Rb
Sampling rate : 48.0 kHz
Frame rate : 46.875 FPS (1024 SPF)
Compression mode : Lossy
Delay relative to video : -21 ms
Stream size : 322 MiB (22%)
Language : English
Default : Yes
Forced : No

Text #1
ID : 3
Format : UTF-8
Codec ID : S_TEXT/UTF8
Codec ID/Info : UTF-8 Plain Text
Duration : 2 h 29 min
Bit rate : 61 b/s
Frame rate : 0.252 FPS
Count of elements : 2272
Stream size : 67.3 KiB (0%)
Language : English
Default : No
Forced : No

Text #2
ID : 4
Format : UTF-8
Codec ID : S_TEXT/UTF8
Codec ID/Info : UTF-8 Plain Text
Duration : 2 h 30 min
Bit rate : 62 b/s
Frame rate : 0.264 FPS
Count of elements : 2385
Stream size : 69.5 KiB (0%)
Title : SDH
Language : English
Default : Yes
Forced : No

[collapse]
Download Link(s)

Download

Direct download files get automatically deleted after a month or so. Posted on : 06/30/2022

[collapse]
Magnet Link

Magnet

Scent.of.a.Woman.1992.1080p.BluRay.x264.DTS-FiDELiO-13.37 GB

[collapse]

You may also like...

error: nah :p~