Riddick (2013)

R | 1h 59min | Action, Adventure, Sci-Fi

Left for dead on a sun-scorched planet, Riddick finds himself up against an alien race of predators. Activating an emergency beacon alerts two ships: one carrying a new breed of mercenary, the other captained by a man from Riddick’s past.

Watch trailer

Media information

General
Format : Matroska
Format version : Version 4
File size : 2.24 GiB
Duration : 2 h 6 min
Overall bit rate : 2 534 kb/s
Frame rate : 23.976 FPS
Movie name : Riddick.2013.DC.1080p.10bit.BluRay.6CH.x265.HEVC

Video
ID : 1
Format : HEVC
Format/Info : High Efficiency Video Coding
Format profile : Main 10@L4@Main
Codec ID : V_MPEGH/ISO/HEVC
Duration : 2 h 6 min
Bit rate : 2 159 kb/s
Width : 1 920 pixels
Height : 800 pixels
Display aspect ratio : 2.40:1
Frame rate mode : Constant
Frame rate : 23.976 (24000/1001) FPS
Color space : YUV
Chroma subsampling : 4:2:0 (Type 0)
Bit depth : 10 bits
Bits/(Pixel*Frame) : 0.059
Stream size : 1.91 GiB (85%)
Default : Yes
Forced : No
Color range : Limited

Audio
ID : 2
Format : AAC LC
Codec ID : A_AAC-2
Duration : 2 h 6 min
Bit rate : 373 kb/s
Channel(s) : 6 channels
Channel layout : C L R Ls Rs LFE
Sampling rate : 48.0 kHz
Frame rate : 46.875 FPS (1024 SPF)
Compression mode : Lossy
Delay relative to video : 20 ms
Stream size : 338 MiB (15%)
Language : English
Default : Yes
Forced : No

Text
ID : 3
Format : UTF-8
Codec ID : S_TEXT/UTF8
Codec ID/Info : UTF-8 Plain Text
Duration : 2 h 1 min
Bit rate : 35 b/s
Frame rate : 0.162 FPS
Count of elements : 1181
Stream size : 31.8 KiB (0%)
Language : English
Default : Yes
Forced : No

[collapse]
Download Link(s)

Download

Direct download files get automatically deleted after a month or so. Posted on : 06/19/2024

[collapse]

Media information

General
Format : Matroska
Format version : Version 4
File size : 1.17 GiB
Duration : 2 h 6 min
Overall bit rate : 1 322 kb/s
Frame rate : 23.976 FPS
Movie name : Riddick.2013.DC.720p.10bit.BluRay.6CH.x265.HEVC

Video
ID : 1
Format : HEVC
Format/Info : High Efficiency Video Coding
Format profile : Main [email protected]@Main
Codec ID : V_MPEGH/ISO/HEVC
Duration : 2 h 6 min
Bit rate : 1 039 kb/s
Width : 1 280 pixels
Height : 536 pixels
Display aspect ratio : 2.40:1
Frame rate mode : Constant
Frame rate : 23.976 (24000/1001) FPS
Color space : YUV
Chroma subsampling : 4:2:0 (Type 0)
Bit depth : 10 bits
Bits/(Pixel*Frame) : 0.063
Stream size : 943 MiB (79%)
Default : Yes
Forced : No
Color range : Limited

Audio
ID : 2
Format : AAC LC
Codec ID : A_AAC-2
Duration : 2 h 6 min
Bit rate : 280 kb/s
Channel(s) : 6 channels
Channel layout : C L R Ls Rs LFE
Sampling rate : 48.0 kHz
Frame rate : 46.875 FPS (1024 SPF)
Compression mode : Lossy
Delay relative to video : 20 ms
Stream size : 254 MiB (21%)
Language : English
Default : Yes
Forced : No

Text
ID : 3
Format : UTF-8
Codec ID : S_TEXT/UTF8
Codec ID/Info : UTF-8 Plain Text
Duration : 2 h 1 min
Bit rate : 35 b/s
Frame rate : 0.162 FPS
Count of elements : 1181
Stream size : 31.8 KiB (0%)
Language : English
Default : Yes
Forced : No

[collapse]
Download Link(s)

Download

Direct download files get automatically deleted after a month or so. Posted on : 06/19/2024

[collapse]

Magnet Link

Magnet

Riddick.2013.DC.1080p.BluRay.x265.HEVC.10bit.AAC.5.1.Tigole.QxR-4.8 GB

[collapse]

You may also like...

error: nah :p~