Haseen Dillruba (2021)

TV-MA | 2h 15min | Crime, Drama, Mystery

Under investigation as a suspect in her husband’s murder, a wife reveals details of their thorny marriage that seem to only further blur the truth.

Watch trailer

Media information

General
Format : Matroska
Format version : Version 4
File size : 1.90 GiB
Duration : 2 h 15 min
Overall bit rate : 1 997 kb/s
Movie name : Haseen.Dillruba.2021.Hindi.1080p.10bit.WEBRip.6CH.x265.HEVC

Video
ID : 1
Format : HEVC
Format/Info : High Efficiency Video Coding
Format profile : Main [email protected]@Main
Codec ID : V_MPEGH/ISO/HEVC
Duration : 2 h 15 min
Bit rate : 1 715 kb/s
Width : 1 920 pixels
Height : 816 pixels
Display aspect ratio : 2.35:1
Frame rate mode : Variable
Frame rate : 24.000 FPS
Color space : YUV
Chroma subsampling : 4:2:0 (Type 0)
Bit depth : 10 bits
Bits/(Pixel*Frame) : 0.046
Stream size : 1.62 GiB (85%)
Default : Yes
Forced : No
Color range : Limited
Color primaries : BT.709
Transfer characteristics : BT.709
Matrix coefficients : BT.709

Audio
ID : 2
Format : E-AC-3
Format/Info : Enhanced AC-3
Commercial name : Dolby Digital Plus
Codec ID : A_EAC3
Duration : 2 h 15 min
Bit rate mode : Constant
Bit rate : 288 kb/s
Channel(s) : 6 channels
Channel layout : L R C LFE Ls Rs
Sampling rate : 48.0 kHz
Frame rate : 31.250 FPS (1536 SPF)
Bit depth : 32 bits
Compression mode : Lossy
Stream size : 280 MiB (14%)
Language : Hindi
Service kind : Complete Main
Default : Yes
Forced : No

Text #1
ID : 3
Format : UTF-8
Codec ID : S_TEXT/UTF8
Codec ID/Info : UTF-8 Plain Text
Duration : 2 h 7 min
Bit rate : 46 b/s
Count of elements : 1526
Stream size : 43.8 KiB (0%)
Language : English
Default : Yes
Forced : No

Text #2
ID : 4
Format : UTF-8
Codec ID : S_TEXT/UTF8
Codec ID/Info : UTF-8 Plain Text
Duration : 2 h 15 min
Bit rate : 140 b/s
Count of elements : 1877
Stream size : 139 KiB (0%)
Language : Hindi
Default : No
Forced : No

Text #3
ID : 5
Format : UTF-8
Codec ID : S_TEXT/UTF8
Codec ID/Info : UTF-8 Plain Text
Duration : 2 h 15 min
Bit rate : 14 b/s
Count of elements : 232
Stream size : 14.5 KiB (0%)
Language : Tamil
Default : No
Forced : No

Text #4
ID : 6
Format : UTF-8
Codec ID : S_TEXT/UTF8
Codec ID/Info : UTF-8 Plain Text
Duration : 2 h 15 min
Bit rate : 12 b/s
Count of elements : 242
Stream size : 12.2 KiB (0%)
Language : Telugu
Default : No
Forced : No

[collapse]
Download Link(s)

Download

Direct download files get automatically deleted after a month or so. Posted on : 07/10/2021

[collapse]
Magnet Link

Magnet

Haseen.Dillruba.2021.Hindi.1080p.NF.WEBRip.x265.HEVC.10bit.DDP.Atmos.5.1.MSubs.Musafirboy-2.7 GB

[collapse]

Media information

General
Format : Matroska
Format version : Version 4
File size : 973 MiB
Duration : 2 h 15 min
Overall bit rate : 1 000 kb/s
Movie name : Haseen.Dillruba.2021.Hindi.720p.10bit.WEBRip.6CH.x265.HEVC

Video
ID : 1
Format : HEVC
Format/Info : High Efficiency Video Coding
Format profile : Main [email protected]@Main
Codec ID : V_MPEGH/ISO/HEVC
Duration : 2 h 15 min
Bit rate : 810 kb/s
Width : 1 280 pixels
Height : 544 pixels
Display aspect ratio : 2.35:1
Frame rate mode : Variable
Frame rate : 24.000 FPS
Color space : YUV
Chroma subsampling : 4:2:0 (Type 0)
Bit depth : 10 bits
Bits/(Pixel*Frame) : 0.048
Stream size : 784 MiB (81%)
Default : Yes
Forced : No
Color range : Limited
Color primaries : BT.709
Transfer characteristics : BT.709
Matrix coefficients : BT.709

Audio
ID : 2
Format : E-AC-3
Format/Info : Enhanced AC-3
Commercial name : Dolby Digital Plus
Codec ID : A_EAC3
Duration : 2 h 15 min
Bit rate mode : Constant
Bit rate : 192 kb/s
Channel(s) : 6 channels
Channel layout : L R C LFE Ls Rs
Sampling rate : 48.0 kHz
Frame rate : 31.250 FPS (1536 SPF)
Bit depth : 32 bits
Compression mode : Lossy
Stream size : 187 MiB (19%)
Language : Hindi
Service kind : Complete Main
Default : Yes
Forced : No

Text #1
ID : 3
Format : UTF-8
Codec ID : S_TEXT/UTF8
Codec ID/Info : UTF-8 Plain Text
Duration : 2 h 7 min
Bit rate : 46 b/s
Count of elements : 1526
Stream size : 43.8 KiB (0%)
Language : English
Default : Yes
Forced : No

Text #2
ID : 4
Format : UTF-8
Codec ID : S_TEXT/UTF8
Codec ID/Info : UTF-8 Plain Text
Duration : 2 h 15 min
Bit rate : 140 b/s
Count of elements : 1877
Stream size : 139 KiB (0%)
Language : Hindi
Default : No
Forced : No

Text #3
ID : 5
Format : UTF-8
Codec ID : S_TEXT/UTF8
Codec ID/Info : UTF-8 Plain Text
Duration : 2 h 15 min
Bit rate : 14 b/s
Count of elements : 232
Stream size : 14.5 KiB (0%)
Language : Tamil
Default : No
Forced : No

Text #4
ID : 6
Format : UTF-8
Codec ID : S_TEXT/UTF8
Codec ID/Info : UTF-8 Plain Text
Duration : 2 h 15 min
Bit rate : 12 b/s
Count of elements : 242
Stream size : 12.2 KiB (0%)
Language : Telugu
Default : No
Forced : No

[collapse]
Download Link(s)

Download

Direct download files get automatically deleted after a month or so. Posted on : 07/10/2021

[collapse]
Magnet Link

Magnet

Haseen.Dillruba.2021.Hindi.1080p.NF.WEBRip.x265.HEVC.10bit.DDP.Atmos.5.1.MSubs.Musafirboy-2.7 GB

[collapse]

You may also like...

error: nah :p~