Friday the 13th Part VI: Jason Lives (1986)

R | 1h 26min | Horror, Thriller | 1 August 1986 (USA)

Tommy Jarvis goes to the graveyard to get rid of Jason Voorhees’ body once and for all, but inadvertently brings him back to life instead. The newly revived killer once again seeks revenge, and Tommy may be the only one who can defeat him.

Watch trailer

Media information

General
Format : Matroska
Format version : Version 4
File size : 1.16 GiB
Duration : 1 h 27 min
Overall bit rate : 1 910 kb/s
Movie name : Friday.the.13th.Part.VI.Jason.Lives.1986.1080p.10bit.BluRay.6CH.x265.HEVC

Video
ID : 1
Format : HEVC
Format/Info : High Efficiency Video Coding
Format profile : Main [email protected]@Main
Codec ID : V_MPEGH/ISO/HEVC
Duration : 1 h 27 min
Bit rate : 1 700 kb/s
Width : 1 920 pixels
Height : 1 036 pixels
Display aspect ratio : 1.85:1
Frame rate mode : Constant
Frame rate : 23.976 (24000/1001) FPS
Color space : YUV
Chroma subsampling : 4:2:0
Bit depth : 10 bits
Bits/(Pixel*Frame) : 0.036
Stream size : 1.03 GiB (89%)
Default : Yes
Forced : No
Color range : Limited
Color primaries : BT.709
Transfer characteristics : BT.709
Matrix coefficients : BT.709

Audio
ID : 2
Format : AAC LC
Codec ID : A_AAC-2
Duration : 1 h 27 min
Bit rate : 192 kb/s
Channel(s) : 6 channels
Channel layout : C L R Ls Rs LFE
Sampling rate : 48.0 kHz
Frame rate : 46.875 FPS (1024 SPF)
Compression mode : Lossy
Delay relative to video : -21 ms
Stream size : 120 MiB (10%)
Language : English
Default : Yes
Forced : No

Text
ID : 3
Format : PGS
Muxing mode : zlib
Codec ID : S_HDMV/PGS
Duration : 1 h 26 min
Bit rate : 28.3 kb/s
Count of elements : 1491
Stream size : 17.6 MiB (1%)
Language : English
Default : Yes
Forced : Yes

[collapse]
Download Link(s)

Download

Direct download files get automatically deleted after a month or so. Posted on : 03/29/2021

[collapse]
Magnet Link

Magnet

Friday.the.13th.Part.VI.Jason.Lives.1986.RM.1080p.BluRay.x265.HEVC.10bit.AAC.5.1-4.8 GB

[collapse]

Media information

General
Format : Matroska
Format version : Version 4
File size : 599 MiB
Duration : 1 h 27 min
Overall bit rate : 960 kb/s
Movie name : Friday.the.13th.Part.VI.Jason.Lives.1986.720p.10bit.BluRay.6CH.x265.HEVC

Video
ID : 1
Format : HEVC
Format/Info : High Efficiency Video Coding
Format profile : Main [email protected]@Main
Codec ID : V_MPEGH/ISO/HEVC
Duration : 1 h 27 min
Bit rate : 750 kb/s
Width : 1 280 pixels
Height : 720 pixels
Display aspect ratio : 1.85:1
Frame rate mode : Constant
Frame rate : 23.976 (24000/1001) FPS
Color space : YUV
Chroma subsampling : 4:2:0
Bit depth : 10 bits
Bits/(Pixel*Frame) : 0.034
Stream size : 468 MiB (78%)
Default : Yes
Forced : No
Color range : Limited
Color primaries : BT.709
Transfer characteristics : BT.709
Matrix coefficients : BT.709

Audio
ID : 2
Format : AAC LC
Codec ID : A_AAC-2
Duration : 1 h 27 min
Bit rate : 192 kb/s
Channel(s) : 6 channels
Channel layout : C L R Ls Rs LFE
Sampling rate : 48.0 kHz
Frame rate : 46.875 FPS (1024 SPF)
Compression mode : Lossy
Delay relative to video : -21 ms
Stream size : 120 MiB (20%)
Language : English
Default : Yes
Forced : No

Text
ID : 3
Format : PGS
Muxing mode : zlib
Codec ID : S_HDMV/PGS
Duration : 1 h 26 min
Bit rate : 28.3 kb/s
Count of elements : 1491
Stream size : 17.6 MiB (3%)
Language : English
Default : Yes
Forced : Yes

[collapse]
Download Link(s)

Download

Direct download files get automatically deleted after a month or so. Posted on : 03/29/2021

[collapse]
Magnet Link

Magnet

Friday.the.13th.Part.VI.Jason.Lives.1986.RM.1080p.BluRay.x265.HEVC.10bit.AAC.5.1-4.8 GB

[collapse]

You may also like...

error: nah :p~