Day of the Dead (1985)

Not Rated | 1h 36min | Horror, Thriller | 19 July 1985 (USA)

As the world is overrun by zombies, a small group of scientists and military personnel dwelling in an underground bunker in Florida must determine whether they should educate, eliminate or escape the undead horde.

Watch trailer

Media information

General
Format : Matroska
Format version : Version 4
File size : 1.42 GiB
Duration : 1 h 40 min
Overall bit rate : 2 006 kb/s
Movie name : Day.Of.The.Dead.1985.REMASTERED.1080p.10bit.BluRay.2CH.x265.HEVC

Video
ID : 1
Format : HEVC
Format/Info : High Efficiency Video Coding
Format profile : Main [email protected]@Main
Codec ID : V_MPEGH/ISO/HEVC
Duration : 1 h 40 min
Bit rate : 1 746 kb/s
Width : 1 920 pixels
Height : 1 080 pixels
Display aspect ratio : 16:9
Frame rate mode : Variable
Frame rate : 23.976 FPS
Color space : YUV
Chroma subsampling : 4:2:0 (Type 0)
Bit depth : 10 bits
Bits/(Pixel*Frame) : 0.035
Stream size : 1.23 GiB (87%)
Default : Yes
Forced : No
Color range : Limited

Audio
ID : 2
Format : AAC LC
Codec ID : A_AAC-2
Duration : 1 h 40 min
Bit rate : 258 kb/s
Channel(s) : 2 channels
Channel layout : L R
Sampling rate : 48.0 kHz
Frame rate : 46.875 FPS (1024 SPF)
Compression mode : Lossy
Stream size : 186 MiB (13%)
Language : English
Default : Yes
Forced : No

Text
ID : 3
Format : UTF-8
Codec ID : S_TEXT/UTF8
Codec ID/Info : UTF-8 Plain Text
Duration : 1 h 39 min
Bit rate : 53 b/s
Count of elements : 1049
Stream size : 39.0 KiB (0%)
Language : English
Default : Yes
Forced : No

[collapse]
Download Link(s)

Download

Direct download files get automatically deleted after a month or so. Posted on : 06/10/2021

[collapse]
Magnet Link

Magnet

Day.Of.The.Dead.1985.REMASTERED.1080p.BluRay.x264-CREEPSHOW-8.73 GB

[collapse]

Media information

General
Format : Matroska
Format version : Version 4
File size : 744 MiB
Duration : 1 h 40 min
Overall bit rate : 1 031 kb/s
Movie name : Day.Of.The.Dead.1985.REMASTERED.720p.10bit.BluRay.2CH.x265.HEVC

Video
ID : 1
Format : HEVC
Format/Info : High Efficiency Video Coding
Format profile : Main [email protected]@Main
Codec ID : V_MPEGH/ISO/HEVC
Duration : 1 h 40 min
Bit rate : 836 kb/s
Width : 1 280 pixels
Height : 720 pixels
Display aspect ratio : 16:9
Frame rate mode : Variable
Frame rate : 23.976 FPS
Color space : YUV
Chroma subsampling : 4:2:0 (Type 0)
Bit depth : 10 bits
Bits/(Pixel*Frame) : 0.038
Stream size : 604 MiB (81%)
Default : Yes
Forced : No
Color range : Limited

Audio
ID : 2
Format : AAC LC
Codec ID : A_AAC-2
Duration : 1 h 40 min
Bit rate : 192 kb/s
Channel(s) : 2 channels
Channel layout : L R
Sampling rate : 48.0 kHz
Frame rate : 46.875 FPS (1024 SPF)
Compression mode : Lossy
Stream size : 139 MiB (19%)
Language : English
Default : Yes
Forced : No

Text
ID : 3
Format : UTF-8
Codec ID : S_TEXT/UTF8
Codec ID/Info : UTF-8 Plain Text
Duration : 1 h 39 min
Bit rate : 53 b/s
Count of elements : 1049
Stream size : 39.0 KiB (0%)
Language : English
Default : Yes
Forced : No

[collapse]
Download Link(s)

Download

Direct download files get automatically deleted after a month or so. Posted on : 06/10/2021

[collapse]
Magnet Link

Magnet

Day.Of.The.Dead.1985.REMASTERED.1080p.BluRay.x264-CREEPSHOW-8.73 GB

[collapse]

You may also like...

error: nah :p~