Congo (1995)

PG-13 | 1h 49min | Action, Adventure, Mystery | 9 June 1995 (USA)

When an expedition to the African Congo ends in disaster, a new team is assembled to find out what went wrong.

Watch trailer

Media information

General
Format : Matroska
Format version : Version 4
File size : 1.49 GiB
Duration : 1 h 48 min
Overall bit rate : 1 974 kb/s
Movie name : Congo.1995.1080p.10bit.BluRay.6CH.x265.HEVC

Video
ID : 1
Format : HEVC
Format/Info : High Efficiency Video Coding
Format profile : Main [email protected]@Main
Codec ID : V_MPEGH/ISO/HEVC
Duration : 1 h 48 min
Bit rate : 1 749 kb/s
Width : 1 920 pixels
Height : 1 080 pixels
Display aspect ratio : 16:9
Frame rate mode : Constant
Frame rate : 23.976 (24000/1001) FPS
Color space : YUV
Chroma subsampling : 4:2:0
Bit depth : 10 bits
Bits/(Pixel*Frame) : 0.035
Stream size : 1.32 GiB (89%)
Default : Yes
Forced : No
Color range : Limited
Color primaries : BT.709
Transfer characteristics : BT.709
Matrix coefficients : BT.709

Audio
ID : 2
Format : AAC LC
Codec ID : A_AAC-2
Duration : 1 h 48 min
Bit rate : 192 kb/s
Channel(s) : 6 channels
Channel layout : C L R Ls Rs LFE
Sampling rate : 48.0 kHz
Frame rate : 46.875 FPS (1024 SPF)
Compression mode : Lossy
Delay relative to video : -21 ms
Stream size : 148 MiB (10%)
Title : Surround
Language : English
Default : Yes
Forced : No

Text #1
ID : 3
Format : PGS
Muxing mode : zlib
Codec ID : S_HDMV/PGS
Duration : 1 h 46 min
Bit rate : 28.7 kb/s
Count of elements : 2218
Stream size : 21.9 MiB (1%)
Title : SDH
Language : English
Default : Yes
Forced : Yes

Text #2
ID : 4
Format : PGS
Muxing mode : zlib
Codec ID : S_HDMV/PGS
Duration : 1 h 45 min
Bit rate : 22.7 kb/s
Count of elements : 1730
Stream size : 17.1 MiB (1%)
Title : Canadian French
Language : French
Default : No
Forced : No

Text #3
ID : 5
Format : PGS
Muxing mode : zlib
Codec ID : S_HDMV/PGS
Duration : 1 h 45 min
Bit rate : 19.9 kb/s
Count of elements : 1392
Stream size : 15.0 MiB (1%)
Title : Latin American Spanish
Language : Spanish
Default : No
Forced : No

[collapse]
Download Link(s)

Download

Direct download files get automatically deleted after a month or so. Posted on : 04/21/2020

[collapse]
Magnet Link

Magnet

Congo.1995.1080p.BDrip.x265.10bi. EAC3 5.1 -8.5 GB

[collapse]

Media information

General
Format : Matroska
Format version : Version 4
File size : 949 MiB
Duration : 1 h 48 min
Overall bit rate : 1 225 kb/s
Movie name : Congo.1995.720p.10bit.BluRay.6CH.x265.HEVC

Video
ID : 1
Format : HEVC
Format/Info : High Efficiency Video Coding
Format profile : Main [email protected]@Main
Codec ID : V_MPEGH/ISO/HEVC
Duration : 1 h 48 min
Bit rate : 1 000 kb/s
Width : 1 280 pixels
Height : 720 pixels
Display aspect ratio : 16:9
Frame rate mode : Constant
Frame rate : 23.976 (24000/1001) FPS
Color space : YUV
Chroma subsampling : 4:2:0
Bit depth : 10 bits
Bits/(Pixel*Frame) : 0.045
Stream size : 775 MiB (82%)
Default : Yes
Forced : No
Color range : Limited
Color primaries : BT.709
Transfer characteristics : BT.709
Matrix coefficients : BT.709

Audio
ID : 2
Format : AAC LC
Codec ID : A_AAC-2
Duration : 1 h 48 min
Bit rate : 192 kb/s
Channel(s) : 6 channels
Channel layout : C L R Ls Rs LFE
Sampling rate : 48.0 kHz
Frame rate : 46.875 FPS (1024 SPF)
Compression mode : Lossy
Delay relative to video : -21 ms
Stream size : 148 MiB (16%)
Title : Surround
Language : English
Default : Yes
Forced : No

Text #1
ID : 3
Format : PGS
Muxing mode : zlib
Codec ID : S_HDMV/PGS
Duration : 1 h 46 min
Bit rate : 28.7 kb/s
Count of elements : 2218
Stream size : 21.9 MiB (2%)
Title : SDH
Language : English
Default : Yes
Forced : Yes

Text #2
ID : 4
Format : PGS
Muxing mode : zlib
Codec ID : S_HDMV/PGS
Duration : 1 h 45 min
Bit rate : 22.7 kb/s
Count of elements : 1730
Stream size : 17.1 MiB (2%)
Title : Canadian French
Language : French
Default : No
Forced : No

Text #3
ID : 5
Format : PGS
Muxing mode : zlib
Codec ID : S_HDMV/PGS
Duration : 1 h 45 min
Bit rate : 19.9 kb/s
Count of elements : 1392
Stream size : 15.0 MiB (2%)
Title : Latin American Spanish
Language : Spanish
Default : No
Forced : No

[collapse]
Download Link(s)

Download

Direct download files get automatically deleted after a month or so. Posted on : 04/18/2020

[collapse]
Magnet Link

Magnet

Congo.1995.1080p.BDrip.x265.10bi. EAC3 5.1 -8.5 GB

[collapse]

You may also like...

error: nah :p~