City of God (2002)

Cidade de Deus (original title)|R | 2h 10min | Crime, Drama | 13 February 2004 (USA)

In the slums of Rio, two kids’ paths diverge as one struggles to become a photographer and the other a kingpin.

Watch trailer

Media information

General
Format : Matroska
Format version : Version 4
File size : 1.05 GiB
Duration : 2 h 9 min
Overall bit rate : 1 154 kb/s
Movie name : City.of.God.2002.PORTUGUESE.720p.10bit.BluRay.6CH.x265.HEVC

Video
ID : 1
Format : HEVC
Format/Info : High Efficiency Video Coding
Format profile : Main [email protected]@Main
Codec ID : V_MPEGH/ISO/HEVC
Duration : 2 h 9 min
Bit rate : 958 kb/s
Width : 1 280 pixels
Height : 696 pixels
Display aspect ratio : 1.85:1
Frame rate mode : Variable
Frame rate : 23.976 FPS
Color space : YUV
Chroma subsampling : 4:2:0 (Type 0)
Bit depth : 10 bits
Bits/(Pixel*Frame) : 0.045
Stream size : 890 MiB (83%)
Default : Yes
Forced : No
Color range : Limited
Matrix coefficients : BT.709

Audio
ID : 2
Format : AAC LC
Codec ID : A_AAC-2
Duration : 2 h 9 min
Bit rate : 192 kb/s
Channel(s) : 6 channels
Channel layout : L R C Cb Lb Rb
Sampling rate : 48.0 kHz
Frame rate : 46.875 FPS (1024 SPF)
Compression mode : Lossy
Stream size : 179 MiB (17%)
Language : Portuguese
Default : Yes
Forced : No

Text #1
ID : 3
Format : UTF-8
Codec ID : S_TEXT/UTF8
Codec ID/Info : UTF-8 Plain Text
Duration : 2 h 4 min
Bit rate : 55 b/s
Count of elements : 1519
Stream size : 50.5 KiB (0%)
Language : English
Default : No
Forced : No

Text #2
ID : 4
Format : UTF-8
Codec ID : S_TEXT/UTF8
Codec ID/Info : UTF-8 Plain Text
Duration : 2 h 4 min
Bit rate : 56 b/s
Count of elements : 1580
Stream size : 51.3 KiB (0%)
Title : SDH
Language : English
Default : Yes
Forced : No

[collapse]
Download Link(s)

Download

Direct download files get automatically deleted after a month or so. Posted on : 05/13/2021

[collapse]
Magnet Link

Magnet

City.of.God.2002.PROPER.1080p.BluRay.x264-PHOBOS-10.92 GB

[collapse]

You may also like...

error: nah :p~