Athena (2022)

R | 1h 39min | Action, Drama, Thriller

Hours after the tragic death of their youngest brother in unexplained circumstances, three siblings have their lives thrown into chaos.

Watch trailer

Media information

General
Format : Matroska
Format version : Version 4
File size : 1.77 GiB
Duration : 1 h 39 min
Overall bit rate : 2 547 kb/s
Movie name : ATHENA.2022.DUAL-AUDIO.FRE-ENG.1080p.10bit.WEBRip.6CH.x265.HEVC

Video
ID : 1
Format : HEVC
Format/Info : High Efficiency Video Coding
Format profile : Main 10@L4@Main
Codec ID : V_MPEGH/ISO/HEVC
Duration : 1 h 39 min
Bit rate : 1 965 kb/s
Width : 1 920 pixels
Height : 1 080 pixels
Display aspect ratio : 16:9
Frame rate mode : Constant
Frame rate : 24.000 FPS
Color space : YUV
Chroma subsampling : 4:2:0 (Type 0)
Bit depth : 10 bits
Bits/(Pixel*Frame) : 0.039
Stream size : 1.37 GiB (77%)
Default : Yes
Forced : No
Color range : Limited
Color primaries : BT.709
Transfer characteristics : BT.709
Matrix coefficients : BT.709

Audio #1
ID : 2
Format : E-AC-3
Format/Info : Enhanced AC-3
Commercial name : Dolby Digital Plus
Codec ID : A_EAC3
Duration : 1 h 39 min
Bit rate mode : Constant
Bit rate : 288 kb/s
Channel(s) : 6 channels
Channel layout : L R C LFE Ls Rs
Sampling rate : 48.0 kHz
Frame rate : 31.250 FPS (1536 SPF)
Bit depth : 32 bits
Compression mode : Lossy
Stream size : 205 MiB (11%)
Language : French
Service kind : Complete Main
Default : Yes
Forced : No

Audio #2
ID : 3
Format : E-AC-3
Format/Info : Enhanced AC-3
Commercial name : Dolby Digital Plus
Codec ID : A_EAC3
Duration : 1 h 39 min
Bit rate mode : Constant
Bit rate : 288 kb/s
Channel(s) : 6 channels
Channel layout : L R C LFE Ls Rs
Sampling rate : 48.0 kHz
Frame rate : 31.250 FPS (1536 SPF)
Bit depth : 32 bits
Compression mode : Lossy
Stream size : 205 MiB (11%)
Language : English
Service kind : Complete Main
Default : No
Forced : No

Text #1
ID : 4
Format : UTF-8
Codec ID : S_TEXT/UTF8
Codec ID/Info : UTF-8 Plain Text
Duration : 1 h 24 min
Bit rate : 53 b/s
Frame rate : 0.207 FPS
Count of elements : 1050
Stream size : 33.1 KiB (0%)
Language : French
Default : No
Forced : No

Text #2
ID : 5
Format : UTF-8
Codec ID : S_TEXT/UTF8
Codec ID/Info : UTF-8 Plain Text
Duration : 1 h 30 min
Bit rate : 65 b/s
Frame rate : 0.241 FPS
Count of elements : 1313
Stream size : 43.5 KiB (0%)
Language : French
Default : No
Forced : No

Text #3
ID : 6
Format : UTF-8
Codec ID : S_TEXT/UTF8
Codec ID/Info : UTF-8 Plain Text
Duration : 1 h 24 min
Bit rate : 0 b/s
Frame rate : 0.001 FPS
Count of elements : 6
Stream size : 141 Bytes (0%)
Language : English
Default : No
Forced : Yes

Text #4
ID : 7
Format : UTF-8
Codec ID : S_TEXT/UTF8
Codec ID/Info : UTF-8 Plain Text
Duration : 1 h 35 min
Bit rate : 26 b/s
Frame rate : 0.116 FPS
Count of elements : 667
Stream size : 18.4 KiB (0%)
Language : English
Default : No
Forced : No

Text #5
ID : 8
Format : UTF-8
Codec ID : S_TEXT/UTF8
Codec ID/Info : UTF-8 Plain Text
Duration : 1 h 31 min
Bit rate : 71 b/s
Frame rate : 0.241 FPS
Count of elements : 1326
Stream size : 48.2 KiB (0%)
Title : SDH
Language : English
Default : Yes
Forced : No

Text #6
ID : 9
Format : UTF-8
Codec ID : S_TEXT/UTF8
Codec ID/Info : UTF-8 Plain Text
Duration : 1 h 36 min
Bit rate : 49 b/s
Frame rate : 0.121 FPS
Count of elements : 704
Stream size : 35.3 KiB (0%)
Language : Arabic
Default : No
Forced : No

Text #7
ID : 10
Format : UTF-8
Codec ID : S_TEXT/UTF8
Codec ID/Info : UTF-8 Plain Text
Duration : 1 h 37 min
Bit rate : 30 b/s
Frame rate : 0.122 FPS
Count of elements : 712
Stream size : 21.8 KiB (0%)
Language : Catalan
Default : No
Forced : No

Text #8
ID : 11
Format : UTF-8
Codec ID : S_TEXT/UTF8
Codec ID/Info : UTF-8 Plain Text
Duration : 1 h 36 min
Bit rate : 28 b/s
Frame rate : 0.116 FPS
Count of elements : 676
Stream size : 20.5 KiB (0%)
Language : Czech
Default : No
Forced : No

Text #9
ID : 12
Format : UTF-8
Codec ID : S_TEXT/UTF8
Codec ID/Info : UTF-8 Plain Text
Duration : 1 h 36 min
Bit rate : 26 b/s
Frame rate : 0.113 FPS
Count of elements : 659
Stream size : 19.1 KiB (0%)
Language : Danish
Default : No
Forced : No

Text #10
ID : 13
Format : UTF-8
Codec ID : S_TEXT/UTF8
Codec ID/Info : UTF-8 Plain Text
Duration : 1 h 36 min
Bit rate : 31 b/s
Frame rate : 0.114 FPS
Count of elements : 665
Stream size : 22.3 KiB (0%)
Language : German
Default : No
Forced : No

Text #11
ID : 14
Format : UTF-8
Codec ID : S_TEXT/UTF8
Codec ID/Info : UTF-8 Plain Text
Duration : 1 h 31 min
Bit rate : 47 b/s
Frame rate : 0.166 FPS
Count of elements : 915
Stream size : 32.0 KiB (0%)
Language : German
Default : No
Forced : No

Text #12
ID : 15
Format : UTF-8
Codec ID : S_TEXT/UTF8
Codec ID/Info : UTF-8 Plain Text
Duration : 1 h 31 min
Bit rate : 60 b/s
Frame rate : 0.225 FPS
Count of elements : 1237
Stream size : 41.0 KiB (0%)
Language : German
Default : No
Forced : No

Text #13
ID : 16
Format : UTF-8
Codec ID : S_TEXT/UTF8
Codec ID/Info : UTF-8 Plain Text
Duration : 1 h 36 min
Bit rate : 49 b/s
Frame rate : 0.125 FPS
Count of elements : 728
Stream size : 35.0 KiB (0%)
Language : Greek
Default : No
Forced : No

Text #14
ID : 17
Format : UTF-8
Codec ID : S_TEXT/UTF8
Codec ID/Info : UTF-8 Plain Text
Duration : 1 h 30 min
Bit rate : 55 b/s
Frame rate : 0.198 FPS
Count of elements : 1076
Stream size : 36.9 KiB (0%)
Language : Spanish
Default : No
Forced : No

Text #15
ID : 18
Format : UTF-8
Codec ID : S_TEXT/UTF8
Codec ID/Info : UTF-8 Plain Text
Duration : 1 h 36 min
Bit rate : 29 b/s
Frame rate : 0.116 FPS
Count of elements : 675
Stream size : 20.7 KiB (0%)
Language : Spanish
Default : No
Forced : No

Text #16
ID : 19
Format : UTF-8
Codec ID : S_TEXT/UTF8
Codec ID/Info : UTF-8 Plain Text
Duration : 1 h 37 min
Bit rate : 34 b/s
Frame rate : 0.125 FPS
Count of elements : 727
Stream size : 24.7 KiB (0%)
Language : Spanish
Default : No
Forced : No

Text #17
ID : 20
Format : UTF-8
Codec ID : S_TEXT/UTF8
Codec ID/Info : UTF-8 Plain Text
Duration : 1 h 31 min
Bit rate : 72 b/s
Frame rate : 0.261 FPS
Count of elements : 1437
Stream size : 49.0 KiB (0%)
Language : Spanish
Default : No
Forced : No

Text #18
ID : 21
Format : UTF-8
Codec ID : S_TEXT/UTF8
Codec ID/Info : UTF-8 Plain Text
Duration : 1 h 36 min
Bit rate : 28 b/s
Frame rate : 0.115 FPS
Count of elements : 672
Stream size : 19.9 KiB (0%)
Language : Basque
Default : No
Forced : No

Text #19
ID : 22
Format : UTF-8
Codec ID : S_TEXT/UTF8
Codec ID/Info : UTF-8 Plain Text
Duration : 1 h 36 min
Bit rate : 28 b/s
Frame rate : 0.107 FPS
Count of elements : 622
Stream size : 20.5 KiB (0%)
Language : Finnish
Default : No
Forced : No

Text #20
ID : 23
Format : UTF-8
Codec ID : S_TEXT/UTF8
Codec ID/Info : UTF-8 Plain Text
Duration : 1 h 36 min
Bit rate : 31 b/s
Frame rate : 0.115 FPS
Count of elements : 667
Stream size : 22.2 KiB (0%)
Language : English
Default : No
Forced : No

Text #21
ID : 24
Format : UTF-8
Codec ID : S_TEXT/UTF8
Codec ID/Info : UTF-8 Plain Text
Duration : 1 h 36 min
Bit rate : 30 b/s
Frame rate : 0.119 FPS
Count of elements : 693
Stream size : 21.4 KiB (0%)
Language : Galician
Default : No
Forced : No

Text #22
ID : 25
Format : UTF-8
Codec ID : S_TEXT/UTF8
Codec ID/Info : UTF-8 Plain Text
Duration : 1 h 36 min
Bit rate : 46 b/s
Frame rate : 0.116 FPS
Count of elements : 677
Stream size : 32.7 KiB (0%)
Language : Hebrew
Default : No
Forced : No

Text #23
ID : 26
Format : UTF-8
Codec ID : S_TEXT/UTF8
Codec ID/Info : UTF-8 Plain Text
Duration : 1 h 36 min
Bit rate : 25 b/s
Frame rate : 0.116 FPS
Count of elements : 675
Stream size : 18.3 KiB (0%)
Language : Croatian
Default : No
Forced : No

Text #24
ID : 27
Format : UTF-8
Codec ID : S_TEXT/UTF8
Codec ID/Info : UTF-8 Plain Text
Duration : 1 h 36 min
Bit rate : 29 b/s
Frame rate : 0.113 FPS
Count of elements : 657
Stream size : 20.7 KiB (0%)
Language : Hungarian
Default : No
Forced : No

Text #25
ID : 28
Format : UTF-8
Codec ID : S_TEXT/UTF8
Codec ID/Info : UTF-8 Plain Text
Duration : 1 h 36 min
Bit rate : 28 b/s
Frame rate : 0.115 FPS
Count of elements : 671
Stream size : 20.3 KiB (0%)
Language : Indonesian
Default : No
Forced : No

Text #26
ID : 29
Format : UTF-8
Codec ID : S_TEXT/UTF8
Codec ID/Info : UTF-8 Plain Text
Duration : 1 h 36 min
Bit rate : 30 b/s
Frame rate : 0.120 FPS
Count of elements : 701
Stream size : 21.6 KiB (0%)
Language : Italian
Default : No
Forced : No

Text #27
ID : 30
Format : UTF-8
Codec ID : S_TEXT/UTF8
Codec ID/Info : UTF-8 Plain Text
Duration : 1 h 36 min
Bit rate : 30 b/s
Frame rate : 0.132 FPS
Count of elements : 768
Stream size : 21.4 KiB (0%)
Language : Japanese
Default : No
Forced : No

Text #28
ID : 31
Format : UTF-8
Codec ID : S_TEXT/UTF8
Codec ID/Info : UTF-8 Plain Text
Duration : 1 h 36 min
Bit rate : 36 b/s
Frame rate : 0.115 FPS
Count of elements : 672
Stream size : 25.7 KiB (0%)
Language : Korean
Default : No
Forced : No

Text #29
ID : 32
Format : UTF-8
Codec ID : S_TEXT/UTF8
Codec ID/Info : UTF-8 Plain Text
Duration : 1 h 36 min
Bit rate : 29 b/s
Frame rate : 0.120 FPS
Count of elements : 701
Stream size : 20.7 KiB (0%)
Language : Malay
Default : No
Forced : No

Text #30
ID : 33
Format : UTF-8
Codec ID : S_TEXT/UTF8
Codec ID/Info : UTF-8 Plain Text
Duration : 1 h 36 min
Bit rate : 25 b/s
Frame rate : 0.113 FPS
Count of elements : 659
Stream size : 18.4 KiB (0%)
Language : Norwegian Bokmal
Default : No
Forced : No

Text #31
ID : 34
Format : UTF-8
Codec ID : S_TEXT/UTF8
Codec ID/Info : UTF-8 Plain Text
Duration : 1 h 36 min
Bit rate : 27 b/s
Frame rate : 0.115 FPS
Count of elements : 667
Stream size : 19.9 KiB (0%)
Language : Dutch
Default : No
Forced : No

Text #32
ID : 35
Format : UTF-8
Codec ID : S_TEXT/UTF8
Codec ID/Info : UTF-8 Plain Text
Duration : 1 h 36 min
Bit rate : 26 b/s
Frame rate : 0.116 FPS
Count of elements : 674
Stream size : 19.0 KiB (0%)
Language : Polish
Default : No
Forced : No

Text #33
ID : 36
Format : UTF-8
Codec ID : S_TEXT/UTF8
Codec ID/Info : UTF-8 Plain Text
Duration : 1 h 36 min
Bit rate : 29 b/s
Frame rate : 0.114 FPS
Count of elements : 663
Stream size : 20.9 KiB (0%)
Language : Portuguese
Default : No
Forced : No

Text #34
ID : 37
Format : UTF-8
Codec ID : S_TEXT/UTF8
Codec ID/Info : UTF-8 Plain Text
Duration : 1 h 31 min
Bit rate : 50 b/s
Frame rate : 0.180 FPS
Count of elements : 991
Stream size : 34.1 KiB (0%)
Language : Portuguese
Default : No
Forced : No

Text #35
ID : 38
Format : UTF-8
Codec ID : S_TEXT/UTF8
Codec ID/Info : UTF-8 Plain Text
Duration : 1 h 36 min
Bit rate : 29 b/s
Frame rate : 0.116 FPS
Count of elements : 677
Stream size : 21.1 KiB (0%)
Language : Portuguese
Default : No
Forced : No

Text #36
ID : 39
Format : UTF-8
Codec ID : S_TEXT/UTF8
Codec ID/Info : UTF-8 Plain Text
Duration : 1 h 36 min
Bit rate : 60 b/s
Frame rate : 0.212 FPS
Count of elements : 1229
Stream size : 43.1 KiB (0%)
Language : Portuguese
Default : No
Forced : No

Text #37
ID : 40
Format : UTF-8
Codec ID : S_TEXT/UTF8
Codec ID/Info : UTF-8 Plain Text
Duration : 1 h 36 min
Bit rate : 32 b/s
Frame rate : 0.115 FPS
Count of elements : 671
Stream size : 22.9 KiB (0%)
Language : Romanian
Default : No
Forced : No

Text #38
ID : 41
Format : UTF-8
Codec ID : S_TEXT/UTF8
Codec ID/Info : UTF-8 Plain Text
Duration : 1 h 36 min
Bit rate : 48 b/s
Frame rate : 0.123 FPS
Count of elements : 717
Stream size : 34.4 KiB (0%)
Language : Russian
Default : No
Forced : No

Text #39
ID : 42
Format : UTF-8
Codec ID : S_TEXT/UTF8
Codec ID/Info : UTF-8 Plain Text
Duration : 1 h 36 min
Bit rate : 28 b/s
Frame rate : 0.112 FPS
Count of elements : 653
Stream size : 19.9 KiB (0%)
Language : Swedish
Default : No
Forced : No

Text #40
ID : 43
Format : UTF-8
Codec ID : S_TEXT/UTF8
Codec ID/Info : UTF-8 Plain Text
Duration : 1 h 36 min
Bit rate : 78 b/s
Frame rate : 0.163 FPS
Count of elements : 946
Stream size : 55.5 KiB (0%)
Language : Thai
Default : No
Forced : No

Text #41
ID : 44
Format : UTF-8
Codec ID : S_TEXT/UTF8
Codec ID/Info : UTF-8 Plain Text
Duration : 1 h 36 min
Bit rate : 28 b/s
Frame rate : 0.116 FPS
Count of elements : 674
Stream size : 20.5 KiB (0%)
Language : Turkish
Default : No
Forced : No

Text #42
ID : 45
Format : UTF-8
Codec ID : S_TEXT/UTF8
Codec ID/Info : UTF-8 Plain Text
Duration : 1 h 36 min
Bit rate : 46 b/s
Frame rate : 0.115 FPS
Count of elements : 670
Stream size : 33.2 KiB (0%)
Language : Ukrainian
Default : No
Forced : No

Text #43
ID : 46
Format : UTF-8
Codec ID : S_TEXT/UTF8
Codec ID/Info : UTF-8 Plain Text
Duration : 1 h 36 min
Bit rate : 40 b/s
Frame rate : 0.114 FPS
Count of elements : 661
Stream size : 28.6 KiB (0%)
Language : Vietnamese
Default : No
Forced : No

Text #44
ID : 47
Format : UTF-8
Codec ID : S_TEXT/UTF8
Codec ID/Info : UTF-8 Plain Text
Duration : 1 h 36 min
Bit rate : 32 b/s
Frame rate : 0.116 FPS
Count of elements : 676
Stream size : 22.8 KiB (0%)
Language : Chinese
Default : No
Forced : No

Text #45
ID : 48
Format : UTF-8
Codec ID : S_TEXT/UTF8
Codec ID/Info : UTF-8 Plain Text
Duration : 1 h 36 min
Bit rate : 28 b/s
Frame rate : 0.117 FPS
Count of elements : 678
Stream size : 20.5 KiB (0%)
Language : Chinese
Default : No
Forced : No

[collapse]
Download Link(s)

Download

Direct download files get automatically deleted after a month or so. Posted on : 10/12/2022

[collapse]
Magnet Link

Magnet

ATHENA.2022.FRENCH.1080p.NF.WEB-DL.x265.10bit.SDR.DDP5.1.Atmos-SMURF-4.89 GB

[collapse]

Media information

General
Format : Matroska
Format version : Version 4
File size : 852 MiB
Duration : 1 h 39 min
Overall bit rate : 1 197 kb/s
Movie name : ATHENA.2022.DUAL-AUDIO.FRE-ENG.720p.10bit.WEBRip.6CH.x265.HEVC

Video
ID : 1
Format : HEVC
Format/Info : High Efficiency Video Coding
Format profile : Main [email protected]@Main
Codec ID : V_MPEGH/ISO/HEVC
Duration : 1 h 39 min
Bit rate : 808 kb/s
Width : 1 280 pixels
Height : 720 pixels
Display aspect ratio : 16:9
Frame rate mode : Constant
Frame rate : 24.000 FPS
Color space : YUV
Chroma subsampling : 4:2:0 (Type 0)
Bit depth : 10 bits
Bits/(Pixel*Frame) : 0.037
Stream size : 575 MiB (67%)
Default : Yes
Forced : No
Color range : Limited
Color primaries : BT.709
Transfer characteristics : BT.709
Matrix coefficients : BT.709

Audio #1
ID : 2
Format : E-AC-3
Format/Info : Enhanced AC-3
Commercial name : Dolby Digital Plus
Codec ID : A_EAC3
Duration : 1 h 39 min
Bit rate mode : Constant
Bit rate : 192 kb/s
Channel(s) : 6 channels
Channel layout : L R C LFE Ls Rs
Sampling rate : 48.0 kHz
Frame rate : 31.250 FPS (1536 SPF)
Bit depth : 32 bits
Compression mode : Lossy
Stream size : 137 MiB (16%)
Language : French
Service kind : Complete Main
Default : Yes
Forced : No

Audio #2
ID : 3
Format : E-AC-3
Format/Info : Enhanced AC-3
Commercial name : Dolby Digital Plus
Codec ID : A_EAC3
Duration : 1 h 39 min
Bit rate mode : Constant
Bit rate : 192 kb/s
Channel(s) : 6 channels
Channel layout : L R C LFE Ls Rs
Sampling rate : 48.0 kHz
Frame rate : 31.250 FPS (1536 SPF)
Bit depth : 32 bits
Compression mode : Lossy
Stream size : 137 MiB (16%)
Language : English
Service kind : Complete Main
Default : No
Forced : No

Text #1
ID : 4
Format : UTF-8
Codec ID : S_TEXT/UTF8
Codec ID/Info : UTF-8 Plain Text
Duration : 1 h 24 min
Bit rate : 53 b/s
Frame rate : 0.207 FPS
Count of elements : 1050
Stream size : 33.1 KiB (0%)
Language : French
Default : No
Forced : No

Text #2
ID : 5
Format : UTF-8
Codec ID : S_TEXT/UTF8
Codec ID/Info : UTF-8 Plain Text
Duration : 1 h 30 min
Bit rate : 65 b/s
Frame rate : 0.241 FPS
Count of elements : 1313
Stream size : 43.5 KiB (0%)
Language : French
Default : No
Forced : No

Text #3
ID : 6
Format : UTF-8
Codec ID : S_TEXT/UTF8
Codec ID/Info : UTF-8 Plain Text
Duration : 1 h 24 min
Bit rate : 0 b/s
Frame rate : 0.001 FPS
Count of elements : 6
Stream size : 141 Bytes (0%)
Language : English
Default : No
Forced : Yes

Text #4
ID : 7
Format : UTF-8
Codec ID : S_TEXT/UTF8
Codec ID/Info : UTF-8 Plain Text
Duration : 1 h 35 min
Bit rate : 26 b/s
Frame rate : 0.116 FPS
Count of elements : 667
Stream size : 18.4 KiB (0%)
Language : English
Default : No
Forced : No

Text #5
ID : 8
Format : UTF-8
Codec ID : S_TEXT/UTF8
Codec ID/Info : UTF-8 Plain Text
Duration : 1 h 31 min
Bit rate : 71 b/s
Frame rate : 0.241 FPS
Count of elements : 1326
Stream size : 48.2 KiB (0%)
Title : SDH
Language : English
Default : Yes
Forced : No

Text #6
ID : 9
Format : UTF-8
Codec ID : S_TEXT/UTF8
Codec ID/Info : UTF-8 Plain Text
Duration : 1 h 36 min
Bit rate : 49 b/s
Frame rate : 0.121 FPS
Count of elements : 704
Stream size : 35.3 KiB (0%)
Language : Arabic
Default : No
Forced : No

Text #7
ID : 10
Format : UTF-8
Codec ID : S_TEXT/UTF8
Codec ID/Info : UTF-8 Plain Text
Duration : 1 h 37 min
Bit rate : 30 b/s
Frame rate : 0.122 FPS
Count of elements : 712
Stream size : 21.8 KiB (0%)
Language : Catalan
Default : No
Forced : No

Text #8
ID : 11
Format : UTF-8
Codec ID : S_TEXT/UTF8
Codec ID/Info : UTF-8 Plain Text
Duration : 1 h 36 min
Bit rate : 28 b/s
Frame rate : 0.116 FPS
Count of elements : 676
Stream size : 20.5 KiB (0%)
Language : Czech
Default : No
Forced : No

Text #9
ID : 12
Format : UTF-8
Codec ID : S_TEXT/UTF8
Codec ID/Info : UTF-8 Plain Text
Duration : 1 h 36 min
Bit rate : 26 b/s
Frame rate : 0.113 FPS
Count of elements : 659
Stream size : 19.1 KiB (0%)
Language : Danish
Default : No
Forced : No

Text #10
ID : 13
Format : UTF-8
Codec ID : S_TEXT/UTF8
Codec ID/Info : UTF-8 Plain Text
Duration : 1 h 36 min
Bit rate : 31 b/s
Frame rate : 0.114 FPS
Count of elements : 665
Stream size : 22.3 KiB (0%)
Language : German
Default : No
Forced : No

Text #11
ID : 14
Format : UTF-8
Codec ID : S_TEXT/UTF8
Codec ID/Info : UTF-8 Plain Text
Duration : 1 h 31 min
Bit rate : 47 b/s
Frame rate : 0.166 FPS
Count of elements : 915
Stream size : 32.0 KiB (0%)
Language : German
Default : No
Forced : No

Text #12
ID : 15
Format : UTF-8
Codec ID : S_TEXT/UTF8
Codec ID/Info : UTF-8 Plain Text
Duration : 1 h 31 min
Bit rate : 60 b/s
Frame rate : 0.225 FPS
Count of elements : 1237
Stream size : 41.0 KiB (0%)
Language : German
Default : No
Forced : No

Text #13
ID : 16
Format : UTF-8
Codec ID : S_TEXT/UTF8
Codec ID/Info : UTF-8 Plain Text
Duration : 1 h 36 min
Bit rate : 49 b/s
Frame rate : 0.125 FPS
Count of elements : 728
Stream size : 35.0 KiB (0%)
Language : Greek
Default : No
Forced : No

Text #14
ID : 17
Format : UTF-8
Codec ID : S_TEXT/UTF8
Codec ID/Info : UTF-8 Plain Text
Duration : 1 h 30 min
Bit rate : 55 b/s
Frame rate : 0.198 FPS
Count of elements : 1076
Stream size : 36.9 KiB (0%)
Language : Spanish
Default : No
Forced : No

Text #15
ID : 18
Format : UTF-8
Codec ID : S_TEXT/UTF8
Codec ID/Info : UTF-8 Plain Text
Duration : 1 h 36 min
Bit rate : 29 b/s
Frame rate : 0.116 FPS
Count of elements : 675
Stream size : 20.7 KiB (0%)
Language : Spanish
Default : No
Forced : No

Text #16
ID : 19
Format : UTF-8
Codec ID : S_TEXT/UTF8
Codec ID/Info : UTF-8 Plain Text
Duration : 1 h 37 min
Bit rate : 34 b/s
Frame rate : 0.125 FPS
Count of elements : 727
Stream size : 24.7 KiB (0%)
Language : Spanish
Default : No
Forced : No

Text #17
ID : 20
Format : UTF-8
Codec ID : S_TEXT/UTF8
Codec ID/Info : UTF-8 Plain Text
Duration : 1 h 31 min
Bit rate : 72 b/s
Frame rate : 0.261 FPS
Count of elements : 1437
Stream size : 49.0 KiB (0%)
Language : Spanish
Default : No
Forced : No

Text #18
ID : 21
Format : UTF-8
Codec ID : S_TEXT/UTF8
Codec ID/Info : UTF-8 Plain Text
Duration : 1 h 36 min
Bit rate : 28 b/s
Frame rate : 0.115 FPS
Count of elements : 672
Stream size : 19.9 KiB (0%)
Language : Basque
Default : No
Forced : No

Text #19
ID : 22
Format : UTF-8
Codec ID : S_TEXT/UTF8
Codec ID/Info : UTF-8 Plain Text
Duration : 1 h 36 min
Bit rate : 28 b/s
Frame rate : 0.107 FPS
Count of elements : 622
Stream size : 20.5 KiB (0%)
Language : Finnish
Default : No
Forced : No

Text #20
ID : 23
Format : UTF-8
Codec ID : S_TEXT/UTF8
Codec ID/Info : UTF-8 Plain Text
Duration : 1 h 36 min
Bit rate : 31 b/s
Frame rate : 0.115 FPS
Count of elements : 667
Stream size : 22.2 KiB (0%)
Language : English
Default : No
Forced : No

Text #21
ID : 24
Format : UTF-8
Codec ID : S_TEXT/UTF8
Codec ID/Info : UTF-8 Plain Text
Duration : 1 h 36 min
Bit rate : 30 b/s
Frame rate : 0.119 FPS
Count of elements : 693
Stream size : 21.4 KiB (0%)
Language : Galician
Default : No
Forced : No

Text #22
ID : 25
Format : UTF-8
Codec ID : S_TEXT/UTF8
Codec ID/Info : UTF-8 Plain Text
Duration : 1 h 36 min
Bit rate : 46 b/s
Frame rate : 0.116 FPS
Count of elements : 677
Stream size : 32.7 KiB (0%)
Language : Hebrew
Default : No
Forced : No

Text #23
ID : 26
Format : UTF-8
Codec ID : S_TEXT/UTF8
Codec ID/Info : UTF-8 Plain Text
Duration : 1 h 36 min
Bit rate : 25 b/s
Frame rate : 0.116 FPS
Count of elements : 675
Stream size : 18.3 KiB (0%)
Language : Croatian
Default : No
Forced : No

Text #24
ID : 27
Format : UTF-8
Codec ID : S_TEXT/UTF8
Codec ID/Info : UTF-8 Plain Text
Duration : 1 h 36 min
Bit rate : 29 b/s
Frame rate : 0.113 FPS
Count of elements : 657
Stream size : 20.7 KiB (0%)
Language : Hungarian
Default : No
Forced : No

Text #25
ID : 28
Format : UTF-8
Codec ID : S_TEXT/UTF8
Codec ID/Info : UTF-8 Plain Text
Duration : 1 h 36 min
Bit rate : 28 b/s
Frame rate : 0.115 FPS
Count of elements : 671
Stream size : 20.3 KiB (0%)
Language : Indonesian
Default : No
Forced : No

Text #26
ID : 29
Format : UTF-8
Codec ID : S_TEXT/UTF8
Codec ID/Info : UTF-8 Plain Text
Duration : 1 h 36 min
Bit rate : 30 b/s
Frame rate : 0.120 FPS
Count of elements : 701
Stream size : 21.6 KiB (0%)
Language : Italian
Default : No
Forced : No

Text #27
ID : 30
Format : UTF-8
Codec ID : S_TEXT/UTF8
Codec ID/Info : UTF-8 Plain Text
Duration : 1 h 36 min
Bit rate : 30 b/s
Frame rate : 0.132 FPS
Count of elements : 768
Stream size : 21.4 KiB (0%)
Language : Japanese
Default : No
Forced : No

Text #28
ID : 31
Format : UTF-8
Codec ID : S_TEXT/UTF8
Codec ID/Info : UTF-8 Plain Text
Duration : 1 h 36 min
Bit rate : 36 b/s
Frame rate : 0.115 FPS
Count of elements : 672
Stream size : 25.7 KiB (0%)
Language : Korean
Default : No
Forced : No

Text #29
ID : 32
Format : UTF-8
Codec ID : S_TEXT/UTF8
Codec ID/Info : UTF-8 Plain Text
Duration : 1 h 36 min
Bit rate : 29 b/s
Frame rate : 0.120 FPS
Count of elements : 701
Stream size : 20.7 KiB (0%)
Language : Malay
Default : No
Forced : No

Text #30
ID : 33
Format : UTF-8
Codec ID : S_TEXT/UTF8
Codec ID/Info : UTF-8 Plain Text
Duration : 1 h 36 min
Bit rate : 25 b/s
Frame rate : 0.113 FPS
Count of elements : 659
Stream size : 18.4 KiB (0%)
Language : Norwegian Bokmal
Default : No
Forced : No

Text #31
ID : 34
Format : UTF-8
Codec ID : S_TEXT/UTF8
Codec ID/Info : UTF-8 Plain Text
Duration : 1 h 36 min
Bit rate : 27 b/s
Frame rate : 0.115 FPS
Count of elements : 667
Stream size : 19.9 KiB (0%)
Language : Dutch
Default : No
Forced : No

Text #32
ID : 35
Format : UTF-8
Codec ID : S_TEXT/UTF8
Codec ID/Info : UTF-8 Plain Text
Duration : 1 h 36 min
Bit rate : 26 b/s
Frame rate : 0.116 FPS
Count of elements : 674
Stream size : 19.0 KiB (0%)
Language : Polish
Default : No
Forced : No

Text #33
ID : 36
Format : UTF-8
Codec ID : S_TEXT/UTF8
Codec ID/Info : UTF-8 Plain Text
Duration : 1 h 36 min
Bit rate : 29 b/s
Frame rate : 0.114 FPS
Count of elements : 663
Stream size : 20.9 KiB (0%)
Language : Portuguese
Default : No
Forced : No

Text #34
ID : 37
Format : UTF-8
Codec ID : S_TEXT/UTF8
Codec ID/Info : UTF-8 Plain Text
Duration : 1 h 31 min
Bit rate : 50 b/s
Frame rate : 0.180 FPS
Count of elements : 991
Stream size : 34.1 KiB (0%)
Language : Portuguese
Default : No
Forced : No

Text #35
ID : 38
Format : UTF-8
Codec ID : S_TEXT/UTF8
Codec ID/Info : UTF-8 Plain Text
Duration : 1 h 36 min
Bit rate : 29 b/s
Frame rate : 0.116 FPS
Count of elements : 677
Stream size : 21.1 KiB (0%)
Language : Portuguese
Default : No
Forced : No

Text #36
ID : 39
Format : UTF-8
Codec ID : S_TEXT/UTF8
Codec ID/Info : UTF-8 Plain Text
Duration : 1 h 36 min
Bit rate : 60 b/s
Frame rate : 0.212 FPS
Count of elements : 1229
Stream size : 43.1 KiB (0%)
Language : Portuguese
Default : No
Forced : No

Text #37
ID : 40
Format : UTF-8
Codec ID : S_TEXT/UTF8
Codec ID/Info : UTF-8 Plain Text
Duration : 1 h 36 min
Bit rate : 32 b/s
Frame rate : 0.115 FPS
Count of elements : 671
Stream size : 22.9 KiB (0%)
Language : Romanian
Default : No
Forced : No

Text #38
ID : 41
Format : UTF-8
Codec ID : S_TEXT/UTF8
Codec ID/Info : UTF-8 Plain Text
Duration : 1 h 36 min
Bit rate : 48 b/s
Frame rate : 0.123 FPS
Count of elements : 717
Stream size : 34.4 KiB (0%)
Language : Russian
Default : No
Forced : No

Text #39
ID : 42
Format : UTF-8
Codec ID : S_TEXT/UTF8
Codec ID/Info : UTF-8 Plain Text
Duration : 1 h 36 min
Bit rate : 28 b/s
Frame rate : 0.112 FPS
Count of elements : 653
Stream size : 19.9 KiB (0%)
Language : Swedish
Default : No
Forced : No

Text #40
ID : 43
Format : UTF-8
Codec ID : S_TEXT/UTF8
Codec ID/Info : UTF-8 Plain Text
Duration : 1 h 36 min
Bit rate : 78 b/s
Frame rate : 0.163 FPS
Count of elements : 946
Stream size : 55.5 KiB (0%)
Language : Thai
Default : No
Forced : No

Text #41
ID : 44
Format : UTF-8
Codec ID : S_TEXT/UTF8
Codec ID/Info : UTF-8 Plain Text
Duration : 1 h 36 min
Bit rate : 28 b/s
Frame rate : 0.116 FPS
Count of elements : 674
Stream size : 20.5 KiB (0%)
Language : Turkish
Default : No
Forced : No

Text #42
ID : 45
Format : UTF-8
Codec ID : S_TEXT/UTF8
Codec ID/Info : UTF-8 Plain Text
Duration : 1 h 36 min
Bit rate : 46 b/s
Frame rate : 0.115 FPS
Count of elements : 670
Stream size : 33.2 KiB (0%)
Language : Ukrainian
Default : No
Forced : No

Text #43
ID : 46
Format : UTF-8
Codec ID : S_TEXT/UTF8
Codec ID/Info : UTF-8 Plain Text
Duration : 1 h 36 min
Bit rate : 40 b/s
Frame rate : 0.114 FPS
Count of elements : 661
Stream size : 28.6 KiB (0%)
Language : Vietnamese
Default : No
Forced : No

Text #44
ID : 47
Format : UTF-8
Codec ID : S_TEXT/UTF8
Codec ID/Info : UTF-8 Plain Text
Duration : 1 h 36 min
Bit rate : 32 b/s
Frame rate : 0.116 FPS
Count of elements : 676
Stream size : 22.8 KiB (0%)
Language : Chinese
Default : No
Forced : No

Text #45
ID : 48
Format : UTF-8
Codec ID : S_TEXT/UTF8
Codec ID/Info : UTF-8 Plain Text
Duration : 1 h 36 min
Bit rate : 28 b/s
Frame rate : 0.117 FPS
Count of elements : 678
Stream size : 20.5 KiB (0%)
Language : Chinese
Default : No
Forced : No

[collapse]
Download Link(s)

Download

Direct download files get automatically deleted after a month or so. Posted on : 10/12/2022

[collapse]
Magnet Link

Magnet

ATHENA.2022.FRENCH.1080p.NF.WEB-DL.x265.10bit.SDR.DDP5.1.Atmos-SMURF-4.89 GB

[collapse]

You may also like...

error: nah :p~
an/assets/front/js/ie/respond.js">