Apocalypse Now (1979)

R | 2h 27min | Drama, Mystery, War | 15 August 1979 (USA)

A U.S. Army officer serving in Vietnam is tasked with assassinating a renegade Special Forces Colonel who sees himself as a god.

Watch trailer

Media information

General
Format : Matroska
Format version : Version 4
File size : 3.69 GiB
Duration : 3 h 16 min
Overall bit rate : 2 695 kb/s
Movie name : Apocalypse.Now.1979.Redux.1080p.10bit.BluRay.8CH.x265.HEVC

Video
ID : 1
Format : HEVC
Format/Info : High Efficiency Video Coding
Format profile : Main [email protected]@Main
Codec ID : V_MPEGH/ISO/HEVC
Duration : 3 h 16 min
Bit rate : 2 237 kb/s
Width : 1 920 pixels
Height : 802 pixels
Display aspect ratio : 2.40:1
Frame rate mode : Constant
Frame rate : 23.976 (24000/1001) FPS
Color space : YUV
Chroma subsampling : 4:2:0 (Type 0)
Bit depth : 10 bits
Bits/(Pixel*Frame) : 0.061
Stream size : 3.06 GiB (83%)
Default : Yes
Forced : No
Color range : Limited

Audio
ID : 2
Format : AAC LC
Codec ID : A_AAC-2
Duration : 3 h 16 min
Bit rate : 384 kb/s
Channel(s) : 8 channels
Channel layout : C L R Ls Rs Lw Rw LFE
Sampling rate : 48.0 kHz
Frame rate : 46.875 FPS (1024 SPF)
Compression mode : Lossy
Delay relative to video : -21 ms
Stream size : 540 MiB (14%)
Language : English
Default : Yes
Forced : No

Text #1
ID : 3
Format : UTF-8
Codec ID : S_TEXT/UTF8
Codec ID/Info : UTF-8 Plain Text
Duration : 3 h 11 min
Bit rate : 53 b/s
Count of elements : 1951
Stream size : 75.0 KiB (0%)
Language : English
Default : Yes
Forced : No

Text #2
ID : 4
Format : PGS
Muxing mode : zlib
Codec ID : S_HDMV/PGS
Duration : 3 h 11 min
Bit rate : 37.3 kb/s
Count of elements : 3922
Stream size : 50.9 MiB (1%)
Language : English
Default : No
Forced : No

Text #3
ID : 5
Format : PGS
Muxing mode : zlib
Codec ID : S_HDMV/PGS
Duration : 3 h 14 min
Bit rate : 40.7 kb/s
Count of elements : 4348
Stream size : 56.8 MiB (2%)
Language : English
Default : No
Forced : No

Text #4
ID : 6
Format : PGS
Muxing mode : zlib
Codec ID : S_HDMV/PGS
Duration : 3 h 11 min
Bit rate : 35.4 kb/s
Count of elements : 3940
Stream size : 48.3 MiB (1%)
Language : French
Default : No
Forced : No

Text #5
ID : 7
Format : PGS
Muxing mode : zlib
Codec ID : S_HDMV/PGS
Duration : 3 h 11 min
Bit rate : 35.0 kb/s
Count of elements : 4088
Stream size : 47.9 MiB (1%)
Language : Spanish
Default : No
Forced : No

[collapse]
Download Link(s)

Download

Direct download files get automatically deleted after a month or so. Posted on : 03/28/2022

[collapse]
Magnet Link

Magnet

Apocalypse.Now.1979.Redux.1080p.BluRay.x264.TrueHD.7.1.Atmos-SWTYBLZ-22.44 GB

[collapse]

Media information

General
Format : Matroska
Format version : Version 4
File size : 2.02 GiB
Duration : 3 h 16 min
Overall bit rate : 1 473 kb/s
Movie name : Apocalypse.Now.1979.Redux.720p.10bit.BluRay.8CH.x265.HEVC

Video
ID : 1
Format : HEVC
Format/Info : High Efficiency Video Coding
Format profile : Main [email protected]@Main
Codec ID : V_MPEGH/ISO/HEVC
Duration : 3 h 16 min
Bit rate : 1 143 kb/s
Width : 1 280 pixels
Height : 536 pixels
Display aspect ratio : 2.40:1
Frame rate mode : Constant
Frame rate : 23.976 (24000/1001) FPS
Color space : YUV
Chroma subsampling : 4:2:0 (Type 0)
Bit depth : 10 bits
Bits/(Pixel*Frame) : 0.069
Stream size : 1.56 GiB (78%)
Default : Yes
Forced : No
Color range : Limited

Audio
ID : 2
Format : AAC LC
Codec ID : A_AAC-2
Duration : 3 h 16 min
Bit rate : 257 kb/s
Channel(s) : 8 channels
Channel layout : C L R Ls Rs Lw Rw LFE
Sampling rate : 48.0 kHz
Frame rate : 46.875 FPS (1024 SPF)
Compression mode : Lossy
Delay relative to video : -21 ms
Stream size : 360 MiB (17%)
Language : English
Default : Yes
Forced : No

Text #1
ID : 3
Format : UTF-8
Codec ID : S_TEXT/UTF8
Codec ID/Info : UTF-8 Plain Text
Duration : 3 h 11 min
Bit rate : 53 b/s
Count of elements : 1951
Stream size : 75.0 KiB (0%)
Language : English
Default : Yes
Forced : No

Text #2
ID : 4
Format : PGS
Muxing mode : zlib
Codec ID : S_HDMV/PGS
Duration : 3 h 11 min
Bit rate : 37.3 kb/s
Count of elements : 3922
Stream size : 50.9 MiB (2%)
Language : English
Default : No
Forced : No

Text #3
ID : 5
Format : PGS
Muxing mode : zlib
Codec ID : S_HDMV/PGS
Duration : 3 h 14 min
Bit rate : 40.7 kb/s
Count of elements : 4348
Stream size : 56.8 MiB (3%)
Language : English
Default : No
Forced : No

Text #4
ID : 6
Format : PGS
Muxing mode : zlib
Codec ID : S_HDMV/PGS
Duration : 3 h 11 min
Bit rate : 35.4 kb/s
Count of elements : 3940
Stream size : 48.3 MiB (2%)
Language : French
Default : No
Forced : No

Text #5
ID : 7
Format : PGS
Muxing mode : zlib
Codec ID : S_HDMV/PGS
Duration : 3 h 11 min
Bit rate : 35.0 kb/s
Count of elements : 4088
Stream size : 47.9 MiB (2%)
Language : Spanish
Default : No
Forced : No

[collapse]
Download Link(s)

Download

Direct download files get automatically deleted after a month or so. Posted on : 03/28/2022

[collapse]
Magnet Link

Magnet

Apocalypse.Now.1979.Redux.1080p.BluRay.x264.TrueHD.7.1.Atmos-SWTYBLZ-22.44 GB

[collapse]

You may also like...

error: nah :p~