Against the Clock (2019)

Thriller | 2019 (USA)

After new CIA recruit, Kelley Chandler (Polish) is seriously injured during a mission, surviving only on life support, his wife Tess (Agron), a former CIA operative, becomes determined to find out what happened to her husband. As the details of Kelley’s last mission unravel, showing that his accident was an inside job, Tess puts everything on the line to keep Kelley out of harm’s way, even if that comes with dangerous consequences.

Watch trailer

Media information

General
Format : Matroska
Format version : Version 4
File size : 804 MiB
Duration : 1 h 42 min
Overall bit rate : 1 100 kb/s
Movie name : Headlock.2019.720p.WEB-DL.2CH.x264.AVC
Encoded date : UTC 2019-01-11 21:31:22
Writing application : mkvmerge v30.1.0 (‘Forever And More’) 32-bit
Writing library : libebml v1.3.6 + libmatroska v1.4.9

Video
ID : 2
Format : AVC
Format/Info : Advanced Video Codec
Format profile : [email protected]
Format settings : CABAC / 5 Ref Frames
Format settings, CABAC : Yes
Format settings, RefFrames : 5 frames
Codec ID : V_MPEG4/ISO/AVC
Duration : 1 h 42 min
Bit rate : 1 036 kb/s
Width : 1 280 pixels
Height : 536 pixels
Display aspect ratio : 2.40:1
Frame rate mode : Constant
Frame rate : 23.976 (24000/1001) FPS
Color space : YUV
Chroma subsampling : 4:2:0
Bit depth : 8 bits
Scan type : Progressive
Bits/(Pixel*Frame) : 0.063
Stream size : 755 MiB (94%)
Default : Yes
Forced : No
Color range : Limited
Color primaries : BT.709
Transfer characteristics : BT.709
Matrix coefficients : BT.709

Audio
ID : 1
Format : AAC LC SBR
Commercial name : HE-AAC
Format settings : Explicit
Codec ID : A_AAC-2
Duration : 1 h 42 min
Bit rate : 64.0 kb/s
Channel(s) : 2 channels
Channel layout : L R
Sampling rate : 48.0 kHz
Frame rate : 23.438 FPS (2048 SPF)
Compression mode : Lossy
Delay relative to video : 31 ms
Stream size : 46.8 MiB (6%)
Language : English
Default : Yes
Forced : No

Text
ID : 3
Format : UTF-8
Codec ID : S_TEXT/UTF8
Codec ID/Info : UTF-8 Plain Text
Duration : 1 h 36 min
Bit rate : 54 b/s
Count of elements : 1177
Stream size : 38.8 KiB (0%)
Language : English
Default : Yes
Forced : No

[collapse]
Download Link(s)

Download

Direct download files get automatically deleted after a month or so. Posted on : 01/12/2019

[collapse]
Magnet Link

Magnet

Against.the.Clock.2019.1080p.WEB-DL.DD5.1.H264-FGT-3.52 GB

[collapse]

You may also like...

error: nah :p~
July 22, 2024 09:01 (Asia/Nicosia UTC:2) -->