Nezha Reborn (2021)

Xin Shen Bang: Ne Zha Chongsheng (original title)|1h 58min | Animation, Action, Fantasy | 12 April 2021 (USA)

A normal young deliveryman Li Yunxiang, though coming from the slum area, is living a satisfying life but when the arrogant wealthy son of Boss beats him down, his deep anger turns into a blast of Truth Fire.

Watch trailer

Media information

General
Format : Matroska
Format version : Version 4
File size : 1.29 GiB
Duration : 1 h 58 min
Overall bit rate : 1 559 kb/s
Movie name : New.Gods.Nezha.Reborn.2021.CHINESE.1080p.10bit.WEBRip.6CH.x265.HEVC

Video
ID : 1
Format : HEVC
Format/Info : High Efficiency Video Coding
Format profile : Main [email protected]@Main
Codec ID : V_MPEGH/ISO/HEVC
Duration : 1 h 58 min
Bit rate : 1 301 kb/s
Width : 1 920 pixels
Height : 808 pixels
Display aspect ratio : 2.40:1
Frame rate mode : Constant
Frame rate : 24.000 FPS
Color space : YUV
Chroma subsampling : 4:2:0
Bit depth : 10 bits
Bits/(Pixel*Frame) : 0.035
Stream size : 1.07 GiB (83%)
Default : Yes
Forced : No
Color range : Limited
Color primaries : BT.709
Transfer characteristics : BT.709
Matrix coefficients : BT.709

Audio
ID : 2
Format : AAC LC
Codec ID : A_AAC-2
Duration : 1 h 58 min
Bit rate : 255 kb/s
Channel(s) : 6 channels
Channel layout : C L R Ls Rs LFE
Sampling rate : 48.0 kHz
Frame rate : 46.875 FPS (1024 SPF)
Compression mode : Lossy
Delay relative to video : -26 ms
Stream size : 215 MiB (16%)
Language : Chinese
Default : Yes
Forced : No

Text
ID : 3
Format : UTF-8
Codec ID : S_TEXT/UTF8
Codec ID/Info : UTF-8 Plain Text
Duration : 1 h 55 min
Bit rate : 65 b/s
Count of elements : 2162
Stream size : 55.7 KiB (0%)
Language : English
Default : Yes
Forced : No

[collapse]
Download Link(s)

Download

Direct download files get automatically deleted after a month or so. Posted on : 04/17/2021

[collapse]
Magnet Link

Magnet

New.Gods.Nezha.Reborn.2021.ITA.CHI.Ac3.5.1.sub.ita.WEBRip.1080p.H264.ArMor-4.8 GB

[collapse]

Media information

General
Format : Matroska
Format version : Version 4
File size : 843 MiB
Duration : 1 h 58 min
Overall bit rate : 997 kb/s
Movie name : New.Gods.Nezha.Reborn.2021.CHINESE.720p.10bit.WEBRip.6CH.x265.HEVC

Video
ID : 1
Format : HEVC
Format/Info : High Efficiency Video Coding
Format profile : Main [email protected]@Main
Codec ID : V_MPEGH/ISO/HEVC
Duration : 1 h 58 min
Bit rate : 771 kb/s
Width : 1 280 pixels
Height : 540 pixels
Display aspect ratio : 2.40:1
Frame rate mode : Constant
Frame rate : 24.000 FPS
Color space : YUV
Chroma subsampling : 4:2:0
Bit depth : 10 bits
Bits/(Pixel*Frame) : 0.046
Stream size : 652 MiB (77%)
Default : Yes
Forced : No
Color range : Limited
Color primaries : BT.709
Transfer characteristics : BT.709
Matrix coefficients : BT.709

Audio
ID : 2
Format : AAC LC
Codec ID : A_AAC-2
Duration : 1 h 58 min
Bit rate : 223 kb/s
Channel(s) : 6 channels
Channel layout : C L R Ls Rs LFE
Sampling rate : 48.0 kHz
Frame rate : 46.875 FPS (1024 SPF)
Compression mode : Lossy
Delay relative to video : -26 ms
Stream size : 189 MiB (22%)
Language : Chinese
Default : Yes
Forced : No

Text
ID : 3
Format : UTF-8
Codec ID : S_TEXT/UTF8
Codec ID/Info : UTF-8 Plain Text
Duration : 1 h 55 min
Bit rate : 65 b/s
Count of elements : 2162
Stream size : 55.7 KiB (0%)
Language : English
Default : Yes
Forced : No

[collapse]
Download Link(s)

Download

Direct download files get automatically deleted after a month or so. Posted on : 04/17/2021

[collapse]
Magnet Link

Magnet

New.Gods.Nezha.Reborn.2021.ITA.CHI.Ac3.5.1.sub.ita.WEBRip.1080p.H264.ArMor-4.8 GB

[collapse]

You may also like...

error: nah :p~