Jujutsu Kaisen 0: The Movie (2021)

Original title: Gekijouban Jujutsu Kaisen 0 | PG-13 | 1h 52min | Animation, Action, Fantasy

Yuta Okkotsu, a high schooler who gains control of an extremely powerful Cursed Spirit and gets enrolled in the Tokyo Prefectural Jujutsu High School by Jujutsu Sorcerers to help him control his power and keep an eye on him.

Watch trailer

Media information

General
Format : Matroska
Format version : Version 4
File size : 685 MiB
Duration : 1 h 44 min
Overall bit rate : 912 kb/s
Movie name : Jujutsu.Kaisen.0.The.Movie.A.K.A.Gekijouban.Jujutsu.Kaisen.0.2021.JAPANESE.1080p.10bit.BluRay.6CH.x265.HEVC

Video
ID : 1
Format : HEVC
Format/Info : High Efficiency Video Coding
Format profile : Main [email protected]@Main
Codec ID : V_MPEGH/ISO/HEVC
Duration : 1 h 44 min
Bit rate : 698 kb/s
Width : 1 920 pixels
Height : 800 pixels
Display aspect ratio : 2.40:1
Frame rate mode : Constant
Frame rate : 23.976 (24000/1001) FPS
Color space : YUV
Chroma subsampling : 4:2:0
Bit depth : 10 bits
Bits/(Pixel*Frame) : 0.019
Stream size : 524 MiB (76%)
Default : Yes
Forced : No

Audio
ID : 2
Format : AAC LC SBR
Commercial name : HE-AAC
Format settings : Explicit
Codec ID : A_AAC-2
Duration : 1 h 44 min
Bit rate : 213 kb/s
Channel(s) : 6 channels
Channel layout : C L R Ls Rs LFE
Sampling rate : 48.0 kHz
Frame rate : 23.438 FPS (2048 SPF)
Compression mode : Lossy
Delay relative to video : 31 ms
Stream size : 160 MiB (23%)
Language : Japanese
Default : Yes
Forced : No

Text
ID : 3
Format : UTF-8
Codec ID : S_TEXT/UTF8
Codec ID/Info : UTF-8 Plain Text
Duration : 1 h 44 min
Bit rate : 56 b/s
Frame rate : 0.227 FPS
Count of elements : 1417
Stream size : 42.8 KiB (0%)
Language : English
Default : Yes
Forced : No

[collapse]
Download Link(s)

Download

Direct download files get automatically deleted after a month or so. Posted on : 09/22/2022

[collapse]
Magnet Link

Magnet

Jujutsu.Kaisen.0.The.Movie.Gekijouban.Jujutsu.Kaisen.Zero.2021.BD.1080p.HEVC.10bit.x265.Multi.Sub.AnimeTime-1.4 GB

[collapse]

Media information

General
Format : Matroska
Format version : Version 4
File size : 442 MiB
Duration : 1 h 44 min
Overall bit rate : 589 kb/s
Movie name : Jujutsu.Kaisen.0.The.Movie.A.K.A.Gekijouban.Jujutsu.Kaisen.0.2021.JAPANESE.720p.10bit.BluRay.6CH.x265.HEVC

Video
ID : 1
Format : HEVC
Format/Info : High Efficiency Video Coding
Format profile : Main [email protected]@Main
Codec ID : V_MPEGH/ISO/HEVC
Duration : 1 h 44 min
Bit rate : 374 kb/s
Width : 1 280 pixels
Height : 536 pixels
Display aspect ratio : 2.40:1
Frame rate mode : Constant
Frame rate : 23.976 (24000/1001) FPS
Color space : YUV
Chroma subsampling : 4:2:0
Bit depth : 10 bits
Bits/(Pixel*Frame) : 0.023
Stream size : 281 MiB (64%)
Default : Yes
Forced : No

Audio
ID : 2
Format : AAC LC SBR
Commercial name : HE-AAC
Format settings : Explicit
Codec ID : A_AAC-2
Duration : 1 h 44 min
Bit rate : 213 kb/s
Channel(s) : 6 channels
Channel layout : C L R Ls Rs LFE
Sampling rate : 48.0 kHz
Frame rate : 23.438 FPS (2048 SPF)
Compression mode : Lossy
Delay relative to video : 31 ms
Stream size : 160 MiB (36%)
Language : Japanese
Default : Yes
Forced : No

Text
ID : 3
Format : UTF-8
Codec ID : S_TEXT/UTF8
Codec ID/Info : UTF-8 Plain Text
Duration : 1 h 44 min
Bit rate : 56 b/s
Frame rate : 0.227 FPS
Count of elements : 1417
Stream size : 42.8 KiB (0%)
Language : English
Default : Yes
Forced : No

[collapse]
Download Link(s)

Download

Direct download files get automatically deleted after a month or so. Posted on : 09/22/2022

[collapse]
Magnet Link

Magnet

Jujutsu.Kaisen.0.The.Movie.Gekijouban.Jujutsu.Kaisen.Zero.2021.BD.1080p.HEVC.10bit.x265.Multi.Sub.AnimeTime-1.4 GB

[collapse]

You may also like...

error: nah :p~