The Veil (2024)

TV Mini Series | TV-MA | Thriller

Follows the relationship between two women playing a deadly game of truth and lies. One woman has a secret, and the other has a mission to reveal it before thousands of lives are lost.

Watch trailer

Media Info and Download Links | S01E06-1080p.10bit.WEBRip.6CH.x265.HEVC

General
Format : Matroska
Format version : Version 4
File size : 1.00 GiB
Duration : 1 h 7 min
Overall bit rate : 2 128 kb/s
Frame rate : 23.976 FPS
Movie name : The.Veil.2024.S01E06.1080p.10bit.WEBRip.6CH.x265.HEVC

Video
ID : 1
Format : HEVC
Format/Info : High Efficiency Video Coding
Format profile : Main 10@L4@Main
Codec ID : V_MPEGH/ISO/HEVC
Duration : 1 h 7 min
Bit rate : 1 923 kb/s
Width : 1 920 pixels
Height : 960 pixels
Display aspect ratio : 2.000
Frame rate mode : Constant
Frame rate : 23.976 (24000/1001) FPS
Color space : YUV
Chroma subsampling : 4:2:0
Bit depth : 10 bits
Bits/(Pixel*Frame) : 0.044
Stream size : 927 MiB (90%)
Default : Yes
Forced : No
Color range : Limited
Color primaries : BT.709
Transfer characteristics : BT.709
Matrix coefficients : BT.709

Audio
ID : 2
Format : AAC LC SBR
Commercial name : HE-AAC
Format settings : Explicit
Codec ID : A_AAC-2
Duration : 1 h 7 min
Bit rate : 202 kb/s
Channel(s) : 6 channels
Channel layout : C L R Ls Rs LFE
Sampling rate : 48.0 kHz
Frame rate : 23.438 FPS (2048 SPF)
Compression mode : Lossy
Delay relative to video : 23 ms
Stream size : 97.2 MiB (9%)
Language : English
Default : Yes
Forced : No

Text #1
ID : 3
Format : UTF-8
Codec ID : S_TEXT/UTF8
Codec ID/Info : UTF-8 Plain Text
Duration : 1 h 5 min
Bit rate : 35 b/s
Frame rate : 0.136 FPS
Count of elements : 536
Stream size : 17.1 KiB (0%)
Language : English
Default : No
Forced : No

Text #2
ID : 4
Format : UTF-8
Codec ID : S_TEXT/UTF8
Codec ID/Info : UTF-8 Plain Text
Duration : 7 min 40 s
Bit rate : 14 b/s
Frame rate : 0.048 FPS
Count of elements : 22
Stream size : 808 Bytes (0%)
Title : Forced
Language : English
Default : No
Forced : Yes

Text #3
ID : 5
Format : UTF-8
Codec ID : S_TEXT/UTF8
Codec ID/Info : UTF-8 Plain Text
Duration : 1 h 5 min
Bit rate : 39 b/s
Frame rate : 0.153 FPS
Count of elements : 603
Stream size : 18.8 KiB (0%)
Title : SDH
Language : English
Default : Yes
Forced : No

Text #4
ID : 6
Format : UTF-8
Codec ID : S_TEXT/UTF8
Codec ID/Info : UTF-8 Plain Text
Duration : 1 h 6 min
Bit rate : 31 b/s
Frame rate : 0.125 FPS
Count of elements : 502
Stream size : 15.3 KiB (0%)
Language : Czech
Default : No
Forced : No

Text #5
ID : 7
Format : UTF-8
Codec ID : S_TEXT/UTF8
Codec ID/Info : UTF-8 Plain Text
Duration : 1 h 6 min
Bit rate : 32 b/s
Frame rate : 0.121 FPS
Count of elements : 485
Stream size : 16.0 KiB (0%)
Language : Danish
Default : No
Forced : No

Text #6
ID : 8
Format : UTF-8
Codec ID : S_TEXT/UTF8
Codec ID/Info : UTF-8 Plain Text
Duration : 1 h 6 min
Bit rate : 35 b/s
Frame rate : 0.126 FPS
Count of elements : 505
Stream size : 17.4 KiB (0%)
Language : German
Default : No
Forced : No

Text #7
ID : 9
Format : UTF-8
Codec ID : S_TEXT/UTF8
Codec ID/Info : UTF-8 Plain Text
Duration : 1 h 6 min
Bit rate : 55 b/s
Frame rate : 0.132 FPS
Count of elements : 531
Stream size : 27.3 KiB (0%)
Language : Greek
Default : No
Forced : No

Text #8
ID : 10
Format : UTF-8
Codec ID : S_TEXT/UTF8
Codec ID/Info : UTF-8 Plain Text
Duration : 1 h 6 min
Bit rate : 31 b/s
Frame rate : 0.125 FPS
Count of elements : 503
Stream size : 15.6 KiB (0%)
Title : Latin American
Language : Spanish (Latin America)
Default : No
Forced : No

Text #9
ID : 11
Format : UTF-8
Codec ID : S_TEXT/UTF8
Codec ID/Info : UTF-8 Plain Text
Duration : 1 h 6 min
Bit rate : 32 b/s
Frame rate : 0.132 FPS
Count of elements : 529
Stream size : 15.8 KiB (0%)
Language : Spanish (ES)
Default : No
Forced : No

Text #10
ID : 12
Format : UTF-8
Codec ID : S_TEXT/UTF8
Codec ID/Info : UTF-8 Plain Text
Duration : 1 h 6 min
Bit rate : 33 b/s
Frame rate : 0.122 FPS
Count of elements : 490
Stream size : 16.6 KiB (0%)
Language : Finnish
Default : No
Forced : No

Text #11
ID : 13
Format : UTF-8
Codec ID : S_TEXT/UTF8
Codec ID/Info : UTF-8 Plain Text
Duration : 1 h 6 min
Bit rate : 31 b/s
Frame rate : 0.122 FPS
Count of elements : 490
Stream size : 15.4 KiB (0%)
Language : French (FR)
Default : No
Forced : No

Text #12
ID : 14
Format : UTF-8
Codec ID : S_TEXT/UTF8
Codec ID/Info : UTF-8 Plain Text
Duration : 1 h 6 min
Bit rate : 32 b/s
Frame rate : 0.127 FPS
Count of elements : 511
Stream size : 16.0 KiB (0%)
Language : Hungarian
Default : No
Forced : No

Text #13
ID : 15
Format : UTF-8
Codec ID : S_TEXT/UTF8
Codec ID/Info : UTF-8 Plain Text
Duration : 1 h 6 min
Bit rate : 32 b/s
Frame rate : 0.133 FPS
Count of elements : 534
Stream size : 16.1 KiB (0%)
Language : Italian
Default : No
Forced : No

Text #14
ID : 16
Format : UTF-8
Codec ID : S_TEXT/UTF8
Codec ID/Info : UTF-8 Plain Text
Duration : 1 h 6 min
Bit rate : 30 b/s
Frame rate : 0.140 FPS
Count of elements : 562
Stream size : 14.8 KiB (0%)
Language : Japanese
Default : No
Forced : No

Text #15
ID : 17
Format : UTF-8
Codec ID : S_TEXT/UTF8
Codec ID/Info : UTF-8 Plain Text
Duration : 1 h 6 min
Bit rate : 38 b/s
Frame rate : 0.136 FPS
Count of elements : 546
Stream size : 18.7 KiB (0%)
Language : Korean
Default : No
Forced : No

Text #16
ID : 18
Format : UTF-8
Codec ID : S_TEXT/UTF8
Codec ID/Info : UTF-8 Plain Text
Duration : 1 h 6 min
Bit rate : 29 b/s
Frame rate : 0.110 FPS
Count of elements : 442
Stream size : 14.6 KiB (0%)
Language : Dutch
Default : No
Forced : No

Text #17
ID : 19
Format : UTF-8
Codec ID : S_TEXT/UTF8
Codec ID/Info : UTF-8 Plain Text
Duration : 1 h 6 min
Bit rate : 31 b/s
Frame rate : 0.124 FPS
Count of elements : 496
Stream size : 15.2 KiB (0%)
Language : Norwegian
Default : No
Forced : No

Text #18
ID : 20
Format : UTF-8
Codec ID : S_TEXT/UTF8
Codec ID/Info : UTF-8 Plain Text
Duration : 1 h 6 min
Bit rate : 30 b/s
Frame rate : 0.130 FPS
Count of elements : 522
Stream size : 14.9 KiB (0%)
Language : Polish
Default : No
Forced : No

Text #19
ID : 21
Format : UTF-8
Codec ID : S_TEXT/UTF8
Codec ID/Info : UTF-8 Plain Text
Duration : 1 h 6 min
Bit rate : 31 b/s
Frame rate : 0.132 FPS
Count of elements : 530
Stream size : 15.6 KiB (0%)
Title : Brazilian
Language : Portuguese (BR)
Default : No
Forced : No

Text #20
ID : 22
Format : UTF-8
Codec ID : S_TEXT/UTF8
Codec ID/Info : UTF-8 Plain Text
Duration : 1 h 6 min
Bit rate : 33 b/s
Frame rate : 0.131 FPS
Count of elements : 526
Stream size : 16.7 KiB (0%)
Language : Portuguese (PT)
Default : No
Forced : No

Text #21
ID : 23
Format : UTF-8
Codec ID : S_TEXT/UTF8
Codec ID/Info : UTF-8 Plain Text
Duration : 1 h 6 min
Bit rate : 31 b/s
Frame rate : 0.113 FPS
Count of elements : 454
Stream size : 15.5 KiB (0%)
Language : Romanian
Default : No
Forced : No

Text #22
ID : 24
Format : UTF-8
Codec ID : S_TEXT/UTF8
Codec ID/Info : UTF-8 Plain Text
Duration : 1 h 6 min
Bit rate : 31 b/s
Frame rate : 0.132 FPS
Count of elements : 531
Stream size : 15.4 KiB (0%)
Language : Slovak
Default : No
Forced : No

Text #23
ID : 25
Format : UTF-8
Codec ID : S_TEXT/UTF8
Codec ID/Info : UTF-8 Plain Text
Duration : 1 h 6 min
Bit rate : 31 b/s
Frame rate : 0.116 FPS
Count of elements : 466
Stream size : 15.5 KiB (0%)
Language : Swedish
Default : No
Forced : No

Text #24
ID : 26
Format : UTF-8
Codec ID : S_TEXT/UTF8
Codec ID/Info : UTF-8 Plain Text
Duration : 1 h 6 min
Bit rate : 34 b/s
Frame rate : 0.130 FPS
Count of elements : 524
Stream size : 16.9 KiB (0%)
Language : Turkish
Default : No
Forced : No

Text #25
ID : 27
Format : UTF-8
Codec ID : S_TEXT/UTF8
Codec ID/Info : UTF-8 Plain Text
Duration : 1 h 6 min
Bit rate : 32 b/s
Frame rate : 0.136 FPS
Count of elements : 546
Stream size : 15.7 KiB (0%)
Title : Traditional
Language : Chinese (Traditional)
Default : No
Forced : No

Download

Direct download files get automatically deleted after a month or so. Posted on : 05/28/2024

[collapse]
Media Info and Download Links | S01E06-720p.10bit.WEBRip.2CH.x265.HEVC

General
Format : Matroska
Format version : Version 4
File size : 381 MiB
Duration : 1 h 7 min
Overall bit rate : 791 kb/s
Frame rate : 23.976 FPS
Movie name : The.Veil.2024.S01E06.720p.10bit.WEBRip.2CH.x265.HEVC

Video
ID : 1
Format : HEVC
Format/Info : High Efficiency Video Coding
Format profile : Main [email protected]@Main
Codec ID : V_MPEGH/ISO/HEVC
Duration : 1 h 7 min
Bit rate : 716 kb/s
Width : 1 280 pixels
Height : 640 pixels
Display aspect ratio : 2.000
Frame rate mode : Constant
Frame rate : 23.976 (24000/1001) FPS
Color space : YUV
Chroma subsampling : 4:2:0
Bit depth : 10 bits
Bits/(Pixel*Frame) : 0.036
Stream size : 345 MiB (91%)
Default : Yes
Forced : No
Color range : Limited
Color primaries : BT.709
Transfer characteristics : BT.709
Matrix coefficients : BT.709

Audio
ID : 2
Format : AAC LC SBR
Commercial name : HE-AAC
Format settings : Explicit
Codec ID : A_AAC-2
Duration : 1 h 7 min
Bit rate : 72.0 kb/s
Channel(s) : 2 channels
Channel layout : L R
Sampling rate : 48.0 kHz
Frame rate : 23.438 FPS (2048 SPF)
Compression mode : Lossy
Delay relative to video : 23 ms
Stream size : 34.3 MiB (9%)
Language : English
Default : Yes
Forced : No

Text #1
ID : 3
Format : UTF-8
Codec ID : S_TEXT/UTF8
Codec ID/Info : UTF-8 Plain Text
Duration : 1 h 5 min
Bit rate : 35 b/s
Frame rate : 0.136 FPS
Count of elements : 536
Stream size : 17.1 KiB (0%)
Language : English
Default : No
Forced : No

Text #2
ID : 4
Format : UTF-8
Codec ID : S_TEXT/UTF8
Codec ID/Info : UTF-8 Plain Text
Duration : 7 min 40 s
Bit rate : 14 b/s
Frame rate : 0.048 FPS
Count of elements : 22
Stream size : 808 Bytes (0%)
Title : Forced
Language : English
Default : No
Forced : Yes

Text #3
ID : 5
Format : UTF-8
Codec ID : S_TEXT/UTF8
Codec ID/Info : UTF-8 Plain Text
Duration : 1 h 5 min
Bit rate : 39 b/s
Frame rate : 0.153 FPS
Count of elements : 603
Stream size : 18.8 KiB (0%)
Title : SDH
Language : English
Default : Yes
Forced : No

Text #4
ID : 6
Format : UTF-8
Codec ID : S_TEXT/UTF8
Codec ID/Info : UTF-8 Plain Text
Duration : 1 h 6 min
Bit rate : 31 b/s
Frame rate : 0.125 FPS
Count of elements : 502
Stream size : 15.3 KiB (0%)
Language : Czech
Default : No
Forced : No

Text #5
ID : 7
Format : UTF-8
Codec ID : S_TEXT/UTF8
Codec ID/Info : UTF-8 Plain Text
Duration : 1 h 6 min
Bit rate : 32 b/s
Frame rate : 0.121 FPS
Count of elements : 485
Stream size : 16.0 KiB (0%)
Language : Danish
Default : No
Forced : No

Text #6
ID : 8
Format : UTF-8
Codec ID : S_TEXT/UTF8
Codec ID/Info : UTF-8 Plain Text
Duration : 1 h 6 min
Bit rate : 35 b/s
Frame rate : 0.126 FPS
Count of elements : 505
Stream size : 17.4 KiB (0%)
Language : German
Default : No
Forced : No

Text #7
ID : 9
Format : UTF-8
Codec ID : S_TEXT/UTF8
Codec ID/Info : UTF-8 Plain Text
Duration : 1 h 6 min
Bit rate : 55 b/s
Frame rate : 0.132 FPS
Count of elements : 531
Stream size : 27.3 KiB (0%)
Language : Greek
Default : No
Forced : No

Text #8
ID : 10
Format : UTF-8
Codec ID : S_TEXT/UTF8
Codec ID/Info : UTF-8 Plain Text
Duration : 1 h 6 min
Bit rate : 31 b/s
Frame rate : 0.125 FPS
Count of elements : 503
Stream size : 15.6 KiB (0%)
Title : Latin American
Language : Spanish (Latin America)
Default : No
Forced : No

Text #9
ID : 11
Format : UTF-8
Codec ID : S_TEXT/UTF8
Codec ID/Info : UTF-8 Plain Text
Duration : 1 h 6 min
Bit rate : 32 b/s
Frame rate : 0.132 FPS
Count of elements : 529
Stream size : 15.8 KiB (0%)
Language : Spanish (ES)
Default : No
Forced : No

Text #10
ID : 12
Format : UTF-8
Codec ID : S_TEXT/UTF8
Codec ID/Info : UTF-8 Plain Text
Duration : 1 h 6 min
Bit rate : 33 b/s
Frame rate : 0.122 FPS
Count of elements : 490
Stream size : 16.6 KiB (0%)
Language : Finnish
Default : No
Forced : No

Text #11
ID : 13
Format : UTF-8
Codec ID : S_TEXT/UTF8
Codec ID/Info : UTF-8 Plain Text
Duration : 1 h 6 min
Bit rate : 31 b/s
Frame rate : 0.122 FPS
Count of elements : 490
Stream size : 15.4 KiB (0%)
Language : French (FR)
Default : No
Forced : No

Text #12
ID : 14
Format : UTF-8
Codec ID : S_TEXT/UTF8
Codec ID/Info : UTF-8 Plain Text
Duration : 1 h 6 min
Bit rate : 32 b/s
Frame rate : 0.127 FPS
Count of elements : 511
Stream size : 16.0 KiB (0%)
Language : Hungarian
Default : No
Forced : No

Text #13
ID : 15
Format : UTF-8
Codec ID : S_TEXT/UTF8
Codec ID/Info : UTF-8 Plain Text
Duration : 1 h 6 min
Bit rate : 32 b/s
Frame rate : 0.133 FPS
Count of elements : 534
Stream size : 16.1 KiB (0%)
Language : Italian
Default : No
Forced : No

Text #14
ID : 16
Format : UTF-8
Codec ID : S_TEXT/UTF8
Codec ID/Info : UTF-8 Plain Text
Duration : 1 h 6 min
Bit rate : 30 b/s
Frame rate : 0.140 FPS
Count of elements : 562
Stream size : 14.8 KiB (0%)
Language : Japanese
Default : No
Forced : No

Text #15
ID : 17
Format : UTF-8
Codec ID : S_TEXT/UTF8
Codec ID/Info : UTF-8 Plain Text
Duration : 1 h 6 min
Bit rate : 38 b/s
Frame rate : 0.136 FPS
Count of elements : 546
Stream size : 18.7 KiB (0%)
Language : Korean
Default : No
Forced : No

Text #16
ID : 18
Format : UTF-8
Codec ID : S_TEXT/UTF8
Codec ID/Info : UTF-8 Plain Text
Duration : 1 h 6 min
Bit rate : 29 b/s
Frame rate : 0.110 FPS
Count of elements : 442
Stream size : 14.6 KiB (0%)
Language : Dutch
Default : No
Forced : No

Text #17
ID : 19
Format : UTF-8
Codec ID : S_TEXT/UTF8
Codec ID/Info : UTF-8 Plain Text
Duration : 1 h 6 min
Bit rate : 31 b/s
Frame rate : 0.124 FPS
Count of elements : 496
Stream size : 15.2 KiB (0%)
Language : Norwegian
Default : No
Forced : No

Text #18
ID : 20
Format : UTF-8
Codec ID : S_TEXT/UTF8
Codec ID/Info : UTF-8 Plain Text
Duration : 1 h 6 min
Bit rate : 30 b/s
Frame rate : 0.130 FPS
Count of elements : 522
Stream size : 14.9 KiB (0%)
Language : Polish
Default : No
Forced : No

Text #19
ID : 21
Format : UTF-8
Codec ID : S_TEXT/UTF8
Codec ID/Info : UTF-8 Plain Text
Duration : 1 h 6 min
Bit rate : 31 b/s
Frame rate : 0.132 FPS
Count of elements : 530
Stream size : 15.6 KiB (0%)
Title : Brazilian
Language : Portuguese (BR)
Default : No
Forced : No

Text #20
ID : 22
Format : UTF-8
Codec ID : S_TEXT/UTF8
Codec ID/Info : UTF-8 Plain Text
Duration : 1 h 6 min
Bit rate : 33 b/s
Frame rate : 0.131 FPS
Count of elements : 526
Stream size : 16.7 KiB (0%)
Language : Portuguese (PT)
Default : No
Forced : No

Text #21
ID : 23
Format : UTF-8
Codec ID : S_TEXT/UTF8
Codec ID/Info : UTF-8 Plain Text
Duration : 1 h 6 min
Bit rate : 31 b/s
Frame rate : 0.113 FPS
Count of elements : 454
Stream size : 15.5 KiB (0%)
Language : Romanian
Default : No
Forced : No

Text #22
ID : 24
Format : UTF-8
Codec ID : S_TEXT/UTF8
Codec ID/Info : UTF-8 Plain Text
Duration : 1 h 6 min
Bit rate : 31 b/s
Frame rate : 0.132 FPS
Count of elements : 531
Stream size : 15.4 KiB (0%)
Language : Slovak
Default : No
Forced : No

Text #23
ID : 25
Format : UTF-8
Codec ID : S_TEXT/UTF8
Codec ID/Info : UTF-8 Plain Text
Duration : 1 h 6 min
Bit rate : 31 b/s
Frame rate : 0.116 FPS
Count of elements : 466
Stream size : 15.5 KiB (0%)
Language : Swedish
Default : No
Forced : No

Text #24
ID : 26
Format : UTF-8
Codec ID : S_TEXT/UTF8
Codec ID/Info : UTF-8 Plain Text
Duration : 1 h 6 min
Bit rate : 34 b/s
Frame rate : 0.130 FPS
Count of elements : 524
Stream size : 16.9 KiB (0%)
Language : Turkish
Default : No
Forced : No

Text #25
ID : 27
Format : UTF-8
Codec ID : S_TEXT/UTF8
Codec ID/Info : UTF-8 Plain Text
Duration : 1 h 6 min
Bit rate : 32 b/s
Frame rate : 0.136 FPS
Count of elements : 546
Stream size : 15.7 KiB (0%)
Title : Traditional
Language : Chinese (Traditional)
Default : No
Forced : No

Download

Direct download files get automatically deleted after a month or so. Posted on : 05/28/2024

[collapse]

Media Info and Download Links | S01E05-1080p.10bit.WEBRip.6CH.x265.HEVC

General
Format : Matroska
Format version : Version 4
File size : 581 MiB
Duration : 40 min 29 s
Overall bit rate : 2 007 kb/s
Frame rate : 23.976 FPS
Movie name : The.Veil.2024.S01E05.1080p.10bit.WEBRip.6CH.x265.HEVC

Video
ID : 1
Format : HEVC
Format/Info : High Efficiency Video Coding
Format profile : Main 10@L4@Main
Codec ID : V_MPEGH/ISO/HEVC
Duration : 40 min 29 s
Bit rate : 1 805 kb/s
Width : 1 920 pixels
Height : 960 pixels
Display aspect ratio : 2.000
Frame rate mode : Constant
Frame rate : 23.976 (24000/1001) FPS
Color space : YUV
Chroma subsampling : 4:2:0
Bit depth : 10 bits
Bits/(Pixel*Frame) : 0.041
Stream size : 523 MiB (90%)
Default : Yes
Forced : No
Color range : Limited
Color primaries : BT.709
Transfer characteristics : BT.709
Matrix coefficients : BT.709

Audio
ID : 2
Format : AAC LC SBR
Commercial name : HE-AAC
Format settings : Explicit
Codec ID : A_AAC-2
Duration : 40 min 29 s
Bit rate : 198 kb/s
Channel(s) : 6 channels
Channel layout : C L R Ls Rs LFE
Sampling rate : 48.0 kHz
Frame rate : 23.438 FPS (2048 SPF)
Compression mode : Lossy
Delay relative to video : 23 ms
Stream size : 57.4 MiB (10%)
Language : English
Default : Yes
Forced : No

Text #1
ID : 3
Format : UTF-8
Codec ID : S_TEXT/UTF8
Codec ID/Info : UTF-8 Plain Text
Duration : 39 min 58 s
Bit rate : 62 b/s
Frame rate : 0.199 FPS
Count of elements : 477
Stream size : 18.3 KiB (0%)
Language : English
Default : No
Forced : No

Text #2
ID : 4
Format : UTF-8
Codec ID : S_TEXT/UTF8
Codec ID/Info : UTF-8 Plain Text
Duration : 30 min 3 s
Bit rate : 5 b/s
Frame rate : 0.022 FPS
Count of elements : 40
Stream size : 1.27 KiB (0%)
Title : Forced
Language : English
Default : No
Forced : Yes

Text #3
ID : 5
Format : UTF-8
Codec ID : S_TEXT/UTF8
Codec ID/Info : UTF-8 Plain Text
Duration : 40 min 6 s
Bit rate : 68 b/s
Frame rate : 0.227 FPS
Count of elements : 545
Stream size : 20.1 KiB (0%)
Title : SDH
Language : English
Default : Yes
Forced : No

Text #4
ID : 6
Format : UTF-8
Codec ID : S_TEXT/UTF8
Codec ID/Info : UTF-8 Plain Text
Duration : 40 min 2 s
Bit rate : 52 b/s
Frame rate : 0.175 FPS
Count of elements : 420
Stream size : 15.3 KiB (0%)
Language : Czech
Default : No
Forced : No

Text #5
ID : 7
Format : UTF-8
Codec ID : S_TEXT/UTF8
Codec ID/Info : UTF-8 Plain Text
Duration : 40 min 2 s
Bit rate : 53 b/s
Frame rate : 0.159 FPS
Count of elements : 382
Stream size : 15.7 KiB (0%)
Language : Danish
Default : No
Forced : No

Text #6
ID : 8
Format : UTF-8
Codec ID : S_TEXT/UTF8
Codec ID/Info : UTF-8 Plain Text
Duration : 40 min 2 s
Bit rate : 57 b/s
Frame rate : 0.177 FPS
Count of elements : 425
Stream size : 16.8 KiB (0%)
Language : German
Default : No
Forced : No

Text #7
ID : 9
Format : UTF-8
Codec ID : S_TEXT/UTF8
Codec ID/Info : UTF-8 Plain Text
Duration : 40 min 2 s
Bit rate : 88 b/s
Frame rate : 0.181 FPS
Count of elements : 436
Stream size : 26.0 KiB (0%)
Language : Greek
Default : No
Forced : No

Text #8
ID : 10
Format : UTF-8
Codec ID : S_TEXT/UTF8
Codec ID/Info : UTF-8 Plain Text
Duration : 40 min 2 s
Bit rate : 51 b/s
Frame rate : 0.171 FPS
Count of elements : 410
Stream size : 15.2 KiB (0%)
Title : Latin American
Language : Spanish (Latin America)
Default : No
Forced : No

Text #9
ID : 11
Format : UTF-8
Codec ID : S_TEXT/UTF8
Codec ID/Info : UTF-8 Plain Text
Duration : 40 min 2 s
Bit rate : 52 b/s
Frame rate : 0.180 FPS
Count of elements : 433
Stream size : 15.5 KiB (0%)
Language : Spanish (ES)
Default : No
Forced : No

Text #10
ID : 12
Format : UTF-8
Codec ID : S_TEXT/UTF8
Codec ID/Info : UTF-8 Plain Text
Duration : 40 min 2 s
Bit rate : 55 b/s
Frame rate : 0.163 FPS
Count of elements : 391
Stream size : 16.4 KiB (0%)
Language : Finnish
Default : No
Forced : No

Text #11
ID : 13
Format : UTF-8
Codec ID : S_TEXT/UTF8
Codec ID/Info : UTF-8 Plain Text
Duration : 40 min 2 s
Bit rate : 51 b/s
Frame rate : 0.166 FPS
Count of elements : 399
Stream size : 15.2 KiB (0%)
Language : French (FR)
Default : No
Forced : No

Text #12
ID : 14
Format : UTF-8
Codec ID : S_TEXT/UTF8
Codec ID/Info : UTF-8 Plain Text
Duration : 40 min 2 s
Bit rate : 52 b/s
Frame rate : 0.177 FPS
Count of elements : 425
Stream size : 15.4 KiB (0%)
Language : Hungarian
Default : No
Forced : No

Text #13
ID : 15
Format : UTF-8
Codec ID : S_TEXT/UTF8
Codec ID/Info : UTF-8 Plain Text
Duration : 40 min 2 s
Bit rate : 54 b/s
Frame rate : 0.184 FPS
Count of elements : 443
Stream size : 15.9 KiB (0%)
Language : Italian
Default : No
Forced : No

Text #14
ID : 16
Format : UTF-8
Codec ID : S_TEXT/UTF8
Codec ID/Info : UTF-8 Plain Text
Duration : 40 min 2 s
Bit rate : 44 b/s
Frame rate : 0.174 FPS
Count of elements : 419
Stream size : 13.0 KiB (0%)
Language : Japanese
Default : No
Forced : No

Text #15
ID : 17
Format : UTF-8
Codec ID : S_TEXT/UTF8
Codec ID/Info : UTF-8 Plain Text
Duration : 40 min 2 s
Bit rate : 60 b/s
Frame rate : 0.191 FPS
Count of elements : 459
Stream size : 17.7 KiB (0%)
Language : Korean
Default : No
Forced : No

Text #16
ID : 18
Format : UTF-8
Codec ID : S_TEXT/UTF8
Codec ID/Info : UTF-8 Plain Text
Duration : 40 min 2 s
Bit rate : 49 b/s
Frame rate : 0.155 FPS
Count of elements : 373
Stream size : 14.4 KiB (0%)
Language : Dutch
Default : No
Forced : No

Text #17
ID : 19
Format : UTF-8
Codec ID : S_TEXT/UTF8
Codec ID/Info : UTF-8 Plain Text
Duration : 40 min 2 s
Bit rate : 51 b/s
Frame rate : 0.166 FPS
Count of elements : 400
Stream size : 15.1 KiB (0%)
Language : Norwegian
Default : No
Forced : No

Text #18
ID : 20
Format : UTF-8
Codec ID : S_TEXT/UTF8
Codec ID/Info : UTF-8 Plain Text
Duration : 40 min 2 s
Bit rate : 49 b/s
Frame rate : 0.184 FPS
Count of elements : 443
Stream size : 14.6 KiB (0%)
Language : Polish
Default : No
Forced : No

Text #19
ID : 21
Format : UTF-8
Codec ID : S_TEXT/UTF8
Codec ID/Info : UTF-8 Plain Text
Duration : 40 min 2 s
Bit rate : 52 b/s
Frame rate : 0.181 FPS
Count of elements : 436
Stream size : 15.4 KiB (0%)
Title : Brazilian
Language : Portuguese (BR)
Default : No
Forced : No

Text #20
ID : 22
Format : UTF-8
Codec ID : S_TEXT/UTF8
Codec ID/Info : UTF-8 Plain Text
Duration : 40 min 2 s
Bit rate : 56 b/s
Frame rate : 0.185 FPS
Count of elements : 445
Stream size : 16.5 KiB (0%)
Language : Portuguese (PT)
Default : No
Forced : No

Text #21
ID : 23
Format : UTF-8
Codec ID : S_TEXT/UTF8
Codec ID/Info : UTF-8 Plain Text
Duration : 40 min 2 s
Bit rate : 51 b/s
Frame rate : 0.152 FPS
Count of elements : 364
Stream size : 15.2 KiB (0%)
Language : Romanian
Default : No
Forced : No

Text #22
ID : 24
Format : UTF-8
Codec ID : S_TEXT/UTF8
Codec ID/Info : UTF-8 Plain Text
Duration : 40 min 2 s
Bit rate : 51 b/s
Frame rate : 0.184 FPS
Count of elements : 442
Stream size : 15.0 KiB (0%)
Language : Slovak
Default : No
Forced : No

Text #23
ID : 25
Format : UTF-8
Codec ID : S_TEXT/UTF8
Codec ID/Info : UTF-8 Plain Text
Duration : 40 min 2 s
Bit rate : 53 b/s
Frame rate : 0.157 FPS
Count of elements : 378
Stream size : 15.5 KiB (0%)
Language : Swedish
Default : No
Forced : No

Text #24
ID : 26
Format : UTF-8
Codec ID : S_TEXT/UTF8
Codec ID/Info : UTF-8 Plain Text
Duration : 40 min 2 s
Bit rate : 56 b/s
Frame rate : 0.185 FPS
Count of elements : 445
Stream size : 16.7 KiB (0%)
Language : Turkish
Default : No
Forced : No

Text #25
ID : 27
Format : UTF-8
Codec ID : S_TEXT/UTF8
Codec ID/Info : UTF-8 Plain Text
Duration : 40 min 2 s
Bit rate : 51 b/s
Frame rate : 0.191 FPS
Count of elements : 458
Stream size : 15.0 KiB (0%)
Title : Traditional
Language : Chinese (Traditional)
Default : No
Forced : No

Download

Direct download files get automatically deleted after a month or so. Posted on : 05/21/2024

[collapse]
Media Info and Download Links | S01E05-720p.10bit.WEBRip.2CH.x265.HEVC

General
Format : Matroska
Format version : Version 4
File size : 220 MiB
Duration : 40 min 29 s
Overall bit rate : 759 kb/s
Frame rate : 23.976 FPS
Movie name : The.Veil.2024.S01E05.720p.10bit.WEBRip.2CH.x265.HEVC

Video
ID : 1
Format : HEVC
Format/Info : High Efficiency Video Coding
Format profile : Main [email protected]@Main
Codec ID : V_MPEGH/ISO/HEVC
Duration : 40 min 29 s
Bit rate : 688 kb/s
Width : 1 280 pixels
Height : 640 pixels
Display aspect ratio : 2.000
Frame rate mode : Constant
Frame rate : 23.976 (24000/1001) FPS
Color space : YUV
Chroma subsampling : 4:2:0
Bit depth : 10 bits
Bits/(Pixel*Frame) : 0.035
Stream size : 199 MiB (91%)
Default : Yes
Forced : No
Color range : Limited
Color primaries : BT.709
Transfer characteristics : BT.709
Matrix coefficients : BT.709

Audio
ID : 2
Format : AAC LC SBR
Commercial name : HE-AAC
Format settings : Explicit
Codec ID : A_AAC-2
Duration : 40 min 29 s
Bit rate : 66.2 kb/s
Channel(s) : 2 channels
Channel layout : L R
Sampling rate : 48.0 kHz
Frame rate : 23.438 FPS (2048 SPF)
Compression mode : Lossy
Delay relative to video : 23 ms
Stream size : 19.4 MiB (9%)
Language : English
Default : Yes
Forced : No

Text #1
ID : 3
Format : UTF-8
Codec ID : S_TEXT/UTF8
Codec ID/Info : UTF-8 Plain Text
Duration : 39 min 58 s
Bit rate : 62 b/s
Frame rate : 0.199 FPS
Count of elements : 477
Stream size : 18.3 KiB (0%)
Language : English
Default : No
Forced : No

Text #2
ID : 4
Format : UTF-8
Codec ID : S_TEXT/UTF8
Codec ID/Info : UTF-8 Plain Text
Duration : 30 min 3 s
Bit rate : 5 b/s
Frame rate : 0.022 FPS
Count of elements : 40
Stream size : 1.27 KiB (0%)
Title : Forced
Language : English
Default : No
Forced : Yes

Text #3
ID : 5
Format : UTF-8
Codec ID : S_TEXT/UTF8
Codec ID/Info : UTF-8 Plain Text
Duration : 40 min 6 s
Bit rate : 68 b/s
Frame rate : 0.227 FPS
Count of elements : 545
Stream size : 20.1 KiB (0%)
Title : SDH
Language : English
Default : Yes
Forced : No

Text #4
ID : 6
Format : UTF-8
Codec ID : S_TEXT/UTF8
Codec ID/Info : UTF-8 Plain Text
Duration : 40 min 2 s
Bit rate : 52 b/s
Frame rate : 0.175 FPS
Count of elements : 420
Stream size : 15.3 KiB (0%)
Language : Czech
Default : No
Forced : No

Text #5
ID : 7
Format : UTF-8
Codec ID : S_TEXT/UTF8
Codec ID/Info : UTF-8 Plain Text
Duration : 40 min 2 s
Bit rate : 53 b/s
Frame rate : 0.159 FPS
Count of elements : 382
Stream size : 15.7 KiB (0%)
Language : Danish
Default : No
Forced : No

Text #6
ID : 8
Format : UTF-8
Codec ID : S_TEXT/UTF8
Codec ID/Info : UTF-8 Plain Text
Duration : 40 min 2 s
Bit rate : 57 b/s
Frame rate : 0.177 FPS
Count of elements : 425
Stream size : 16.8 KiB (0%)
Language : German
Default : No
Forced : No

Text #7
ID : 9
Format : UTF-8
Codec ID : S_TEXT/UTF8
Codec ID/Info : UTF-8 Plain Text
Duration : 40 min 2 s
Bit rate : 88 b/s
Frame rate : 0.181 FPS
Count of elements : 436
Stream size : 26.0 KiB (0%)
Language : Greek
Default : No
Forced : No

Text #8
ID : 10
Format : UTF-8
Codec ID : S_TEXT/UTF8
Codec ID/Info : UTF-8 Plain Text
Duration : 40 min 2 s
Bit rate : 51 b/s
Frame rate : 0.171 FPS
Count of elements : 410
Stream size : 15.2 KiB (0%)
Title : Latin American
Language : Spanish (Latin America)
Default : No
Forced : No

Text #9
ID : 11
Format : UTF-8
Codec ID : S_TEXT/UTF8
Codec ID/Info : UTF-8 Plain Text
Duration : 40 min 2 s
Bit rate : 52 b/s
Frame rate : 0.180 FPS
Count of elements : 433
Stream size : 15.5 KiB (0%)
Language : Spanish (ES)
Default : No
Forced : No

Text #10
ID : 12
Format : UTF-8
Codec ID : S_TEXT/UTF8
Codec ID/Info : UTF-8 Plain Text
Duration : 40 min 2 s
Bit rate : 55 b/s
Frame rate : 0.163 FPS
Count of elements : 391
Stream size : 16.4 KiB (0%)
Language : Finnish
Default : No
Forced : No

Text #11
ID : 13
Format : UTF-8
Codec ID : S_TEXT/UTF8
Codec ID/Info : UTF-8 Plain Text
Duration : 40 min 2 s
Bit rate : 51 b/s
Frame rate : 0.166 FPS
Count of elements : 399
Stream size : 15.2 KiB (0%)
Language : French (FR)
Default : No
Forced : No

Text #12
ID : 14
Format : UTF-8
Codec ID : S_TEXT/UTF8
Codec ID/Info : UTF-8 Plain Text
Duration : 40 min 2 s
Bit rate : 52 b/s
Frame rate : 0.177 FPS
Count of elements : 425
Stream size : 15.4 KiB (0%)
Language : Hungarian
Default : No
Forced : No

Text #13
ID : 15
Format : UTF-8
Codec ID : S_TEXT/UTF8
Codec ID/Info : UTF-8 Plain Text
Duration : 40 min 2 s
Bit rate : 54 b/s
Frame rate : 0.184 FPS
Count of elements : 443
Stream size : 15.9 KiB (0%)
Language : Italian
Default : No
Forced : No

Text #14
ID : 16
Format : UTF-8
Codec ID : S_TEXT/UTF8
Codec ID/Info : UTF-8 Plain Text
Duration : 40 min 2 s
Bit rate : 44 b/s
Frame rate : 0.174 FPS
Count of elements : 419
Stream size : 13.0 KiB (0%)
Language : Japanese
Default : No
Forced : No

Text #15
ID : 17
Format : UTF-8
Codec ID : S_TEXT/UTF8
Codec ID/Info : UTF-8 Plain Text
Duration : 40 min 2 s
Bit rate : 60 b/s
Frame rate : 0.191 FPS
Count of elements : 459
Stream size : 17.7 KiB (0%)
Language : Korean
Default : No
Forced : No

Text #16
ID : 18
Format : UTF-8
Codec ID : S_TEXT/UTF8
Codec ID/Info : UTF-8 Plain Text
Duration : 40 min 2 s
Bit rate : 49 b/s
Frame rate : 0.155 FPS
Count of elements : 373
Stream size : 14.4 KiB (0%)
Language : Dutch
Default : No
Forced : No

Text #17
ID : 19
Format : UTF-8
Codec ID : S_TEXT/UTF8
Codec ID/Info : UTF-8 Plain Text
Duration : 40 min 2 s
Bit rate : 51 b/s
Frame rate : 0.166 FPS
Count of elements : 400
Stream size : 15.1 KiB (0%)
Language : Norwegian
Default : No
Forced : No

Text #18
ID : 20
Format : UTF-8
Codec ID : S_TEXT/UTF8
Codec ID/Info : UTF-8 Plain Text
Duration : 40 min 2 s
Bit rate : 49 b/s
Frame rate : 0.184 FPS
Count of elements : 443
Stream size : 14.6 KiB (0%)
Language : Polish
Default : No
Forced : No

Text #19
ID : 21
Format : UTF-8
Codec ID : S_TEXT/UTF8
Codec ID/Info : UTF-8 Plain Text
Duration : 40 min 2 s
Bit rate : 52 b/s
Frame rate : 0.181 FPS
Count of elements : 436
Stream size : 15.4 KiB (0%)
Title : Brazilian
Language : Portuguese (BR)
Default : No
Forced : No

Text #20
ID : 22
Format : UTF-8
Codec ID : S_TEXT/UTF8
Codec ID/Info : UTF-8 Plain Text
Duration : 40 min 2 s
Bit rate : 56 b/s
Frame rate : 0.185 FPS
Count of elements : 445
Stream size : 16.5 KiB (0%)
Language : Portuguese (PT)
Default : No
Forced : No

Text #21
ID : 23
Format : UTF-8
Codec ID : S_TEXT/UTF8
Codec ID/Info : UTF-8 Plain Text
Duration : 40 min 2 s
Bit rate : 51 b/s
Frame rate : 0.152 FPS
Count of elements : 364
Stream size : 15.2 KiB (0%)
Language : Romanian
Default : No
Forced : No

Text #22
ID : 24
Format : UTF-8
Codec ID : S_TEXT/UTF8
Codec ID/Info : UTF-8 Plain Text
Duration : 40 min 2 s
Bit rate : 51 b/s
Frame rate : 0.184 FPS
Count of elements : 442
Stream size : 15.0 KiB (0%)
Language : Slovak
Default : No
Forced : No

Text #23
ID : 25
Format : UTF-8
Codec ID : S_TEXT/UTF8
Codec ID/Info : UTF-8 Plain Text
Duration : 40 min 2 s
Bit rate : 53 b/s
Frame rate : 0.157 FPS
Count of elements : 378
Stream size : 15.5 KiB (0%)
Language : Swedish
Default : No
Forced : No

Text #24
ID : 26
Format : UTF-8
Codec ID : S_TEXT/UTF8
Codec ID/Info : UTF-8 Plain Text
Duration : 40 min 2 s
Bit rate : 56 b/s
Frame rate : 0.185 FPS
Count of elements : 445
Stream size : 16.7 KiB (0%)
Language : Turkish
Default : No
Forced : No

Text #25
ID : 27
Format : UTF-8
Codec ID : S_TEXT/UTF8
Codec ID/Info : UTF-8 Plain Text
Duration : 40 min 2 s
Bit rate : 51 b/s
Frame rate : 0.191 FPS
Count of elements : 458
Stream size : 15.0 KiB (0%)
Title : Traditional
Language : Chinese (Traditional)
Default : No
Forced : No

Download

Direct download files get automatically deleted after a month or so. Posted on : 05/21/2024

[collapse]

Media Info and Download Links | S01E04-1080p.10bit.WEBRip.6CH.x265.HEVC

General
Format : Matroska
Format version : Version 4
File size : 531 MiB
Duration : 41 min 14 s
Overall bit rate : 1 800 kb/s
Frame rate : 23.976 FPS
Movie name : The.Veil.2024.S01E04.1080p.10bit.WEBRip.6CH.x265.HEVC

Video
ID : 1
Format : HEVC
Format/Info : High Efficiency Video Coding
Format profile : Main 10@L4@Main
Codec ID : V_MPEGH/ISO/HEVC
Duration : 41 min 14 s
Bit rate : 1 597 kb/s
Width : 1 920 pixels
Height : 960 pixels
Display aspect ratio : 2.000
Frame rate mode : Constant
Frame rate : 23.976 (24000/1001) FPS
Color space : YUV
Chroma subsampling : 4:2:0
Bit depth : 10 bits
Bits/(Pixel*Frame) : 0.036
Stream size : 471 MiB (89%)
Default : Yes
Forced : No
Color range : Limited
Color primaries : BT.709
Transfer characteristics : BT.709
Matrix coefficients : BT.709

Audio
ID : 2
Format : AAC LC SBR
Commercial name : HE-AAC
Format settings : Explicit
Codec ID : A_AAC-2
Duration : 41 min 14 s
Bit rate : 200 kb/s
Channel(s) : 6 channels
Channel layout : C L R Ls Rs LFE
Sampling rate : 48.0 kHz
Frame rate : 23.438 FPS (2048 SPF)
Compression mode : Lossy
Delay relative to video : 23 ms
Stream size : 58.9 MiB (11%)
Language : English
Default : Yes
Forced : No

Text #1
ID : 3
Format : UTF-8
Codec ID : S_TEXT/UTF8
Codec ID/Info : UTF-8 Plain Text
Duration : 37 min 2 s
Bit rate : 53 b/s
Frame rate : 0.181 FPS
Count of elements : 402
Stream size : 14.4 KiB (0%)
Language : English
Default : No
Forced : No

Text #2
ID : 4
Format : UTF-8
Codec ID : S_TEXT/UTF8
Codec ID/Info : UTF-8 Plain Text
Duration : 25 min 0 s
Bit rate : 21 b/s
Frame rate : 0.068 FPS
Count of elements : 102
Stream size : 3.85 KiB (0%)
Title : Forced
Language : English
Default : No
Forced : Yes

Text #3
ID : 5
Format : UTF-8
Codec ID : S_TEXT/UTF8
Codec ID/Info : UTF-8 Plain Text
Duration : 39 min 17 s
Bit rate : 56 b/s
Frame rate : 0.200 FPS
Count of elements : 472
Stream size : 16.3 KiB (0%)
Title : SDH
Language : English
Default : Yes
Forced : No

Text #4
ID : 6
Format : UTF-8
Codec ID : S_TEXT/UTF8
Codec ID/Info : UTF-8 Plain Text
Duration : 40 min 47 s
Bit rate : 41 b/s
Frame rate : 0.148 FPS
Count of elements : 362
Stream size : 12.3 KiB (0%)
Language : Czech
Default : No
Forced : No

Text #5
ID : 7
Format : UTF-8
Codec ID : S_TEXT/UTF8
Codec ID/Info : UTF-8 Plain Text
Duration : 40 min 47 s
Bit rate : 43 b/s
Frame rate : 0.135 FPS
Count of elements : 330
Stream size : 12.9 KiB (0%)
Language : Danish
Default : No
Forced : No

Text #6
ID : 8
Format : UTF-8
Codec ID : S_TEXT/UTF8
Codec ID/Info : UTF-8 Plain Text
Duration : 40 min 47 s
Bit rate : 46 b/s
Frame rate : 0.152 FPS
Count of elements : 372
Stream size : 13.9 KiB (0%)
Language : German
Default : No
Forced : No

Text #7
ID : 9
Format : UTF-8
Codec ID : S_TEXT/UTF8
Codec ID/Info : UTF-8 Plain Text
Duration : 40 min 47 s
Bit rate : 72 b/s
Frame rate : 0.155 FPS
Count of elements : 379
Stream size : 21.8 KiB (0%)
Language : Greek
Default : No
Forced : No

Text #8
ID : 10
Format : UTF-8
Codec ID : S_TEXT/UTF8
Codec ID/Info : UTF-8 Plain Text
Duration : 40 min 47 s
Bit rate : 42 b/s
Frame rate : 0.147 FPS
Count of elements : 360
Stream size : 12.8 KiB (0%)
Title : Latin American
Language : Spanish (Latin America)
Default : No
Forced : No

Text #9
ID : 11
Format : UTF-8
Codec ID : S_TEXT/UTF8
Codec ID/Info : UTF-8 Plain Text
Duration : 40 min 47 s
Bit rate : 42 b/s
Frame rate : 0.153 FPS
Count of elements : 375
Stream size : 12.7 KiB (0%)
Language : Spanish (ES)
Default : No
Forced : No

Text #10
ID : 12
Format : UTF-8
Codec ID : S_TEXT/UTF8
Codec ID/Info : UTF-8 Plain Text
Duration : 40 min 47 s
Bit rate : 44 b/s
Frame rate : 0.145 FPS
Count of elements : 356
Stream size : 13.3 KiB (0%)
Language : Finnish
Default : No
Forced : No

Text #11
ID : 13
Format : UTF-8
Codec ID : S_TEXT/UTF8
Codec ID/Info : UTF-8 Plain Text
Duration : 40 min 47 s
Bit rate : 33 b/s
Frame rate : 0.111 FPS
Count of elements : 271
Stream size : 9.86 KiB (0%)
Language : French (FR)
Default : No
Forced : No

Text #12
ID : 14
Format : UTF-8
Codec ID : S_TEXT/UTF8
Codec ID/Info : UTF-8 Plain Text
Duration : 40 min 47 s
Bit rate : 42 b/s
Frame rate : 0.151 FPS
Count of elements : 370
Stream size : 12.8 KiB (0%)
Language : Hungarian
Default : No
Forced : No

Text #13
ID : 15
Format : UTF-8
Codec ID : S_TEXT/UTF8
Codec ID/Info : UTF-8 Plain Text
Duration : 40 min 47 s
Bit rate : 43 b/s
Frame rate : 0.157 FPS
Count of elements : 384
Stream size : 13.0 KiB (0%)
Language : Italian
Default : No
Forced : No

Text #14
ID : 16
Format : UTF-8
Codec ID : S_TEXT/UTF8
Codec ID/Info : UTF-8 Plain Text
Duration : 40 min 47 s
Bit rate : 36 b/s
Frame rate : 0.152 FPS
Count of elements : 373
Stream size : 11.0 KiB (0%)
Language : Japanese
Default : No
Forced : No

Text #15
ID : 17
Format : UTF-8
Codec ID : S_TEXT/UTF8
Codec ID/Info : UTF-8 Plain Text
Duration : 40 min 47 s
Bit rate : 49 b/s
Frame rate : 0.161 FPS
Count of elements : 393
Stream size : 14.7 KiB (0%)
Language : Korean
Default : No
Forced : No

Text #16
ID : 18
Format : UTF-8
Codec ID : S_TEXT/UTF8
Codec ID/Info : UTF-8 Plain Text
Duration : 40 min 47 s
Bit rate : 38 b/s
Frame rate : 0.131 FPS
Count of elements : 320
Stream size : 11.6 KiB (0%)
Language : Dutch
Default : No
Forced : No

Text #17
ID : 19
Format : UTF-8
Codec ID : S_TEXT/UTF8
Codec ID/Info : UTF-8 Plain Text
Duration : 40 min 47 s
Bit rate : 42 b/s
Frame rate : 0.143 FPS
Count of elements : 349
Stream size : 12.6 KiB (0%)
Language : Norwegian
Default : No
Forced : No

Text #18
ID : 20
Format : UTF-8
Codec ID : S_TEXT/UTF8
Codec ID/Info : UTF-8 Plain Text
Duration : 40 min 47 s
Bit rate : 41 b/s
Frame rate : 0.158 FPS
Count of elements : 386
Stream size : 12.4 KiB (0%)
Language : Polish
Default : No
Forced : No

Text #19
ID : 21
Format : UTF-8
Codec ID : S_TEXT/UTF8
Codec ID/Info : UTF-8 Plain Text
Duration : 40 min 47 s
Bit rate : 42 b/s
Frame rate : 0.156 FPS
Count of elements : 382
Stream size : 12.8 KiB (0%)
Title : Brazilian
Language : Portuguese (BR)
Default : No
Forced : No

Text #20
ID : 22
Format : UTF-8
Codec ID : S_TEXT/UTF8
Codec ID/Info : UTF-8 Plain Text
Duration : 40 min 47 s
Bit rate : 46 b/s
Frame rate : 0.160 FPS
Count of elements : 391
Stream size : 13.8 KiB (0%)
Language : Portuguese (PT)
Default : No
Forced : No

Text #21
ID : 23
Format : UTF-8
Codec ID : S_TEXT/UTF8
Codec ID/Info : UTF-8 Plain Text
Duration : 40 min 47 s
Bit rate : 43 b/s
Frame rate : 0.127 FPS
Count of elements : 312
Stream size : 12.9 KiB (0%)
Language : Romanian
Default : No
Forced : No

Text #22
ID : 24
Format : UTF-8
Codec ID : S_TEXT/UTF8
Codec ID/Info : UTF-8 Plain Text
Duration : 40 min 47 s
Bit rate : 42 b/s
Frame rate : 0.159 FPS
Count of elements : 390
Stream size : 12.8 KiB (0%)
Language : Slovak
Default : No
Forced : No

Text #23
ID : 25
Format : UTF-8
Codec ID : S_TEXT/UTF8
Codec ID/Info : UTF-8 Plain Text
Duration : 40 min 47 s
Bit rate : 43 b/s
Frame rate : 0.136 FPS
Count of elements : 333
Stream size : 13.0 KiB (0%)
Language : Swedish
Default : No
Forced : No

Text #24
ID : 26
Format : UTF-8
Codec ID : S_TEXT/UTF8
Codec ID/Info : UTF-8 Plain Text
Duration : 40 min 47 s
Bit rate : 45 b/s
Frame rate : 0.154 FPS
Count of elements : 378
Stream size : 13.5 KiB (0%)
Language : Turkish
Default : No
Forced : No

Text #25
ID : 27
Format : UTF-8
Codec ID : S_TEXT/UTF8
Codec ID/Info : UTF-8 Plain Text
Duration : 40 min 47 s
Bit rate : 41 b/s
Frame rate : 0.160 FPS
Count of elements : 392
Stream size : 12.4 KiB (0%)
Title : Traditional
Language : Chinese (Traditional)
Default : No
Forced : No

Download

Direct download files get automatically deleted after a month or so. Posted on : 05/14/2024

[collapse]
Media Info and Download Links | S01E04-720p.10bit.WEBRip.2CH.x265.HEVC

General
Format : Matroska
Format version : Version 4
File size : 204 MiB
Duration : 41 min 14 s
Overall bit rate : 690 kb/s
Frame rate : 23.976 FPS
Movie name : The.Veil.2024.S01E04.720p.10bit.WEBRip.2CH.x265.HEVC

Video
ID : 1
Format : HEVC
Format/Info : High Efficiency Video Coding
Format profile : Main [email protected]@Main
Codec ID : V_MPEGH/ISO/HEVC
Duration : 41 min 14 s
Bit rate : 618 kb/s
Width : 1 280 pixels
Height : 640 pixels
Display aspect ratio : 2.000
Frame rate mode : Constant
Frame rate : 23.976 (24000/1001) FPS
Color space : YUV
Chroma subsampling : 4:2:0
Bit depth : 10 bits
Bits/(Pixel*Frame) : 0.031
Stream size : 182 MiB (90%)
Default : Yes
Forced : No
Color range : Limited
Color primaries : BT.709
Transfer characteristics : BT.709
Matrix coefficients : BT.709

Audio
ID : 2
Format : AAC LC SBR
Commercial name : HE-AAC
Format settings : Explicit
Codec ID : A_AAC-2
Duration : 41 min 14 s
Bit rate : 68.0 kb/s
Channel(s) : 2 channels
Channel layout : L R
Sampling rate : 48.0 kHz
Frame rate : 23.438 FPS (2048 SPF)
Compression mode : Lossy
Delay relative to video : 23 ms
Stream size : 20.1 MiB (10%)
Language : English
Default : Yes
Forced : No

Text #1
ID : 3
Format : UTF-8
Codec ID : S_TEXT/UTF8
Codec ID/Info : UTF-8 Plain Text
Duration : 37 min 2 s
Bit rate : 53 b/s
Frame rate : 0.181 FPS
Count of elements : 402
Stream size : 14.4 KiB (0%)
Language : English
Default : No
Forced : No

Text #2
ID : 4
Format : UTF-8
Codec ID : S_TEXT/UTF8
Codec ID/Info : UTF-8 Plain Text
Duration : 25 min 0 s
Bit rate : 21 b/s
Frame rate : 0.068 FPS
Count of elements : 102
Stream size : 3.85 KiB (0%)
Title : Forced
Language : English
Default : No
Forced : Yes

Text #3
ID : 5
Format : UTF-8
Codec ID : S_TEXT/UTF8
Codec ID/Info : UTF-8 Plain Text
Duration : 39 min 17 s
Bit rate : 56 b/s
Frame rate : 0.200 FPS
Count of elements : 472
Stream size : 16.3 KiB (0%)
Title : SDH
Language : English
Default : Yes
Forced : No

Text #4
ID : 6
Format : UTF-8
Codec ID : S_TEXT/UTF8
Codec ID/Info : UTF-8 Plain Text
Duration : 40 min 47 s
Bit rate : 41 b/s
Frame rate : 0.148 FPS
Count of elements : 362
Stream size : 12.3 KiB (0%)
Language : Czech
Default : No
Forced : No

Text #5
ID : 7
Format : UTF-8
Codec ID : S_TEXT/UTF8
Codec ID/Info : UTF-8 Plain Text
Duration : 40 min 47 s
Bit rate : 43 b/s
Frame rate : 0.135 FPS
Count of elements : 330
Stream size : 12.9 KiB (0%)
Language : Danish
Default : No
Forced : No

Text #6
ID : 8
Format : UTF-8
Codec ID : S_TEXT/UTF8
Codec ID/Info : UTF-8 Plain Text
Duration : 40 min 47 s
Bit rate : 46 b/s
Frame rate : 0.152 FPS
Count of elements : 372
Stream size : 13.9 KiB (0%)
Language : German
Default : No
Forced : No

Text #7
ID : 9
Format : UTF-8
Codec ID : S_TEXT/UTF8
Codec ID/Info : UTF-8 Plain Text
Duration : 40 min 47 s
Bit rate : 72 b/s
Frame rate : 0.155 FPS
Count of elements : 379
Stream size : 21.8 KiB (0%)
Language : Greek
Default : No
Forced : No

Text #8
ID : 10
Format : UTF-8
Codec ID : S_TEXT/UTF8
Codec ID/Info : UTF-8 Plain Text
Duration : 40 min 47 s
Bit rate : 42 b/s
Frame rate : 0.147 FPS
Count of elements : 360
Stream size : 12.8 KiB (0%)
Title : Latin American
Language : Spanish (Latin America)
Default : No
Forced : No

Text #9
ID : 11
Format : UTF-8
Codec ID : S_TEXT/UTF8
Codec ID/Info : UTF-8 Plain Text
Duration : 40 min 47 s
Bit rate : 42 b/s
Frame rate : 0.153 FPS
Count of elements : 375
Stream size : 12.7 KiB (0%)
Language : Spanish (ES)
Default : No
Forced : No

Text #10
ID : 12
Format : UTF-8
Codec ID : S_TEXT/UTF8
Codec ID/Info : UTF-8 Plain Text
Duration : 40 min 47 s
Bit rate : 44 b/s
Frame rate : 0.145 FPS
Count of elements : 356
Stream size : 13.3 KiB (0%)
Language : Finnish
Default : No
Forced : No

Text #11
ID : 13
Format : UTF-8
Codec ID : S_TEXT/UTF8
Codec ID/Info : UTF-8 Plain Text
Duration : 40 min 47 s
Bit rate : 33 b/s
Frame rate : 0.111 FPS
Count of elements : 271
Stream size : 9.86 KiB (0%)
Language : French (FR)
Default : No
Forced : No

Text #12
ID : 14
Format : UTF-8
Codec ID : S_TEXT/UTF8
Codec ID/Info : UTF-8 Plain Text
Duration : 40 min 47 s
Bit rate : 42 b/s
Frame rate : 0.151 FPS
Count of elements : 370
Stream size : 12.8 KiB (0%)
Language : Hungarian
Default : No
Forced : No

Text #13
ID : 15
Format : UTF-8
Codec ID : S_TEXT/UTF8
Codec ID/Info : UTF-8 Plain Text
Duration : 40 min 47 s
Bit rate : 43 b/s
Frame rate : 0.157 FPS
Count of elements : 384
Stream size : 13.0 KiB (0%)
Language : Italian
Default : No
Forced : No

Text #14
ID : 16
Format : UTF-8
Codec ID : S_TEXT/UTF8
Codec ID/Info : UTF-8 Plain Text
Duration : 40 min 47 s
Bit rate : 36 b/s
Frame rate : 0.152 FPS
Count of elements : 373
Stream size : 11.0 KiB (0%)
Language : Japanese
Default : No
Forced : No

Text #15
ID : 17
Format : UTF-8
Codec ID : S_TEXT/UTF8
Codec ID/Info : UTF-8 Plain Text
Duration : 40 min 47 s
Bit rate : 49 b/s
Frame rate : 0.161 FPS
Count of elements : 393
Stream size : 14.7 KiB (0%)
Language : Korean
Default : No
Forced : No

Text #16
ID : 18
Format : UTF-8
Codec ID : S_TEXT/UTF8
Codec ID/Info : UTF-8 Plain Text
Duration : 40 min 47 s
Bit rate : 38 b/s
Frame rate : 0.131 FPS
Count of elements : 320
Stream size : 11.6 KiB (0%)
Language : Dutch
Default : No
Forced : No

Text #17
ID : 19
Format : UTF-8
Codec ID : S_TEXT/UTF8
Codec ID/Info : UTF-8 Plain Text
Duration : 40 min 47 s
Bit rate : 42 b/s
Frame rate : 0.143 FPS
Count of elements : 349
Stream size : 12.6 KiB (0%)
Language : Norwegian
Default : No
Forced : No

Text #18
ID : 20
Format : UTF-8
Codec ID : S_TEXT/UTF8
Codec ID/Info : UTF-8 Plain Text
Duration : 40 min 47 s
Bit rate : 41 b/s
Frame rate : 0.158 FPS
Count of elements : 386
Stream size : 12.4 KiB (0%)
Language : Polish
Default : No
Forced : No

Text #19
ID : 21
Format : UTF-8
Codec ID : S_TEXT/UTF8
Codec ID/Info : UTF-8 Plain Text
Duration : 40 min 47 s
Bit rate : 42 b/s
Frame rate : 0.156 FPS
Count of elements : 382
Stream size : 12.8 KiB (0%)
Title : Brazilian
Language : Portuguese (BR)
Default : No
Forced : No

Text #20
ID : 22
Format : UTF-8
Codec ID : S_TEXT/UTF8
Codec ID/Info : UTF-8 Plain Text
Duration : 40 min 47 s
Bit rate : 46 b/s
Frame rate : 0.160 FPS
Count of elements : 391
Stream size : 13.8 KiB (0%)
Language : Portuguese (PT)
Default : No
Forced : No

Text #21
ID : 23
Format : UTF-8
Codec ID : S_TEXT/UTF8
Codec ID/Info : UTF-8 Plain Text
Duration : 40 min 47 s
Bit rate : 43 b/s
Frame rate : 0.127 FPS
Count of elements : 312
Stream size : 12.9 KiB (0%)
Language : Romanian
Default : No
Forced : No

Text #22
ID : 24
Format : UTF-8
Codec ID : S_TEXT/UTF8
Codec ID/Info : UTF-8 Plain Text
Duration : 40 min 47 s
Bit rate : 42 b/s
Frame rate : 0.159 FPS
Count of elements : 390
Stream size : 12.8 KiB (0%)
Language : Slovak
Default : No
Forced : No

Text #23
ID : 25
Format : UTF-8
Codec ID : S_TEXT/UTF8
Codec ID/Info : UTF-8 Plain Text
Duration : 40 min 47 s
Bit rate : 43 b/s
Frame rate : 0.136 FPS
Count of elements : 333
Stream size : 13.0 KiB (0%)
Language : Swedish
Default : No
Forced : No

Text #24
ID : 26
Format : UTF-8
Codec ID : S_TEXT/UTF8
Codec ID/Info : UTF-8 Plain Text
Duration : 40 min 47 s
Bit rate : 45 b/s
Frame rate : 0.154 FPS
Count of elements : 378
Stream size : 13.5 KiB (0%)
Language : Turkish
Default : No
Forced : No

Text #25
ID : 27
Format : UTF-8
Codec ID : S_TEXT/UTF8
Codec ID/Info : UTF-8 Plain Text
Duration : 40 min 47 s
Bit rate : 41 b/s
Frame rate : 0.160 FPS
Count of elements : 392
Stream size : 12.4 KiB (0%)
Title : Traditional
Language : Chinese (Traditional)
Default : No
Forced : No

Download

Direct download files get automatically deleted after a month or so. Posted on : 05/14/2024

[collapse]

Media Info and Download Links | S01E03-1080p.10bit.WEBRip.6CH.x265.HEVC

General
Format : Matroska
Format version : Version 4
File size : 555 MiB
Duration : 45 min 38 s
Overall bit rate : 1 700 kb/s
Frame rate : 23.976 FPS
Movie name : The.Veil.2024.S01E03.1080p.10bit.WEBRip.6CH.x265.HEVC

Video
ID : 1
Format : HEVC
Format/Info : High Efficiency Video Coding
Format profile : Main 10@L4@Main
Codec ID : V_MPEGH/ISO/HEVC
Duration : 45 min 38 s
Bit rate : 1 494 kb/s
Width : 1 920 pixels
Height : 960 pixels
Display aspect ratio : 2.000
Frame rate mode : Constant
Frame rate : 23.976 (24000/1001) FPS
Color space : YUV
Chroma subsampling : 4:2:0
Bit depth : 10 bits
Bits/(Pixel*Frame) : 0.034
Stream size : 488 MiB (88%)
Default : Yes
Forced : No

Audio
ID : 2
Format : AAC LC SBR
Commercial name : HE-AAC
Format settings : Explicit
Codec ID : A_AAC-2
Duration : 45 min 38 s
Bit rate : 204 kb/s
Channel(s) : 6 channels
Channel layout : C L R Ls Rs LFE
Sampling rate : 48.0 kHz
Frame rate : 23.438 FPS (2048 SPF)
Compression mode : Lossy
Delay relative to video : 23 ms
Stream size : 66.5 MiB (12%)
Language : English
Default : Yes
Forced : No

Text
ID : 3
Format : UTF-8
Codec ID : S_TEXT/UTF8
Codec ID/Info : UTF-8 Plain Text
Duration : 45 min 13 s
Bit rate : 49 b/s
Frame rate : 0.196 FPS
Count of elements : 533
Stream size : 16.5 KiB (0%)
Language : English
Default : Yes
Forced : No

Download

Direct download files get automatically deleted after a month or so. Posted on : 05/07/2024

[collapse]
Media Info and Download Links | S01E03-720p.10bit.WEBRip.2CH.x265.HEVC

General
Format : Matroska
Format version : Version 4
File size : 229 MiB
Duration : 45 min 38 s
Overall bit rate : 701 kb/s
Frame rate : 23.976 FPS
Movie name : The.Veil.2024.S01E03.720p.10bit.WEBRip.2CH.x265.HEVC

Video
ID : 1
Format : HEVC
Format/Info : High Efficiency Video Coding
Format profile : Main [email protected]@Main
Codec ID : V_MPEGH/ISO/HEVC
Duration : 45 min 38 s
Bit rate : 631 kb/s
Width : 1 280 pixels
Height : 640 pixels
Display aspect ratio : 2.000
Frame rate mode : Constant
Frame rate : 23.976 (24000/1001) FPS
Color space : YUV
Chroma subsampling : 4:2:0
Bit depth : 10 bits
Bits/(Pixel*Frame) : 0.032
Stream size : 206 MiB (90%)
Default : Yes
Forced : No

Audio
ID : 2
Format : AAC LC SBR
Commercial name : HE-AAC
Format settings : Explicit
Codec ID : A_AAC-2
Duration : 45 min 38 s
Bit rate : 68.5 kb/s
Channel(s) : 2 channels
Channel layout : L R
Sampling rate : 48.0 kHz
Frame rate : 23.438 FPS (2048 SPF)
Compression mode : Lossy
Delay relative to video : 23 ms
Stream size : 22.4 MiB (10%)
Language : English
Default : Yes
Forced : No

Text
ID : 3
Format : UTF-8
Codec ID : S_TEXT/UTF8
Codec ID/Info : UTF-8 Plain Text
Duration : 45 min 13 s
Bit rate : 49 b/s
Frame rate : 0.196 FPS
Count of elements : 533
Stream size : 16.5 KiB (0%)
Language : English
Default : Yes
Forced : No

Download

Direct download files get automatically deleted after a month or so. Posted on : 05/07/2024

[collapse]

Media Info and Download Links | S01E02-1080p.10bit.WEBRip.6CH.x265.HEVC

General
Format : Matroska
Format version : Version 4
File size : 553 MiB
Duration : 37 min 41 s
Overall bit rate : 2 050 kb/s
Frame rate : 23.976 FPS
Movie name : The.Veil.2024.S01E02.1080p.10bit.WEBRip.6CH.x265.HEVC

Video
ID : 1
Format : HEVC
Format/Info : High Efficiency Video Coding
Format profile : Main 10@L4@Main
Codec ID : V_MPEGH/ISO/HEVC
Duration : 37 min 41 s
Bit rate : 1 843 kb/s
Width : 1 920 pixels
Height : 960 pixels
Display aspect ratio : 2.000
Frame rate mode : Constant
Frame rate : 23.976 (24000/1001) FPS
Color space : YUV
Chroma subsampling : 4:2:0
Bit depth : 10 bits
Bits/(Pixel*Frame) : 0.042
Stream size : 497 MiB (90%)
Default : Yes
Forced : No
Color range : Limited
Color primaries : BT.709
Transfer characteristics : BT.709
Matrix coefficients : BT.709

Audio
ID : 2
Format : AAC LC SBR
Commercial name : HE-AAC
Format settings : Explicit
Codec ID : A_AAC-2
Duration : 37 min 41 s
Bit rate : 203 kb/s
Channel(s) : 6 channels
Channel layout : C L R Ls Rs LFE
Sampling rate : 48.0 kHz
Frame rate : 23.438 FPS (2048 SPF)
Compression mode : Lossy
Delay relative to video : 23 ms
Stream size : 54.7 MiB (10%)
Language : English
Default : Yes
Forced : No

Text #1
ID : 3
Format : UTF-8
Codec ID : S_TEXT/UTF8
Codec ID/Info : UTF-8 Plain Text
Duration : 37 min 21 s
Bit rate : 57 b/s
Frame rate : 0.184 FPS
Count of elements : 412
Stream size : 15.6 KiB (0%)
Language : English
Default : No
Forced : No

Text #2
ID : 4
Format : UTF-8
Codec ID : S_TEXT/UTF8
Codec ID/Info : UTF-8 Plain Text
Duration : 33 min 49 s
Bit rate : 8 b/s
Frame rate : 0.031 FPS
Count of elements : 63
Stream size : 2.03 KiB (0%)
Title : Forced
Language : English
Default : No
Forced : Yes

Text #3
ID : 5
Format : UTF-8
Codec ID : S_TEXT/UTF8
Codec ID/Info : UTF-8 Plain Text
Duration : 37 min 21 s
Bit rate : 62 b/s
Frame rate : 0.205 FPS
Count of elements : 460
Stream size : 17.1 KiB (0%)
Title : SDH
Language : English
Default : Yes
Forced : No

Text #4
ID : 6
Format : UTF-8
Codec ID : S_TEXT/UTF8
Codec ID/Info : UTF-8 Plain Text
Duration : 37 min 19 s
Bit rate : 46 b/s
Frame rate : 0.164 FPS
Count of elements : 367
Stream size : 12.7 KiB (0%)
Language : Czech
Default : No
Forced : No

Text #5
ID : 7
Format : UTF-8
Codec ID : S_TEXT/UTF8
Codec ID/Info : UTF-8 Plain Text
Duration : 37 min 19 s
Bit rate : 48 b/s
Frame rate : 0.150 FPS
Count of elements : 335
Stream size : 13.2 KiB (0%)
Language : Danish
Default : No
Forced : No

Text #6
ID : 8
Format : UTF-8
Codec ID : S_TEXT/UTF8
Codec ID/Info : UTF-8 Plain Text
Duration : 37 min 19 s
Bit rate : 53 b/s
Frame rate : 0.169 FPS
Count of elements : 378
Stream size : 14.7 KiB (0%)
Language : German
Default : No
Forced : No

Text #7
ID : 9
Format : UTF-8
Codec ID : S_TEXT/UTF8
Codec ID/Info : UTF-8 Plain Text
Duration : 37 min 19 s
Bit rate : 83 b/s
Frame rate : 0.170 FPS
Count of elements : 380
Stream size : 22.9 KiB (0%)
Language : Greek
Default : No
Forced : No

Text #8
ID : 10
Format : UTF-8
Codec ID : S_TEXT/UTF8
Codec ID/Info : UTF-8 Plain Text
Duration : 37 min 19 s
Bit rate : 48 b/s
Frame rate : 0.162 FPS
Count of elements : 363
Stream size : 13.3 KiB (0%)
Title : Latin American
Language : Spanish (Latin America)
Default : No
Forced : No

Text #9
ID : 11
Format : UTF-8
Codec ID : S_TEXT/UTF8
Codec ID/Info : UTF-8 Plain Text
Duration : 37 min 19 s
Bit rate : 48 b/s
Frame rate : 0.173 FPS
Count of elements : 387
Stream size : 13.2 KiB (0%)
Language : Spanish (ES)
Default : No
Forced : No

Text #10
ID : 12
Format : UTF-8
Codec ID : S_TEXT/UTF8
Codec ID/Info : UTF-8 Plain Text
Duration : 37 min 19 s
Bit rate : 51 b/s
Frame rate : 0.150 FPS
Count of elements : 337
Stream size : 14.0 KiB (0%)
Language : Finnish
Default : No
Forced : No

Text #11
ID : 13
Format : UTF-8
Codec ID : S_TEXT/UTF8
Codec ID/Info : UTF-8 Plain Text
Duration : 37 min 19 s
Bit rate : 44 b/s
Frame rate : 0.144 FPS
Count of elements : 323
Stream size : 12.2 KiB (0%)
Language : French (FR)
Default : No
Forced : No

Text #12
ID : 14
Format : UTF-8
Codec ID : S_TEXT/UTF8
Codec ID/Info : UTF-8 Plain Text
Duration : 37 min 19 s
Bit rate : 48 b/s
Frame rate : 0.168 FPS
Count of elements : 376
Stream size : 13.1 KiB (0%)
Language : Hungarian
Default : No
Forced : No

Text #13
ID : 15
Format : UTF-8
Codec ID : S_TEXT/UTF8
Codec ID/Info : UTF-8 Plain Text
Duration : 37 min 19 s
Bit rate : 49 b/s
Frame rate : 0.173 FPS
Count of elements : 387
Stream size : 13.6 KiB (0%)
Language : Italian
Default : No
Forced : No

Text #14
ID : 16
Format : UTF-8
Codec ID : S_TEXT/UTF8
Codec ID/Info : UTF-8 Plain Text
Duration : 37 min 19 s
Bit rate : 41 b/s
Frame rate : 0.169 FPS
Count of elements : 378
Stream size : 11.4 KiB (0%)
Language : Japanese
Default : No
Forced : No

Text #15
ID : 17
Format : UTF-8
Codec ID : S_TEXT/UTF8
Codec ID/Info : UTF-8 Plain Text
Duration : 37 min 19 s
Bit rate : 56 b/s
Frame rate : 0.176 FPS
Count of elements : 394
Stream size : 15.3 KiB (0%)
Language : Korean
Default : No
Forced : No

Text #16
ID : 18
Format : UTF-8
Codec ID : S_TEXT/UTF8
Codec ID/Info : UTF-8 Plain Text
Duration : 37 min 19 s
Bit rate : 45 b/s
Frame rate : 0.142 FPS
Count of elements : 319
Stream size : 12.4 KiB (0%)
Language : Dutch
Default : No
Forced : No

Text #17
ID : 19
Format : UTF-8
Codec ID : S_TEXT/UTF8
Codec ID/Info : UTF-8 Plain Text
Duration : 37 min 19 s
Bit rate : 46 b/s
Frame rate : 0.157 FPS
Count of elements : 351
Stream size : 12.7 KiB (0%)
Language : Norwegian
Default : No
Forced : No

Text #18
ID : 20
Format : UTF-8
Codec ID : S_TEXT/UTF8
Codec ID/Info : UTF-8 Plain Text
Duration : 37 min 19 s
Bit rate : 46 b/s
Frame rate : 0.171 FPS
Count of elements : 384
Stream size : 12.7 KiB (0%)
Language : Polish
Default : No
Forced : No

Text #19
ID : 21
Format : UTF-8
Codec ID : S_TEXT/UTF8
Codec ID/Info : UTF-8 Plain Text
Duration : 37 min 19 s
Bit rate : 48 b/s
Frame rate : 0.173 FPS
Count of elements : 388
Stream size : 13.1 KiB (0%)
Title : Brazilian
Language : Portuguese (BR)
Default : No
Forced : No

Text #20
ID : 22
Format : UTF-8
Codec ID : S_TEXT/UTF8
Codec ID/Info : UTF-8 Plain Text
Duration : 37 min 19 s
Bit rate : 52 b/s
Frame rate : 0.174 FPS
Count of elements : 389
Stream size : 14.3 KiB (0%)
Language : Portuguese (PT)
Default : No
Forced : No

Text #21
ID : 23
Format : UTF-8
Codec ID : S_TEXT/UTF8
Codec ID/Info : UTF-8 Plain Text
Duration : 37 min 19 s
Bit rate : 48 b/s
Frame rate : 0.140 FPS
Count of elements : 313
Stream size : 13.2 KiB (0%)
Language : Romanian
Default : No
Forced : No

Text #22
ID : 24
Format : UTF-8
Codec ID : S_TEXT/UTF8
Codec ID/Info : UTF-8 Plain Text
Duration : 37 min 19 s
Bit rate : 46 b/s
Frame rate : 0.173 FPS
Count of elements : 387
Stream size : 12.8 KiB (0%)
Language : Slovak
Default : No
Forced : No

Text #23
ID : 25
Format : UTF-8
Codec ID : S_TEXT/UTF8
Codec ID/Info : UTF-8 Plain Text
Duration : 37 min 19 s
Bit rate : 48 b/s
Frame rate : 0.150 FPS
Count of elements : 337
Stream size : 13.3 KiB (0%)
Language : Swedish
Default : No
Forced : No

Text #24
ID : 26
Format : UTF-8
Codec ID : S_TEXT/UTF8
Codec ID/Info : UTF-8 Plain Text
Duration : 37 min 19 s
Bit rate : 51 b/s
Frame rate : 0.169 FPS
Count of elements : 379
Stream size : 14.1 KiB (0%)
Language : Turkish
Default : No
Forced : No

Text #25
ID : 27
Format : UTF-8
Codec ID : S_TEXT/UTF8
Codec ID/Info : UTF-8 Plain Text
Duration : 37 min 19 s
Bit rate : 47 b/s
Frame rate : 0.176 FPS
Count of elements : 394
Stream size : 13.1 KiB (0%)
Title : Traditional
Language : Chinese (Traditional)
Default : No
Forced : No

Download

Direct download files get automatically deleted after a month or so. Posted on : 04/30/2024

[collapse]
Media Info and Download Links | S01E02-720p.10bit.WEBRip.2CH.x265.HEVC

General
Format : Matroska
Format version : Version 4
File size : 223 MiB
Duration : 37 min 41 s
Overall bit rate : 827 kb/s
Frame rate : 23.976 FPS
Movie name : The.Veil.2024.S01E02.720p.10bit.WEBRip.2CH.x265.HEVC

Video
ID : 1
Format : HEVC
Format/Info : High Efficiency Video Coding
Format profile : Main [email protected]@Main
Codec ID : V_MPEGH/ISO/HEVC
Duration : 37 min 41 s
Bit rate : 754 kb/s
Width : 1 280 pixels
Height : 640 pixels
Display aspect ratio : 2.000
Frame rate mode : Constant
Frame rate : 23.976 (24000/1001) FPS
Color space : YUV
Chroma subsampling : 4:2:0
Bit depth : 10 bits
Bits/(Pixel*Frame) : 0.038
Stream size : 203 MiB (91%)
Default : Yes
Forced : No
Color range : Limited
Color primaries : BT.709
Transfer characteristics : BT.709
Matrix coefficients : BT.709

Audio
ID : 2
Format : AAC LC SBR
Commercial name : HE-AAC
Format settings : Explicit
Codec ID : A_AAC-2
Duration : 37 min 41 s
Bit rate : 68.5 kb/s
Channel(s) : 2 channels
Channel layout : L R
Sampling rate : 48.0 kHz
Frame rate : 23.438 FPS (2048 SPF)
Compression mode : Lossy
Delay relative to video : 23 ms
Stream size : 18.5 MiB (8%)
Language : English
Default : Yes
Forced : No

Text #1
ID : 3
Format : UTF-8
Codec ID : S_TEXT/UTF8
Codec ID/Info : UTF-8 Plain Text
Duration : 37 min 21 s
Bit rate : 57 b/s
Frame rate : 0.184 FPS
Count of elements : 412
Stream size : 15.6 KiB (0%)
Language : English
Default : No
Forced : No

Text #2
ID : 4
Format : UTF-8
Codec ID : S_TEXT/UTF8
Codec ID/Info : UTF-8 Plain Text
Duration : 33 min 49 s
Bit rate : 8 b/s
Frame rate : 0.031 FPS
Count of elements : 63
Stream size : 2.03 KiB (0%)
Title : Forced
Language : English
Default : No
Forced : Yes

Text #3
ID : 5
Format : UTF-8
Codec ID : S_TEXT/UTF8
Codec ID/Info : UTF-8 Plain Text
Duration : 37 min 21 s
Bit rate : 62 b/s
Frame rate : 0.205 FPS
Count of elements : 460
Stream size : 17.1 KiB (0%)
Title : SDH
Language : English
Default : Yes
Forced : No

Text #4
ID : 6
Format : UTF-8
Codec ID : S_TEXT/UTF8
Codec ID/Info : UTF-8 Plain Text
Duration : 37 min 19 s
Bit rate : 46 b/s
Frame rate : 0.164 FPS
Count of elements : 367
Stream size : 12.7 KiB (0%)
Language : Czech
Default : No
Forced : No

Text #5
ID : 7
Format : UTF-8
Codec ID : S_TEXT/UTF8
Codec ID/Info : UTF-8 Plain Text
Duration : 37 min 19 s
Bit rate : 48 b/s
Frame rate : 0.150 FPS
Count of elements : 335
Stream size : 13.2 KiB (0%)
Language : Danish
Default : No
Forced : No

Text #6
ID : 8
Format : UTF-8
Codec ID : S_TEXT/UTF8
Codec ID/Info : UTF-8 Plain Text
Duration : 37 min 19 s
Bit rate : 53 b/s
Frame rate : 0.169 FPS
Count of elements : 378
Stream size : 14.7 KiB (0%)
Language : German
Default : No
Forced : No

Text #7
ID : 9
Format : UTF-8
Codec ID : S_TEXT/UTF8
Codec ID/Info : UTF-8 Plain Text
Duration : 37 min 19 s
Bit rate : 83 b/s
Frame rate : 0.170 FPS
Count of elements : 380
Stream size : 22.9 KiB (0%)
Language : Greek
Default : No
Forced : No

Text #8
ID : 10
Format : UTF-8
Codec ID : S_TEXT/UTF8
Codec ID/Info : UTF-8 Plain Text
Duration : 37 min 19 s
Bit rate : 48 b/s
Frame rate : 0.162 FPS
Count of elements : 363
Stream size : 13.3 KiB (0%)
Title : Latin American
Language : Spanish (Latin America)
Default : No
Forced : No

Text #9
ID : 11
Format : UTF-8
Codec ID : S_TEXT/UTF8
Codec ID/Info : UTF-8 Plain Text
Duration : 37 min 19 s
Bit rate : 48 b/s
Frame rate : 0.173 FPS
Count of elements : 387
Stream size : 13.2 KiB (0%)
Language : Spanish (ES)
Default : No
Forced : No

Text #10
ID : 12
Format : UTF-8
Codec ID : S_TEXT/UTF8
Codec ID/Info : UTF-8 Plain Text
Duration : 37 min 19 s
Bit rate : 51 b/s
Frame rate : 0.150 FPS
Count of elements : 337
Stream size : 14.0 KiB (0%)
Language : Finnish
Default : No
Forced : No

Text #11
ID : 13
Format : UTF-8
Codec ID : S_TEXT/UTF8
Codec ID/Info : UTF-8 Plain Text
Duration : 37 min 19 s
Bit rate : 44 b/s
Frame rate : 0.144 FPS
Count of elements : 323
Stream size : 12.2 KiB (0%)
Language : French (FR)
Default : No
Forced : No

Text #12
ID : 14
Format : UTF-8
Codec ID : S_TEXT/UTF8
Codec ID/Info : UTF-8 Plain Text
Duration : 37 min 19 s
Bit rate : 48 b/s
Frame rate : 0.168 FPS
Count of elements : 376
Stream size : 13.1 KiB (0%)
Language : Hungarian
Default : No
Forced : No

Text #13
ID : 15
Format : UTF-8
Codec ID : S_TEXT/UTF8
Codec ID/Info : UTF-8 Plain Text
Duration : 37 min 19 s
Bit rate : 49 b/s
Frame rate : 0.173 FPS
Count of elements : 387
Stream size : 13.6 KiB (0%)
Language : Italian
Default : No
Forced : No

Text #14
ID : 16
Format : UTF-8
Codec ID : S_TEXT/UTF8
Codec ID/Info : UTF-8 Plain Text
Duration : 37 min 19 s
Bit rate : 41 b/s
Frame rate : 0.169 FPS
Count of elements : 378
Stream size : 11.4 KiB (0%)
Language : Japanese
Default : No
Forced : No

Text #15
ID : 17
Format : UTF-8
Codec ID : S_TEXT/UTF8
Codec ID/Info : UTF-8 Plain Text
Duration : 37 min 19 s
Bit rate : 56 b/s
Frame rate : 0.176 FPS
Count of elements : 394
Stream size : 15.3 KiB (0%)
Language : Korean
Default : No
Forced : No

Text #16
ID : 18
Format : UTF-8
Codec ID : S_TEXT/UTF8
Codec ID/Info : UTF-8 Plain Text
Duration : 37 min 19 s
Bit rate : 45 b/s
Frame rate : 0.142 FPS
Count of elements : 319
Stream size : 12.4 KiB (0%)
Language : Dutch
Default : No
Forced : No

Text #17
ID : 19
Format : UTF-8
Codec ID : S_TEXT/UTF8
Codec ID/Info : UTF-8 Plain Text
Duration : 37 min 19 s
Bit rate : 46 b/s
Frame rate : 0.157 FPS
Count of elements : 351
Stream size : 12.7 KiB (0%)
Language : Norwegian
Default : No
Forced : No

Text #18
ID : 20
Format : UTF-8
Codec ID : S_TEXT/UTF8
Codec ID/Info : UTF-8 Plain Text
Duration : 37 min 19 s
Bit rate : 46 b/s
Frame rate : 0.171 FPS
Count of elements : 384
Stream size : 12.7 KiB (0%)
Language : Polish
Default : No
Forced : No

Text #19
ID : 21
Format : UTF-8
Codec ID : S_TEXT/UTF8
Codec ID/Info : UTF-8 Plain Text
Duration : 37 min 19 s
Bit rate : 48 b/s
Frame rate : 0.173 FPS
Count of elements : 388
Stream size : 13.1 KiB (0%)
Title : Brazilian
Language : Portuguese (BR)
Default : No
Forced : No

Text #20
ID : 22
Format : UTF-8
Codec ID : S_TEXT/UTF8
Codec ID/Info : UTF-8 Plain Text
Duration : 37 min 19 s
Bit rate : 52 b/s
Frame rate : 0.174 FPS
Count of elements : 389
Stream size : 14.3 KiB (0%)
Language : Portuguese (PT)
Default : No
Forced : No

Text #21
ID : 23
Format : UTF-8
Codec ID : S_TEXT/UTF8
Codec ID/Info : UTF-8 Plain Text
Duration : 37 min 19 s
Bit rate : 48 b/s
Frame rate : 0.140 FPS
Count of elements : 313
Stream size : 13.2 KiB (0%)
Language : Romanian
Default : No
Forced : No

Text #22
ID : 24
Format : UTF-8
Codec ID : S_TEXT/UTF8
Codec ID/Info : UTF-8 Plain Text
Duration : 37 min 19 s
Bit rate : 46 b/s
Frame rate : 0.173 FPS
Count of elements : 387
Stream size : 12.8 KiB (0%)
Language : Slovak
Default : No
Forced : No

Text #23
ID : 25
Format : UTF-8
Codec ID : S_TEXT/UTF8
Codec ID/Info : UTF-8 Plain Text
Duration : 37 min 19 s
Bit rate : 48 b/s
Frame rate : 0.150 FPS
Count of elements : 337
Stream size : 13.3 KiB (0%)
Language : Swedish
Default : No
Forced : No

Text #24
ID : 26
Format : UTF-8
Codec ID : S_TEXT/UTF8
Codec ID/Info : UTF-8 Plain Text
Duration : 37 min 19 s
Bit rate : 51 b/s
Frame rate : 0.169 FPS
Count of elements : 379
Stream size : 14.1 KiB (0%)
Language : Turkish
Default : No
Forced : No

Text #25
ID : 27
Format : UTF-8
Codec ID : S_TEXT/UTF8
Codec ID/Info : UTF-8 Plain Text
Duration : 37 min 19 s
Bit rate : 47 b/s
Frame rate : 0.176 FPS
Count of elements : 394
Stream size : 13.1 KiB (0%)
Title : Traditional
Language : Chinese (Traditional)
Default : No
Forced : No

Download

Direct download files get automatically deleted after a month or so. Posted on : 04/30/2024

[collapse]

Media Info and Download Links | S01E01-1080p.10bit.WEBRip.6CH.x265.HEVC

General
Format : Matroska
Format version : Version 4
File size : 540 MiB
Duration : 45 min 44 s
Overall bit rate : 1 650 kb/s
Frame rate : 23.976 FPS
Movie name : The.Veil.2024.S01E01.1080p.10bit.WEBRip.6CH.x265.HEVC

Video
ID : 1
Format : HEVC
Format/Info : High Efficiency Video Coding
Format profile : Main 10@L4@Main
Codec ID : V_MPEGH/ISO/HEVC
Duration : 45 min 44 s
Bit rate : 1 442 kb/s
Width : 1 920 pixels
Height : 960 pixels
Display aspect ratio : 2.000
Frame rate mode : Constant
Frame rate : 23.976 (24000/1001) FPS
Color space : YUV
Chroma subsampling : 4:2:0
Bit depth : 10 bits
Bits/(Pixel*Frame) : 0.033
Stream size : 472 MiB (87%)
Default : Yes
Forced : No
Color range : Limited
Color primaries : BT.709
Transfer characteristics : BT.709
Matrix coefficients : BT.709

Audio
ID : 2
Format : AAC LC SBR
Commercial name : HE-AAC
Format settings : Explicit
Codec ID : A_AAC-2
Duration : 45 min 44 s
Bit rate : 203 kb/s
Channel(s) : 6 channels
Channel layout : C L R Ls Rs LFE
Sampling rate : 48.0 kHz
Frame rate : 23.438 FPS (2048 SPF)
Compression mode : Lossy
Delay relative to video : 23 ms
Stream size : 66.5 MiB (12%)
Language : English
Default : Yes
Forced : No

Text #1
ID : 3
Format : UTF-8
Codec ID : S_TEXT/UTF8
Codec ID/Info : UTF-8 Plain Text
Duration : 44 min 46 s
Bit rate : 52 b/s
Frame rate : 0.197 FPS
Count of elements : 530
Stream size : 17.4 KiB (0%)
Language : English
Default : No
Forced : No

Text #2
ID : 4
Format : UTF-8
Codec ID : S_TEXT/UTF8
Codec ID/Info : UTF-8 Plain Text
Duration : 39 min 54 s
Bit rate : 8 b/s
Frame rate : 0.030 FPS
Count of elements : 71
Stream size : 2.43 KiB (0%)
Title : Forced
Language : English
Default : No
Forced : Yes

Text #3
ID : 5
Format : UTF-8
Codec ID : S_TEXT/UTF8
Codec ID/Info : UTF-8 Plain Text
Duration : 45 min 10 s
Bit rate : 56 b/s
Frame rate : 0.215 FPS
Count of elements : 582
Stream size : 18.9 KiB (0%)
Title : SDH
Language : English
Default : Yes
Forced : No

Text #4
ID : 6
Format : UTF-8
Codec ID : S_TEXT/UTF8
Codec ID/Info : UTF-8 Plain Text
Duration : 44 min 58 s
Bit rate : 45 b/s
Frame rate : 0.174 FPS
Count of elements : 470
Stream size : 15.0 KiB (0%)
Language : Czech
Default : No
Forced : No

Text #5
ID : 7
Format : UTF-8
Codec ID : S_TEXT/UTF8
Codec ID/Info : UTF-8 Plain Text
Duration : 44 min 58 s
Bit rate : 47 b/s
Frame rate : 0.159 FPS
Count of elements : 429
Stream size : 15.7 KiB (0%)
Language : Danish
Default : No
Forced : No

Text #6
ID : 8
Format : UTF-8
Codec ID : S_TEXT/UTF8
Codec ID/Info : UTF-8 Plain Text
Duration : 44 min 58 s
Bit rate : 53 b/s
Frame rate : 0.176 FPS
Count of elements : 476
Stream size : 17.7 KiB (0%)
Language : German
Default : No
Forced : No

Text #7
ID : 9
Format : UTF-8
Codec ID : S_TEXT/UTF8
Codec ID/Info : UTF-8 Plain Text
Duration : 44 min 58 s
Bit rate : 80 b/s
Frame rate : 0.183 FPS
Count of elements : 495
Stream size : 26.5 KiB (0%)
Language : Greek
Default : No
Forced : No

Text #8
ID : 10
Format : UTF-8
Codec ID : S_TEXT/UTF8
Codec ID/Info : UTF-8 Plain Text
Duration : 44 min 58 s
Bit rate : 47 b/s
Frame rate : 0.167 FPS
Count of elements : 451
Stream size : 15.5 KiB (0%)
Title : Latin American
Language : Spanish (Latin America)
Default : No
Forced : No

Text #9
ID : 11
Format : UTF-8
Codec ID : S_TEXT/UTF8
Codec ID/Info : UTF-8 Plain Text
Duration : 44 min 58 s
Bit rate : 46 b/s
Frame rate : 0.181 FPS
Count of elements : 489
Stream size : 15.5 KiB (0%)
Language : Spanish (ES)
Default : No
Forced : No

Text #10
ID : 12
Format : UTF-8
Codec ID : S_TEXT/UTF8
Codec ID/Info : UTF-8 Plain Text
Duration : 44 min 58 s
Bit rate : 49 b/s
Frame rate : 0.164 FPS
Count of elements : 443
Stream size : 16.4 KiB (0%)
Language : Finnish
Default : No
Forced : No

Text #11
ID : 13
Format : UTF-8
Codec ID : S_TEXT/UTF8
Codec ID/Info : UTF-8 Plain Text
Duration : 44 min 58 s
Bit rate : 45 b/s
Frame rate : 0.165 FPS
Count of elements : 445
Stream size : 15.0 KiB (0%)
Language : French (FR)
Default : No
Forced : No

Text #12
ID : 14
Format : UTF-8
Codec ID : S_TEXT/UTF8
Codec ID/Info : UTF-8 Plain Text
Duration : 44 min 58 s
Bit rate : 46 b/s
Frame rate : 0.176 FPS
Count of elements : 476
Stream size : 15.4 KiB (0%)
Language : Hungarian
Default : No
Forced : No

Text #13
ID : 15
Format : UTF-8
Codec ID : S_TEXT/UTF8
Codec ID/Info : UTF-8 Plain Text
Duration : 44 min 58 s
Bit rate : 47 b/s
Frame rate : 0.185 FPS
Count of elements : 499
Stream size : 15.5 KiB (0%)
Language : Italian
Default : No
Forced : No

Text #14
ID : 16
Format : UTF-8
Codec ID : S_TEXT/UTF8
Codec ID/Info : UTF-8 Plain Text
Duration : 44 min 58 s
Bit rate : 40 b/s
Frame rate : 0.185 FPS
Count of elements : 498
Stream size : 13.5 KiB (0%)
Language : Japanese
Default : No
Forced : No

Text #15
ID : 17
Format : UTF-8
Codec ID : S_TEXT/UTF8
Codec ID/Info : UTF-8 Plain Text
Duration : 44 min 58 s
Bit rate : 55 b/s
Frame rate : 0.191 FPS
Count of elements : 514
Stream size : 18.4 KiB (0%)
Language : Korean
Default : No
Forced : No

Text #16
ID : 18
Format : UTF-8
Codec ID : S_TEXT/UTF8
Codec ID/Info : UTF-8 Plain Text
Duration : 44 min 58 s
Bit rate : 44 b/s
Frame rate : 0.156 FPS
Count of elements : 421
Stream size : 14.6 KiB (0%)
Language : Dutch
Default : No
Forced : No

Text #17
ID : 19
Format : UTF-8
Codec ID : S_TEXT/UTF8
Codec ID/Info : UTF-8 Plain Text
Duration : 44 min 58 s
Bit rate : 45 b/s
Frame rate : 0.168 FPS
Count of elements : 452
Stream size : 15.1 KiB (0%)
Language : Norwegian
Default : No
Forced : No

Text #18
ID : 20
Format : UTF-8
Codec ID : S_TEXT/UTF8
Codec ID/Info : UTF-8 Plain Text
Duration : 44 min 58 s
Bit rate : 44 b/s
Frame rate : 0.184 FPS
Count of elements : 497
Stream size : 14.7 KiB (0%)
Language : Polish
Default : No
Forced : No

Text #19
ID : 21
Format : UTF-8
Codec ID : S_TEXT/UTF8
Codec ID/Info : UTF-8 Plain Text
Duration : 44 min 58 s
Bit rate : 47 b/s
Frame rate : 0.185 FPS
Count of elements : 498
Stream size : 15.5 KiB (0%)
Title : Brazilian
Language : Portuguese (BR)
Default : No
Forced : No

Text #20
ID : 22
Format : UTF-8
Codec ID : S_TEXT/UTF8
Codec ID/Info : UTF-8 Plain Text
Duration : 44 min 58 s
Bit rate : 50 b/s
Frame rate : 0.186 FPS
Count of elements : 502
Stream size : 16.5 KiB (0%)
Language : Portuguese (PT)
Default : No
Forced : No

Text #21
ID : 23
Format : UTF-8
Codec ID : S_TEXT/UTF8
Codec ID/Info : UTF-8 Plain Text
Duration : 44 min 58 s
Bit rate : 47 b/s
Frame rate : 0.154 FPS
Count of elements : 415
Stream size : 15.7 KiB (0%)
Language : Romanian
Default : No
Forced : No

Text #22
ID : 24
Format : UTF-8
Codec ID : S_TEXT/UTF8
Codec ID/Info : UTF-8 Plain Text
Duration : 44 min 58 s
Bit rate : 46 b/s
Frame rate : 0.186 FPS
Count of elements : 501
Stream size : 15.2 KiB (0%)
Language : Slovak
Default : No
Forced : No

Text #23
ID : 25
Format : UTF-8
Codec ID : S_TEXT/UTF8
Codec ID/Info : UTF-8 Plain Text
Duration : 44 min 58 s
Bit rate : 47 b/s
Frame rate : 0.160 FPS
Count of elements : 433
Stream size : 15.6 KiB (0%)
Language : Swedish
Default : No
Forced : No

Text #24
ID : 26
Format : UTF-8
Codec ID : S_TEXT/UTF8
Codec ID/Info : UTF-8 Plain Text
Duration : 44 min 58 s
Bit rate : 49 b/s
Frame rate : 0.183 FPS
Count of elements : 494
Stream size : 16.3 KiB (0%)
Language : Turkish
Default : No
Forced : No

Text #25
ID : 27
Format : UTF-8
Codec ID : S_TEXT/UTF8
Codec ID/Info : UTF-8 Plain Text
Duration : 44 min 58 s
Bit rate : 45 b/s
Frame rate : 0.190 FPS
Count of elements : 512
Stream size : 15.0 KiB (0%)
Title : Traditional
Language : Chinese (Traditional)
Default : No
Forced : No

Download

Direct download files get automatically deleted after a month or so. Posted on : 04/30/2024

[collapse]
Media Info and Download Links | S01E01-720p.10bit.WEBRip.2CH.x265.HEVC

General
Format : Matroska
Format version : Version 4
File size : 214 MiB
Duration : 45 min 44 s
Overall bit rate : 653 kb/s
Frame rate : 23.976 FPS
Movie name : The.Veil.2024.S01E01.720p.10bit.WEBRip.2CH.x265.HEVC

Video
ID : 1
Format : HEVC
Format/Info : High Efficiency Video Coding
Format profile : Main [email protected]@Main
Codec ID : V_MPEGH/ISO/HEVC
Duration : 45 min 44 s
Bit rate : 578 kb/s
Width : 1 280 pixels
Height : 640 pixels
Display aspect ratio : 2.000
Frame rate mode : Constant
Frame rate : 23.976 (24000/1001) FPS
Color space : YUV
Chroma subsampling : 4:2:0
Bit depth : 10 bits
Bits/(Pixel*Frame) : 0.029
Stream size : 189 MiB (89%)
Default : Yes
Forced : No
Color range : Limited
Color primaries : BT.709
Transfer characteristics : BT.709
Matrix coefficients : BT.709

Audio
ID : 2
Format : AAC LC SBR
Commercial name : HE-AAC
Format settings : Explicit
Codec ID : A_AAC-2
Duration : 45 min 44 s
Bit rate : 70.5 kb/s
Channel(s) : 2 channels
Channel layout : L R
Sampling rate : 48.0 kHz
Frame rate : 23.438 FPS (2048 SPF)
Compression mode : Lossy
Delay relative to video : 23 ms
Stream size : 23.1 MiB (11%)
Language : English
Default : Yes
Forced : No

Text #1
ID : 3
Format : UTF-8
Codec ID : S_TEXT/UTF8
Codec ID/Info : UTF-8 Plain Text
Duration : 44 min 46 s
Bit rate : 52 b/s
Frame rate : 0.197 FPS
Count of elements : 530
Stream size : 17.4 KiB (0%)
Language : English
Default : No
Forced : No

Text #2
ID : 4
Format : UTF-8
Codec ID : S_TEXT/UTF8
Codec ID/Info : UTF-8 Plain Text
Duration : 39 min 54 s
Bit rate : 8 b/s
Frame rate : 0.030 FPS
Count of elements : 71
Stream size : 2.43 KiB (0%)
Title : Forced
Language : English
Default : No
Forced : Yes

Text #3
ID : 5
Format : UTF-8
Codec ID : S_TEXT/UTF8
Codec ID/Info : UTF-8 Plain Text
Duration : 45 min 10 s
Bit rate : 56 b/s
Frame rate : 0.215 FPS
Count of elements : 582
Stream size : 18.9 KiB (0%)
Title : SDH
Language : English
Default : Yes
Forced : No

Text #4
ID : 6
Format : UTF-8
Codec ID : S_TEXT/UTF8
Codec ID/Info : UTF-8 Plain Text
Duration : 44 min 58 s
Bit rate : 45 b/s
Frame rate : 0.174 FPS
Count of elements : 470
Stream size : 15.0 KiB (0%)
Language : Czech
Default : No
Forced : No

Text #5
ID : 7
Format : UTF-8
Codec ID : S_TEXT/UTF8
Codec ID/Info : UTF-8 Plain Text
Duration : 44 min 58 s
Bit rate : 47 b/s
Frame rate : 0.159 FPS
Count of elements : 429
Stream size : 15.7 KiB (0%)
Language : Danish
Default : No
Forced : No

Text #6
ID : 8
Format : UTF-8
Codec ID : S_TEXT/UTF8
Codec ID/Info : UTF-8 Plain Text
Duration : 44 min 58 s
Bit rate : 53 b/s
Frame rate : 0.176 FPS
Count of elements : 476
Stream size : 17.7 KiB (0%)
Language : German
Default : No
Forced : No

Text #7
ID : 9
Format : UTF-8
Codec ID : S_TEXT/UTF8
Codec ID/Info : UTF-8 Plain Text
Duration : 44 min 58 s
Bit rate : 80 b/s
Frame rate : 0.183 FPS
Count of elements : 495
Stream size : 26.5 KiB (0%)
Language : Greek
Default : No
Forced : No

Text #8
ID : 10
Format : UTF-8
Codec ID : S_TEXT/UTF8
Codec ID/Info : UTF-8 Plain Text
Duration : 44 min 58 s
Bit rate : 47 b/s
Frame rate : 0.167 FPS
Count of elements : 451
Stream size : 15.5 KiB (0%)
Title : Latin American
Language : Spanish (Latin America)
Default : No
Forced : No

Text #9
ID : 11
Format : UTF-8
Codec ID : S_TEXT/UTF8
Codec ID/Info : UTF-8 Plain Text
Duration : 44 min 58 s
Bit rate : 46 b/s
Frame rate : 0.181 FPS
Count of elements : 489
Stream size : 15.5 KiB (0%)
Language : Spanish (ES)
Default : No
Forced : No

Text #10
ID : 12
Format : UTF-8
Codec ID : S_TEXT/UTF8
Codec ID/Info : UTF-8 Plain Text
Duration : 44 min 58 s
Bit rate : 49 b/s
Frame rate : 0.164 FPS
Count of elements : 443
Stream size : 16.4 KiB (0%)
Language : Finnish
Default : No
Forced : No

Text #11
ID : 13
Format : UTF-8
Codec ID : S_TEXT/UTF8
Codec ID/Info : UTF-8 Plain Text
Duration : 44 min 58 s
Bit rate : 45 b/s
Frame rate : 0.165 FPS
Count of elements : 445
Stream size : 15.0 KiB (0%)
Language : French (FR)
Default : No
Forced : No

Text #12
ID : 14
Format : UTF-8
Codec ID : S_TEXT/UTF8
Codec ID/Info : UTF-8 Plain Text
Duration : 44 min 58 s
Bit rate : 46 b/s
Frame rate : 0.176 FPS
Count of elements : 476
Stream size : 15.4 KiB (0%)
Language : Hungarian
Default : No
Forced : No

Text #13
ID : 15
Format : UTF-8
Codec ID : S_TEXT/UTF8
Codec ID/Info : UTF-8 Plain Text
Duration : 44 min 58 s
Bit rate : 47 b/s
Frame rate : 0.185 FPS
Count of elements : 499
Stream size : 15.5 KiB (0%)
Language : Italian
Default : No
Forced : No

Text #14
ID : 16
Format : UTF-8
Codec ID : S_TEXT/UTF8
Codec ID/Info : UTF-8 Plain Text
Duration : 44 min 58 s
Bit rate : 40 b/s
Frame rate : 0.185 FPS
Count of elements : 498
Stream size : 13.5 KiB (0%)
Language : Japanese
Default : No
Forced : No

Text #15
ID : 17
Format : UTF-8
Codec ID : S_TEXT/UTF8
Codec ID/Info : UTF-8 Plain Text
Duration : 44 min 58 s
Bit rate : 55 b/s
Frame rate : 0.191 FPS
Count of elements : 514
Stream size : 18.4 KiB (0%)
Language : Korean
Default : No
Forced : No

Text #16
ID : 18
Format : UTF-8
Codec ID : S_TEXT/UTF8
Codec ID/Info : UTF-8 Plain Text
Duration : 44 min 58 s
Bit rate : 44 b/s
Frame rate : 0.156 FPS
Count of elements : 421
Stream size : 14.6 KiB (0%)
Language : Dutch
Default : No
Forced : No

Text #17
ID : 19
Format : UTF-8
Codec ID : S_TEXT/UTF8
Codec ID/Info : UTF-8 Plain Text
Duration : 44 min 58 s
Bit rate : 45 b/s
Frame rate : 0.168 FPS
Count of elements : 452
Stream size : 15.1 KiB (0%)
Language : Norwegian
Default : No
Forced : No

Text #18
ID : 20
Format : UTF-8
Codec ID : S_TEXT/UTF8
Codec ID/Info : UTF-8 Plain Text
Duration : 44 min 58 s
Bit rate : 44 b/s
Frame rate : 0.184 FPS
Count of elements : 497
Stream size : 14.7 KiB (0%)
Language : Polish
Default : No
Forced : No

Text #19
ID : 21
Format : UTF-8
Codec ID : S_TEXT/UTF8
Codec ID/Info : UTF-8 Plain Text
Duration : 44 min 58 s
Bit rate : 47 b/s
Frame rate : 0.185 FPS
Count of elements : 498
Stream size : 15.5 KiB (0%)
Title : Brazilian
Language : Portuguese (BR)
Default : No
Forced : No

Text #20
ID : 22
Format : UTF-8
Codec ID : S_TEXT/UTF8
Codec ID/Info : UTF-8 Plain Text
Duration : 44 min 58 s
Bit rate : 50 b/s
Frame rate : 0.186 FPS
Count of elements : 502
Stream size : 16.5 KiB (0%)
Language : Portuguese (PT)
Default : No
Forced : No

Text #21
ID : 23
Format : UTF-8
Codec ID : S_TEXT/UTF8
Codec ID/Info : UTF-8 Plain Text
Duration : 44 min 58 s
Bit rate : 47 b/s
Frame rate : 0.154 FPS
Count of elements : 415
Stream size : 15.7 KiB (0%)
Language : Romanian
Default : No
Forced : No

Text #22
ID : 24
Format : UTF-8
Codec ID : S_TEXT/UTF8
Codec ID/Info : UTF-8 Plain Text
Duration : 44 min 58 s
Bit rate : 46 b/s
Frame rate : 0.186 FPS
Count of elements : 501
Stream size : 15.2 KiB (0%)
Language : Slovak
Default : No
Forced : No

Text #23
ID : 25
Format : UTF-8
Codec ID : S_TEXT/UTF8
Codec ID/Info : UTF-8 Plain Text
Duration : 44 min 58 s
Bit rate : 47 b/s
Frame rate : 0.160 FPS
Count of elements : 433
Stream size : 15.6 KiB (0%)
Language : Swedish
Default : No
Forced : No

Text #24
ID : 26
Format : UTF-8
Codec ID : S_TEXT/UTF8
Codec ID/Info : UTF-8 Plain Text
Duration : 44 min 58 s
Bit rate : 49 b/s
Frame rate : 0.183 FPS
Count of elements : 494
Stream size : 16.3 KiB (0%)
Language : Turkish
Default : No
Forced : No

Text #25
ID : 27
Format : UTF-8
Codec ID : S_TEXT/UTF8
Codec ID/Info : UTF-8 Plain Text
Duration : 44 min 58 s
Bit rate : 45 b/s
Frame rate : 0.190 FPS
Count of elements : 512
Stream size : 15.0 KiB (0%)
Title : Traditional
Language : Chinese (Traditional)
Default : No
Forced : No

Download

Direct download files get automatically deleted after a month or so. Posted on : 04/30/2024

[collapse]

You may also like...

error: nah :p~