The Last of Us (2023)

TV-MA | Action, Adventure, Drama

Joel and Ellie, a pair connected through the harshness of the world they live in, are forced to endure brutal circumstances and ruthless killers on a trek across post-pandemic America.

Watch trailer

Media Info and Download Links | S01E02-2160p.10bit.HDR.DV.WEBRip.6CH.x265.HEVC

General
Format : Matroska
Format version : Version 4
File size : 1.59 GiB
Duration : 52 min 47 s
Overall bit rate : 4 322 kb/s
Movie name : The.Last.of.Us.S01E02.2160p.10bit.HDR.DV.WEBRip.6CH.x265.HEVC

Video
ID : 1
Format : HEVC
Format/Info : High Efficiency Video Coding
Format profile : Main [email protected]@High
HDR format : Dolby Vision, Version 1.0, dvhe.08.06, BL+RPU, HDR10 compatible / SMPTE ST 2086, HDR10 compatible
Codec ID : V_MPEGH/ISO/HEVC
Duration : 52 min 47 s
Bit rate : 4 114 kb/s
Width : 3 840 pixels
Height : 2 160 pixels
Display aspect ratio : 16:9
Frame rate mode : Constant
Frame rate : 23.976 (24000/1001) FPS
Color space : YUV
Chroma subsampling : 4:2:0
Bit depth : 10 bits
Bits/(Pixel*Frame) : 0.021
Stream size : 1.52 GiB (95%)
Default : Yes
Forced : No
Color range : Limited
Color primaries : BT.2020
Transfer characteristics : PQ
Matrix coefficients : BT.2020 non-constant
Mastering display color primaries : BT.2020
Mastering display luminance : min: 0.0001 cd/m2, max: 1000 cd/m2
Maximum Content Light Level : 493 cd/m2
Maximum Frame-Average Light Level : 195 cd/m2

Audio
ID : 2
Format : AAC LC SBR
Commercial name : HE-AAC
Format settings : Explicit
Codec ID : A_AAC-2
Duration : 52 min 46 s
Bit rate : 204 kb/s
Channel(s) : 6 channels
Channel layout : C L R Ls Rs LFE
Sampling rate : 48.0 kHz
Frame rate : 23.438 FPS (2048 SPF)
Compression mode : Lossy
Delay relative to video : 23 ms
Stream size : 76.9 MiB (5%)
Language : English
Default : Yes
Forced : No

Text #1
ID : 3
Format : UTF-8
Codec ID : S_TEXT/UTF8
Codec ID/Info : UTF-8 Plain Text
Duration : 48 min 57 s
Bit rate : 27 b/s
Frame rate : 0.116 FPS
Count of elements : 342
Stream size : 9.75 KiB (0%)
Language : English (US)
Default : No
Forced : No

Text #2
ID : 4
Format : UTF-8
Codec ID : S_TEXT/UTF8
Codec ID/Info : UTF-8 Plain Text
Duration : 52 min 6 s
Bit rate : 32 b/s
Frame rate : 0.165 FPS
Count of elements : 516
Stream size : 12.6 KiB (0%)
Title : SDH
Language : English (US)
Default : Yes
Forced : No

Text #3
ID : 5
Format : UTF-8
Codec ID : S_TEXT/UTF8
Codec ID/Info : UTF-8 Plain Text
Duration : 52 min 20 s
Bit rate : 43 b/s
Frame rate : 0.133 FPS
Count of elements : 419
Stream size : 16.6 KiB (0%)
Language : Bulgarian (BG)
Default : No
Forced : No

Text #4
ID : 6
Format : UTF-8
Codec ID : S_TEXT/UTF8
Codec ID/Info : UTF-8 Plain Text
Duration : 52 min 20 s
Bit rate : 26 b/s
Frame rate : 0.133 FPS
Count of elements : 418
Stream size : 10.2 KiB (0%)
Language : Czech (CZ)
Default : No
Forced : No

Text #5
ID : 7
Format : UTF-8
Codec ID : S_TEXT/UTF8
Codec ID/Info : UTF-8 Plain Text
Duration : 52 min 20 s
Bit rate : 25 b/s
Frame rate : 0.133 FPS
Count of elements : 418
Stream size : 9.71 KiB (0%)
Language : Danish (DK)
Default : No
Forced : No

Text #6
ID : 8
Format : UTF-8
Codec ID : S_TEXT/UTF8
Codec ID/Info : UTF-8 Plain Text
Duration : 52 min 20 s
Bit rate : 45 b/s
Frame rate : 0.133 FPS
Count of elements : 419
Stream size : 17.3 KiB (0%)
Language : Greek (GR)
Default : No
Forced : No

Text #7
ID : 9
Format : UTF-8
Codec ID : S_TEXT/UTF8
Codec ID/Info : UTF-8 Plain Text
Duration : 52 min 20 s
Bit rate : 26 b/s
Frame rate : 0.133 FPS
Count of elements : 419
Stream size : 10.0 KiB (0%)
Title : Latin American
Language : Spanish (Latin America)
Default : No
Forced : No

Text #8
ID : 10
Format : UTF-8
Codec ID : S_TEXT/UTF8
Codec ID/Info : UTF-8 Plain Text
Duration : 52 min 8 s
Bit rate : 41 b/s
Frame rate : 0.190 FPS
Count of elements : 593
Stream size : 15.7 KiB (0%)
Title : Latin American (SDH)
Language : Spanish (Latin America)
Default : No
Forced : No

Text #9
ID : 11
Format : UTF-8
Codec ID : S_TEXT/UTF8
Codec ID/Info : UTF-8 Plain Text
Duration : 48 min 58 s
Bit rate : 30 b/s
Frame rate : 0.121 FPS
Count of elements : 356
Stream size : 11.0 KiB (0%)
Language : Spanish (ES)
Default : No
Forced : No

Text #10
ID : 12
Format : UTF-8
Codec ID : S_TEXT/UTF8
Codec ID/Info : UTF-8 Plain Text
Duration : 52 min 20 s
Bit rate : 28 b/s
Frame rate : 0.133 FPS
Count of elements : 419
Stream size : 10.9 KiB (0%)
Title : Estonia
Language : Estonian (EE)
Default : No
Forced : No

Text #11
ID : 13
Format : UTF-8
Codec ID : S_TEXT/UTF8
Codec ID/Info : UTF-8 Plain Text
Duration : 52 min 20 s
Bit rate : 30 b/s
Frame rate : 0.132 FPS
Count of elements : 416
Stream size : 11.6 KiB (0%)
Language : Finnish (FI)
Default : No
Forced : No

Text #12
ID : 14
Format : UTF-8
Codec ID : S_TEXT/UTF8
Codec ID/Info : UTF-8 Plain Text
Duration : 52 min 20 s
Bit rate : 24 b/s
Frame rate : 0.133 FPS
Count of elements : 418
Stream size : 9.46 KiB (0%)
Language : Croatian (HR)
Default : No
Forced : No

Text #13
ID : 15
Format : UTF-8
Codec ID : S_TEXT/UTF8
Codec ID/Info : UTF-8 Plain Text
Duration : 52 min 20 s
Bit rate : 25 b/s
Frame rate : 0.134 FPS
Count of elements : 420
Stream size : 9.88 KiB (0%)
Language : Hungarian (HU)
Default : No
Forced : No

Text #14
ID : 16
Format : UTF-8
Codec ID : S_TEXT/UTF8
Codec ID/Info : UTF-8 Plain Text
Duration : 52 min 20 s
Bit rate : 30 b/s
Frame rate : 0.132 FPS
Count of elements : 416
Stream size : 11.8 KiB (0%)
Language : Icelandic (IS)
Default : No
Forced : No

Text #15
ID : 17
Format : UTF-8
Codec ID : S_TEXT/UTF8
Codec ID/Info : UTF-8 Plain Text
Duration : 52 min 20 s
Bit rate : 27 b/s
Frame rate : 0.133 FPS
Count of elements : 419
Stream size : 10.4 KiB (0%)
Language : Lithuanian (LT)
Default : No
Forced : No

Text #16
ID : 18
Format : UTF-8
Codec ID : S_TEXT/UTF8
Codec ID/Info : UTF-8 Plain Text
Duration : 52 min 20 s
Bit rate : 28 b/s
Frame rate : 0.133 FPS
Count of elements : 419
Stream size : 11.0 KiB (0%)
Language : Latvian (LV)
Default : No
Forced : No

Text #17
ID : 19
Format : UTF-8
Codec ID : S_TEXT/UTF8
Codec ID/Info : UTF-8 Plain Text
Duration : 52 min 20 s
Bit rate : 48 b/s
Frame rate : 0.133 FPS
Count of elements : 419
Stream size : 18.8 KiB (0%)
Language : Macedonian (MK)
Default : No
Forced : No

Text #18
ID : 20
Format : UTF-8
Codec ID : S_TEXT/UTF8
Codec ID/Info : UTF-8 Plain Text
Duration : 52 min 20 s
Bit rate : 23 b/s
Frame rate : 0.130 FPS
Count of elements : 407
Stream size : 9.08 KiB (0%)
Language : Dutch (NL)
Default : No
Forced : No

Text #19
ID : 21
Format : UTF-8
Codec ID : S_TEXT/UTF8
Codec ID/Info : UTF-8 Plain Text
Duration : 52 min 20 s
Bit rate : 25 b/s
Frame rate : 0.133 FPS
Count of elements : 417
Stream size : 9.84 KiB (0%)
Language : Norwegian (NO)
Default : No
Forced : No

Text #20
ID : 22
Format : UTF-8
Codec ID : S_TEXT/UTF8
Codec ID/Info : UTF-8 Plain Text
Duration : 52 min 20 s
Bit rate : 23 b/s
Frame rate : 0.132 FPS
Count of elements : 416
Stream size : 8.98 KiB (0%)
Language : Polish (PL)
Default : No
Forced : No

Text #21
ID : 23
Format : UTF-8
Codec ID : S_TEXT/UTF8
Codec ID/Info : UTF-8 Plain Text
Duration : 52 min 20 s
Bit rate : 23 b/s
Frame rate : 0.133 FPS
Count of elements : 418
Stream size : 9.01 KiB (0%)
Title : Brazilian
Language : Portuguese (BR)
Default : No
Forced : No

Text #22
ID : 24
Format : UTF-8
Codec ID : S_TEXT/UTF8
Codec ID/Info : UTF-8 Plain Text
Duration : 52 min 20 s
Bit rate : 29 b/s
Frame rate : 0.133 FPS
Count of elements : 417
Stream size : 11.3 KiB (0%)
Language : Portuguese (PT)
Default : No
Forced : No

Text #23
ID : 25
Format : UTF-8
Codec ID : S_TEXT/UTF8
Codec ID/Info : UTF-8 Plain Text
Duration : 52 min 20 s
Bit rate : 29 b/s
Frame rate : 0.133 FPS
Count of elements : 417
Stream size : 11.1 KiB (0%)
Language : Romanian (RO)
Default : No
Forced : No

Text #24
ID : 26
Format : UTF-8
Codec ID : S_TEXT/UTF8
Codec ID/Info : UTF-8 Plain Text
Duration : 52 min 20 s
Bit rate : 42 b/s
Frame rate : 0.134 FPS
Count of elements : 420
Stream size : 16.3 KiB (0%)
Language : Russian (RU)
Default : No
Forced : No

Text #25
ID : 27
Format : UTF-8
Codec ID : S_TEXT/UTF8
Codec ID/Info : UTF-8 Plain Text
Duration : 52 min 20 s
Bit rate : 27 b/s
Frame rate : 0.133 FPS
Count of elements : 417
Stream size : 10.4 KiB (0%)
Language : Slovak (SK)
Default : No
Forced : No

Text #26
ID : 28
Format : UTF-8
Codec ID : S_TEXT/UTF8
Codec ID/Info : UTF-8 Plain Text
Duration : 52 min 20 s
Bit rate : 25 b/s
Frame rate : 0.133 FPS
Count of elements : 419
Stream size : 9.79 KiB (0%)
Language : Slovenian (SI)
Default : No
Forced : No

Text #27
ID : 29
Format : UTF-8
Codec ID : S_TEXT/UTF8
Codec ID/Info : UTF-8 Plain Text
Duration : 52 min 20 s
Bit rate : 26 b/s
Frame rate : 0.133 FPS
Count of elements : 419
Stream size : 10.2 KiB (0%)
Title : Latin,
Language : Serbian-Latn-RS
Default : No
Forced : No

Text #28
ID : 30
Format : UTF-8
Codec ID : S_TEXT/UTF8
Codec ID/Info : UTF-8 Plain Text
Duration : 52 min 20 s
Bit rate : 25 b/s
Frame rate : 0.132 FPS
Count of elements : 416
Stream size : 9.58 KiB (0%)
Language : Swedish (SE)
Default : No
Forced : No

Text #29
ID : 31
Format : UTF-8
Codec ID : S_TEXT/UTF8
Codec ID/Info : UTF-8 Plain Text
Duration : 52 min 20 s
Bit rate : 29 b/s
Frame rate : 0.133 FPS
Count of elements : 418
Stream size : 11.2 KiB (0%)
Language : Turkish (TR)
Default : No
Forced : No

Download

Direct download files get automatically deleted after a month or so. Posted on : 01/23/2023

[collapse]

Media Info and Download Links | S01E02-1080p.10bit.WEBRip.6CH.x265.HEVC

General
Format : Matroska
Format version : Version 4
File size : 735 MiB
Duration : 52 min 47 s
Overall bit rate : 1 948 kb/s
Movie name : The.Last.of.Us.S01E02.1080p.10bit.WEBRip.6CH.x265.HEVC

Video
ID : 1
Format : HEVC
Format/Info : High Efficiency Video Coding
Format profile : Main [email protected]@Main
Codec ID : V_MPEGH/ISO/HEVC
Duration : 52 min 47 s
Bit rate : 1 740 kb/s
Width : 1 920 pixels
Height : 1 080 pixels
Display aspect ratio : 16:9
Frame rate mode : Constant
Frame rate : 23.976 (24000/1001) FPS
Color space : YUV
Chroma subsampling : 4:2:0
Bit depth : 10 bits
Bits/(Pixel*Frame) : 0.035
Stream size : 657 MiB (89%)
Default : Yes
Forced : No
Color range : Limited
Color primaries : BT.709
Transfer characteristics : BT.709
Matrix coefficients : BT.709

Audio
ID : 2
Format : AAC LC SBR
Commercial name : HE-AAC
Format settings : Explicit
Codec ID : A_AAC-2
Duration : 52 min 46 s
Bit rate : 204 kb/s
Channel(s) : 6 channels
Channel layout : C L R Ls Rs LFE
Sampling rate : 48.0 kHz
Frame rate : 23.438 FPS (2048 SPF)
Compression mode : Lossy
Delay relative to video : 23 ms
Stream size : 76.9 MiB (10%)
Language : English
Default : Yes
Forced : No

Text #1
ID : 3
Format : UTF-8
Codec ID : S_TEXT/UTF8
Codec ID/Info : UTF-8 Plain Text
Duration : 48 min 57 s
Bit rate : 27 b/s
Frame rate : 0.116 FPS
Count of elements : 342
Stream size : 9.75 KiB (0%)
Language : English (US)
Default : No
Forced : No

Text #2
ID : 4
Format : UTF-8
Codec ID : S_TEXT/UTF8
Codec ID/Info : UTF-8 Plain Text
Duration : 52 min 6 s
Bit rate : 32 b/s
Frame rate : 0.165 FPS
Count of elements : 516
Stream size : 12.6 KiB (0%)
Title : SDH
Language : English (US)
Default : Yes
Forced : No

Text #3
ID : 5
Format : UTF-8
Codec ID : S_TEXT/UTF8
Codec ID/Info : UTF-8 Plain Text
Duration : 52 min 20 s
Bit rate : 43 b/s
Frame rate : 0.133 FPS
Count of elements : 419
Stream size : 16.6 KiB (0%)
Language : Bulgarian (BG)
Default : No
Forced : No

Text #4
ID : 6
Format : UTF-8
Codec ID : S_TEXT/UTF8
Codec ID/Info : UTF-8 Plain Text
Duration : 52 min 20 s
Bit rate : 26 b/s
Frame rate : 0.133 FPS
Count of elements : 418
Stream size : 10.2 KiB (0%)
Language : Czech (CZ)
Default : No
Forced : No

Text #5
ID : 7
Format : UTF-8
Codec ID : S_TEXT/UTF8
Codec ID/Info : UTF-8 Plain Text
Duration : 52 min 20 s
Bit rate : 25 b/s
Frame rate : 0.133 FPS
Count of elements : 418
Stream size : 9.71 KiB (0%)
Language : Danish (DK)
Default : No
Forced : No

Text #6
ID : 8
Format : UTF-8
Codec ID : S_TEXT/UTF8
Codec ID/Info : UTF-8 Plain Text
Duration : 52 min 20 s
Bit rate : 45 b/s
Frame rate : 0.133 FPS
Count of elements : 419
Stream size : 17.3 KiB (0%)
Language : Greek (GR)
Default : No
Forced : No

Text #7
ID : 9
Format : UTF-8
Codec ID : S_TEXT/UTF8
Codec ID/Info : UTF-8 Plain Text
Duration : 52 min 20 s
Bit rate : 26 b/s
Frame rate : 0.133 FPS
Count of elements : 419
Stream size : 10.0 KiB (0%)
Title : Latin American
Language : Spanish (Latin America)
Default : No
Forced : No

Text #8
ID : 10
Format : UTF-8
Codec ID : S_TEXT/UTF8
Codec ID/Info : UTF-8 Plain Text
Duration : 52 min 8 s
Bit rate : 41 b/s
Frame rate : 0.190 FPS
Count of elements : 593
Stream size : 15.7 KiB (0%)
Title : Latin American (SDH)
Language : Spanish (Latin America)
Default : No
Forced : No

Text #9
ID : 11
Format : UTF-8
Codec ID : S_TEXT/UTF8
Codec ID/Info : UTF-8 Plain Text
Duration : 48 min 58 s
Bit rate : 30 b/s
Frame rate : 0.121 FPS
Count of elements : 356
Stream size : 11.0 KiB (0%)
Language : Spanish (ES)
Default : No
Forced : No

Text #10
ID : 12
Format : UTF-8
Codec ID : S_TEXT/UTF8
Codec ID/Info : UTF-8 Plain Text
Duration : 52 min 20 s
Bit rate : 28 b/s
Frame rate : 0.133 FPS
Count of elements : 419
Stream size : 10.9 KiB (0%)
Title : Estonia
Language : Estonian (EE)
Default : No
Forced : No

Text #11
ID : 13
Format : UTF-8
Codec ID : S_TEXT/UTF8
Codec ID/Info : UTF-8 Plain Text
Duration : 52 min 20 s
Bit rate : 30 b/s
Frame rate : 0.132 FPS
Count of elements : 416
Stream size : 11.6 KiB (0%)
Language : Finnish (FI)
Default : No
Forced : No

Text #12
ID : 14
Format : UTF-8
Codec ID : S_TEXT/UTF8
Codec ID/Info : UTF-8 Plain Text
Duration : 52 min 20 s
Bit rate : 24 b/s
Frame rate : 0.133 FPS
Count of elements : 418
Stream size : 9.46 KiB (0%)
Language : Croatian (HR)
Default : No
Forced : No

Text #13
ID : 15
Format : UTF-8
Codec ID : S_TEXT/UTF8
Codec ID/Info : UTF-8 Plain Text
Duration : 52 min 20 s
Bit rate : 25 b/s
Frame rate : 0.134 FPS
Count of elements : 420
Stream size : 9.88 KiB (0%)
Language : Hungarian (HU)
Default : No
Forced : No

Text #14
ID : 16
Format : UTF-8
Codec ID : S_TEXT/UTF8
Codec ID/Info : UTF-8 Plain Text
Duration : 52 min 20 s
Bit rate : 30 b/s
Frame rate : 0.132 FPS
Count of elements : 416
Stream size : 11.8 KiB (0%)
Language : Icelandic (IS)
Default : No
Forced : No

Text #15
ID : 17
Format : UTF-8
Codec ID : S_TEXT/UTF8
Codec ID/Info : UTF-8 Plain Text
Duration : 52 min 20 s
Bit rate : 27 b/s
Frame rate : 0.133 FPS
Count of elements : 419
Stream size : 10.4 KiB (0%)
Language : Lithuanian (LT)
Default : No
Forced : No

Text #16
ID : 18
Format : UTF-8
Codec ID : S_TEXT/UTF8
Codec ID/Info : UTF-8 Plain Text
Duration : 52 min 20 s
Bit rate : 28 b/s
Frame rate : 0.133 FPS
Count of elements : 419
Stream size : 11.0 KiB (0%)
Language : Latvian (LV)
Default : No
Forced : No

Text #17
ID : 19
Format : UTF-8
Codec ID : S_TEXT/UTF8
Codec ID/Info : UTF-8 Plain Text
Duration : 52 min 20 s
Bit rate : 48 b/s
Frame rate : 0.133 FPS
Count of elements : 419
Stream size : 18.8 KiB (0%)
Language : Macedonian (MK)
Default : No
Forced : No

Text #18
ID : 20
Format : UTF-8
Codec ID : S_TEXT/UTF8
Codec ID/Info : UTF-8 Plain Text
Duration : 52 min 20 s
Bit rate : 23 b/s
Frame rate : 0.130 FPS
Count of elements : 407
Stream size : 9.08 KiB (0%)
Language : Dutch (NL)
Default : No
Forced : No

Text #19
ID : 21
Format : UTF-8
Codec ID : S_TEXT/UTF8
Codec ID/Info : UTF-8 Plain Text
Duration : 52 min 20 s
Bit rate : 25 b/s
Frame rate : 0.133 FPS
Count of elements : 417
Stream size : 9.84 KiB (0%)
Language : Norwegian (NO)
Default : No
Forced : No

Text #20
ID : 22
Format : UTF-8
Codec ID : S_TEXT/UTF8
Codec ID/Info : UTF-8 Plain Text
Duration : 52 min 20 s
Bit rate : 23 b/s
Frame rate : 0.132 FPS
Count of elements : 416
Stream size : 8.98 KiB (0%)
Language : Polish (PL)
Default : No
Forced : No

Text #21
ID : 23
Format : UTF-8
Codec ID : S_TEXT/UTF8
Codec ID/Info : UTF-8 Plain Text
Duration : 52 min 20 s
Bit rate : 23 b/s
Frame rate : 0.133 FPS
Count of elements : 418
Stream size : 9.01 KiB (0%)
Title : Brazilian
Language : Portuguese (BR)
Default : No
Forced : No

Text #22
ID : 24
Format : UTF-8
Codec ID : S_TEXT/UTF8
Codec ID/Info : UTF-8 Plain Text
Duration : 52 min 20 s
Bit rate : 29 b/s
Frame rate : 0.133 FPS
Count of elements : 417
Stream size : 11.3 KiB (0%)
Language : Portuguese (PT)
Default : No
Forced : No

Text #23
ID : 25
Format : UTF-8
Codec ID : S_TEXT/UTF8
Codec ID/Info : UTF-8 Plain Text
Duration : 52 min 20 s
Bit rate : 29 b/s
Frame rate : 0.133 FPS
Count of elements : 417
Stream size : 11.1 KiB (0%)
Language : Romanian (RO)
Default : No
Forced : No

Text #24
ID : 26
Format : UTF-8
Codec ID : S_TEXT/UTF8
Codec ID/Info : UTF-8 Plain Text
Duration : 52 min 20 s
Bit rate : 42 b/s
Frame rate : 0.134 FPS
Count of elements : 420
Stream size : 16.3 KiB (0%)
Language : Russian (RU)
Default : No
Forced : No

Text #25
ID : 27
Format : UTF-8
Codec ID : S_TEXT/UTF8
Codec ID/Info : UTF-8 Plain Text
Duration : 52 min 20 s
Bit rate : 27 b/s
Frame rate : 0.133 FPS
Count of elements : 417
Stream size : 10.4 KiB (0%)
Language : Slovak (SK)
Default : No
Forced : No

Text #26
ID : 28
Format : UTF-8
Codec ID : S_TEXT/UTF8
Codec ID/Info : UTF-8 Plain Text
Duration : 52 min 20 s
Bit rate : 25 b/s
Frame rate : 0.133 FPS
Count of elements : 419
Stream size : 9.79 KiB (0%)
Language : Slovenian (SI)
Default : No
Forced : No

Text #27
ID : 29
Format : UTF-8
Codec ID : S_TEXT/UTF8
Codec ID/Info : UTF-8 Plain Text
Duration : 52 min 20 s
Bit rate : 26 b/s
Frame rate : 0.133 FPS
Count of elements : 419
Stream size : 10.2 KiB (0%)
Title : Latin,
Language : Serbian-Latn-RS
Default : No
Forced : No

Text #28
ID : 30
Format : UTF-8
Codec ID : S_TEXT/UTF8
Codec ID/Info : UTF-8 Plain Text
Duration : 52 min 20 s
Bit rate : 25 b/s
Frame rate : 0.132 FPS
Count of elements : 416
Stream size : 9.58 KiB (0%)
Language : Swedish (SE)
Default : No
Forced : No

Text #29
ID : 31
Format : UTF-8
Codec ID : S_TEXT/UTF8
Codec ID/Info : UTF-8 Plain Text
Duration : 52 min 20 s
Bit rate : 29 b/s
Frame rate : 0.133 FPS
Count of elements : 418
Stream size : 11.2 KiB (0%)
Language : Turkish (TR)
Default : No
Forced : No

Download

Direct download files get automatically deleted after a month or so. Posted on : 01/23/2023

[collapse]

Media Info and Download Links | S01E02-720p.10bit.WEBRip.2CH.x265.HEVC

General
Format : Matroska
Format version : Version 4
File size : 334 MiB
Duration : 52 min 47 s
Overall bit rate : 884 kb/s
Movie name : The.Last.of.Us.S01E02.720p.10bit.WEBRip.2CH.x265.HEVC

Video
ID : 1
Format : HEVC
Format/Info : High Efficiency Video Coding
Format profile : Main [email protected]@Main
Codec ID : V_MPEGH/ISO/HEVC
Duration : 52 min 47 s
Bit rate : 808 kb/s
Width : 1 280 pixels
Height : 720 pixels
Display aspect ratio : 16:9
Frame rate mode : Constant
Frame rate : 23.976 (24000/1001) FPS
Color space : YUV
Chroma subsampling : 4:2:0
Bit depth : 10 bits
Bits/(Pixel*Frame) : 0.037
Stream size : 305 MiB (91%)
Default : Yes
Forced : No
Color range : Limited
Color primaries : BT.709
Transfer characteristics : BT.709
Matrix coefficients : BT.709

Audio
ID : 2
Format : AAC LC SBR
Commercial name : HE-AAC
Format settings : Explicit
Codec ID : A_AAC-2
Duration : 52 min 46 s
Bit rate : 72.0 kb/s
Channel(s) : 2 channels
Channel layout : L R
Sampling rate : 48.0 kHz
Frame rate : 23.438 FPS (2048 SPF)
Compression mode : Lossy
Delay relative to video : 23 ms
Stream size : 27.2 MiB (8%)
Language : English
Default : Yes
Forced : No

Text #1
ID : 3
Format : UTF-8
Codec ID : S_TEXT/UTF8
Codec ID/Info : UTF-8 Plain Text
Duration : 48 min 57 s
Bit rate : 27 b/s
Frame rate : 0.116 FPS
Count of elements : 342
Stream size : 9.75 KiB (0%)
Language : English (US)
Default : No
Forced : No

Text #2
ID : 4
Format : UTF-8
Codec ID : S_TEXT/UTF8
Codec ID/Info : UTF-8 Plain Text
Duration : 52 min 6 s
Bit rate : 32 b/s
Frame rate : 0.165 FPS
Count of elements : 516
Stream size : 12.6 KiB (0%)
Title : SDH
Language : English (US)
Default : Yes
Forced : No

Text #3
ID : 5
Format : UTF-8
Codec ID : S_TEXT/UTF8
Codec ID/Info : UTF-8 Plain Text
Duration : 52 min 20 s
Bit rate : 43 b/s
Frame rate : 0.133 FPS
Count of elements : 419
Stream size : 16.6 KiB (0%)
Language : Bulgarian (BG)
Default : No
Forced : No

Text #4
ID : 6
Format : UTF-8
Codec ID : S_TEXT/UTF8
Codec ID/Info : UTF-8 Plain Text
Duration : 52 min 20 s
Bit rate : 26 b/s
Frame rate : 0.133 FPS
Count of elements : 418
Stream size : 10.2 KiB (0%)
Language : Czech (CZ)
Default : No
Forced : No

Text #5
ID : 7
Format : UTF-8
Codec ID : S_TEXT/UTF8
Codec ID/Info : UTF-8 Plain Text
Duration : 52 min 20 s
Bit rate : 25 b/s
Frame rate : 0.133 FPS
Count of elements : 418
Stream size : 9.71 KiB (0%)
Language : Danish (DK)
Default : No
Forced : No

Text #6
ID : 8
Format : UTF-8
Codec ID : S_TEXT/UTF8
Codec ID/Info : UTF-8 Plain Text
Duration : 52 min 20 s
Bit rate : 45 b/s
Frame rate : 0.133 FPS
Count of elements : 419
Stream size : 17.3 KiB (0%)
Language : Greek (GR)
Default : No
Forced : No

Text #7
ID : 9
Format : UTF-8
Codec ID : S_TEXT/UTF8
Codec ID/Info : UTF-8 Plain Text
Duration : 52 min 20 s
Bit rate : 26 b/s
Frame rate : 0.133 FPS
Count of elements : 419
Stream size : 10.0 KiB (0%)
Title : Latin American
Language : Spanish (Latin America)
Default : No
Forced : No

Text #8
ID : 10
Format : UTF-8
Codec ID : S_TEXT/UTF8
Codec ID/Info : UTF-8 Plain Text
Duration : 52 min 8 s
Bit rate : 41 b/s
Frame rate : 0.190 FPS
Count of elements : 593
Stream size : 15.7 KiB (0%)
Title : Latin American (SDH)
Language : Spanish (Latin America)
Default : No
Forced : No

Text #9
ID : 11
Format : UTF-8
Codec ID : S_TEXT/UTF8
Codec ID/Info : UTF-8 Plain Text
Duration : 48 min 58 s
Bit rate : 30 b/s
Frame rate : 0.121 FPS
Count of elements : 356
Stream size : 11.0 KiB (0%)
Language : Spanish (ES)
Default : No
Forced : No

Text #10
ID : 12
Format : UTF-8
Codec ID : S_TEXT/UTF8
Codec ID/Info : UTF-8 Plain Text
Duration : 52 min 20 s
Bit rate : 28 b/s
Frame rate : 0.133 FPS
Count of elements : 419
Stream size : 10.9 KiB (0%)
Title : Estonia
Language : Estonian (EE)
Default : No
Forced : No

Text #11
ID : 13
Format : UTF-8
Codec ID : S_TEXT/UTF8
Codec ID/Info : UTF-8 Plain Text
Duration : 52 min 20 s
Bit rate : 30 b/s
Frame rate : 0.132 FPS
Count of elements : 416
Stream size : 11.6 KiB (0%)
Language : Finnish (FI)
Default : No
Forced : No

Text #12
ID : 14
Format : UTF-8
Codec ID : S_TEXT/UTF8
Codec ID/Info : UTF-8 Plain Text
Duration : 52 min 20 s
Bit rate : 24 b/s
Frame rate : 0.133 FPS
Count of elements : 418
Stream size : 9.46 KiB (0%)
Language : Croatian (HR)
Default : No
Forced : No

Text #13
ID : 15
Format : UTF-8
Codec ID : S_TEXT/UTF8
Codec ID/Info : UTF-8 Plain Text
Duration : 52 min 20 s
Bit rate : 25 b/s
Frame rate : 0.134 FPS
Count of elements : 420
Stream size : 9.88 KiB (0%)
Language : Hungarian (HU)
Default : No
Forced : No

Text #14
ID : 16
Format : UTF-8
Codec ID : S_TEXT/UTF8
Codec ID/Info : UTF-8 Plain Text
Duration : 52 min 20 s
Bit rate : 30 b/s
Frame rate : 0.132 FPS
Count of elements : 416
Stream size : 11.8 KiB (0%)
Language : Icelandic (IS)
Default : No
Forced : No

Text #15
ID : 17
Format : UTF-8
Codec ID : S_TEXT/UTF8
Codec ID/Info : UTF-8 Plain Text
Duration : 52 min 20 s
Bit rate : 27 b/s
Frame rate : 0.133 FPS
Count of elements : 419
Stream size : 10.4 KiB (0%)
Language : Lithuanian (LT)
Default : No
Forced : No

Text #16
ID : 18
Format : UTF-8
Codec ID : S_TEXT/UTF8
Codec ID/Info : UTF-8 Plain Text
Duration : 52 min 20 s
Bit rate : 28 b/s
Frame rate : 0.133 FPS
Count of elements : 419
Stream size : 11.0 KiB (0%)
Language : Latvian (LV)
Default : No
Forced : No

Text #17
ID : 19
Format : UTF-8
Codec ID : S_TEXT/UTF8
Codec ID/Info : UTF-8 Plain Text
Duration : 52 min 20 s
Bit rate : 48 b/s
Frame rate : 0.133 FPS
Count of elements : 419
Stream size : 18.8 KiB (0%)
Language : Macedonian (MK)
Default : No
Forced : No

Text #18
ID : 20
Format : UTF-8
Codec ID : S_TEXT/UTF8
Codec ID/Info : UTF-8 Plain Text
Duration : 52 min 20 s
Bit rate : 23 b/s
Frame rate : 0.130 FPS
Count of elements : 407
Stream size : 9.08 KiB (0%)
Language : Dutch (NL)
Default : No
Forced : No

Text #19
ID : 21
Format : UTF-8
Codec ID : S_TEXT/UTF8
Codec ID/Info : UTF-8 Plain Text
Duration : 52 min 20 s
Bit rate : 25 b/s
Frame rate : 0.133 FPS
Count of elements : 417
Stream size : 9.84 KiB (0%)
Language : Norwegian (NO)
Default : No
Forced : No

Text #20
ID : 22
Format : UTF-8
Codec ID : S_TEXT/UTF8
Codec ID/Info : UTF-8 Plain Text
Duration : 52 min 20 s
Bit rate : 23 b/s
Frame rate : 0.132 FPS
Count of elements : 416
Stream size : 8.98 KiB (0%)
Language : Polish (PL)
Default : No
Forced : No

Text #21
ID : 23
Format : UTF-8
Codec ID : S_TEXT/UTF8
Codec ID/Info : UTF-8 Plain Text
Duration : 52 min 20 s
Bit rate : 23 b/s
Frame rate : 0.133 FPS
Count of elements : 418
Stream size : 9.01 KiB (0%)
Title : Brazilian
Language : Portuguese (BR)
Default : No
Forced : No

Text #22
ID : 24
Format : UTF-8
Codec ID : S_TEXT/UTF8
Codec ID/Info : UTF-8 Plain Text
Duration : 52 min 20 s
Bit rate : 29 b/s
Frame rate : 0.133 FPS
Count of elements : 417
Stream size : 11.3 KiB (0%)
Language : Portuguese (PT)
Default : No
Forced : No

Text #23
ID : 25
Format : UTF-8
Codec ID : S_TEXT/UTF8
Codec ID/Info : UTF-8 Plain Text
Duration : 52 min 20 s
Bit rate : 29 b/s
Frame rate : 0.133 FPS
Count of elements : 417
Stream size : 11.1 KiB (0%)
Language : Romanian (RO)
Default : No
Forced : No

Text #24
ID : 26
Format : UTF-8
Codec ID : S_TEXT/UTF8
Codec ID/Info : UTF-8 Plain Text
Duration : 52 min 20 s
Bit rate : 42 b/s
Frame rate : 0.134 FPS
Count of elements : 420
Stream size : 16.3 KiB (0%)
Language : Russian (RU)
Default : No
Forced : No

Text #25
ID : 27
Format : UTF-8
Codec ID : S_TEXT/UTF8
Codec ID/Info : UTF-8 Plain Text
Duration : 52 min 20 s
Bit rate : 27 b/s
Frame rate : 0.133 FPS
Count of elements : 417
Stream size : 10.4 KiB (0%)
Language : Slovak (SK)
Default : No
Forced : No

Text #26
ID : 28
Format : UTF-8
Codec ID : S_TEXT/UTF8
Codec ID/Info : UTF-8 Plain Text
Duration : 52 min 20 s
Bit rate : 25 b/s
Frame rate : 0.133 FPS
Count of elements : 419
Stream size : 9.79 KiB (0%)
Language : Slovenian (SI)
Default : No
Forced : No

Text #27
ID : 29
Format : UTF-8
Codec ID : S_TEXT/UTF8
Codec ID/Info : UTF-8 Plain Text
Duration : 52 min 20 s
Bit rate : 26 b/s
Frame rate : 0.133 FPS
Count of elements : 419
Stream size : 10.2 KiB (0%)
Title : Latin,
Language : Serbian-Latn-RS
Default : No
Forced : No

Text #28
ID : 30
Format : UTF-8
Codec ID : S_TEXT/UTF8
Codec ID/Info : UTF-8 Plain Text
Duration : 52 min 20 s
Bit rate : 25 b/s
Frame rate : 0.132 FPS
Count of elements : 416
Stream size : 9.58 KiB (0%)
Language : Swedish (SE)
Default : No
Forced : No

Text #29
ID : 31
Format : UTF-8
Codec ID : S_TEXT/UTF8
Codec ID/Info : UTF-8 Plain Text
Duration : 52 min 20 s
Bit rate : 29 b/s
Frame rate : 0.133 FPS
Count of elements : 418
Stream size : 11.2 KiB (0%)
Language : Turkish (TR)
Default : No
Forced : No

Download

Direct download files get automatically deleted after a month or so. Posted on : 01/23/2023

[collapse]


Media Info and Download Links | S01E01-2160p.10bit.HDR.DV.WEBRip.6CH.x265.HEVC

General
Format : Matroska
Format version : Version 4
File size : 2.07 GiB
Duration : 1 h 20 min
Overall bit rate : 3 672 kb/s
Movie name : The.Last.of.Us.S01E01.2160p.10bit.HDR.DV.WEBRip.6CH.x265.HEVC

Video
ID : 1
Format : HEVC
Format/Info : High Efficiency Video Coding
Format profile : Main [email protected]@Main
HDR format : Dolby Vision, Version 1.0, dvhe.08.06, BL+RPU, HDR10 compatible / SMPTE ST 2086, HDR10 compatible
Codec ID : V_MPEGH/ISO/HEVC
Duration : 1 h 20 min
Bit rate : 3 462 kb/s
Width : 3 840 pixels
Height : 2 160 pixels
Display aspect ratio : 16:9
Frame rate mode : Constant
Frame rate : 23.976 (24000/1001) FPS
Color space : YUV
Chroma subsampling : 4:2:0
Bit depth : 10 bits
Bits/(Pixel*Frame) : 0.017
Stream size : 1.95 GiB (94%)
Default : Yes
Forced : No
Color range : Limited
Color primaries : BT.2020
Transfer characteristics : PQ
Matrix coefficients : BT.2020 non-constant
Mastering display color primaries : BT.2020
Mastering display luminance : min: 0.0001 cd/m2, max: 1000 cd/m2
Maximum Content Light Level : 501 cd/m2
Maximum Frame-Average Light Level : 235 cd/m2

Audio
ID : 2
Format : AAC LC SBR
Commercial name : HE-AAC
Format settings : Explicit
Codec ID : A_AAC-2
Duration : 1 h 20 min
Bit rate : 204 kb/s
Channel(s) : 6 channels
Channel layout : C L R Ls Rs LFE
Sampling rate : 48.0 kHz
Frame rate : 23.438 FPS (2048 SPF)
Compression mode : Lossy
Delay relative to video : 23 ms
Stream size : 118 MiB (6%)
Language : English
Default : Yes
Forced : No

Text #1
ID : 3
Format : UTF-8
Codec ID : S_TEXT/UTF8
Codec ID/Info : UTF-8 Plain Text
Duration : 1 h 18 min
Bit rate : 49 b/s
Frame rate : 0.208 FPS
Count of elements : 982
Stream size : 28.7 KiB (0%)
Language : English (US)
Default : No
Forced : No

Text #2
ID : 4
Format : UTF-8
Codec ID : S_TEXT/UTF8
Codec ID/Info : UTF-8 Plain Text
Duration : 1 h 20 min
Bit rate : 60 b/s
Frame rate : 0.258 FPS
Count of elements : 1247
Stream size : 35.4 KiB (0%)
Title : SDH
Language : English (US)
Default : Yes
Forced : No

Text #3
ID : 5
Format : UTF-8
Codec ID : S_TEXT/UTF8
Codec ID/Info : UTF-8 Plain Text
Duration : 1 h 20 min
Bit rate : 67 b/s
Frame rate : 0.201 FPS
Count of elements : 972
Stream size : 40.1 KiB (0%)
Language : Bulgarian (BG)
Default : No
Forced : No

Text #4
ID : 6
Format : UTF-8
Codec ID : S_TEXT/UTF8
Codec ID/Info : UTF-8 Plain Text
Duration : 1 h 20 min
Bit rate : 44 b/s
Frame rate : 0.200 FPS
Count of elements : 966
Stream size : 26.0 KiB (0%)
Language : Czech (CZ)
Default : No
Forced : No

Text #5
ID : 7
Format : UTF-8
Codec ID : S_TEXT/UTF8
Codec ID/Info : UTF-8 Plain Text
Duration : 1 h 20 min
Bit rate : 39 b/s
Frame rate : 0.197 FPS
Count of elements : 949
Stream size : 23.3 KiB (0%)
Language : Danish (DK)
Default : No
Forced : No

Text #6
ID : 8
Format : UTF-8
Codec ID : S_TEXT/UTF8
Codec ID/Info : UTF-8 Plain Text
Duration : 1 h 20 min
Bit rate : 69 b/s
Frame rate : 0.202 FPS
Count of elements : 973
Stream size : 40.7 KiB (0%)
Language : Greek (GR)
Default : No
Forced : No

Text #7
ID : 9
Format : UTF-8
Codec ID : S_TEXT/UTF8
Codec ID/Info : UTF-8 Plain Text
Duration : 1 h 20 min
Bit rate : 41 b/s
Frame rate : 0.199 FPS
Count of elements : 962
Stream size : 24.5 KiB (0%)
Title : Latin American
Language : Spanish (Latin America)
Default : No
Forced : No

Text #8
ID : 10
Format : UTF-8
Codec ID : S_TEXT/UTF8
Codec ID/Info : UTF-8 Plain Text
Duration : 1 h 20 min
Bit rate : 61 b/s
Frame rate : 0.267 FPS
Count of elements : 1287
Stream size : 36.0 KiB (0%)
Title : Latin American (SDH)
Language : Spanish (Latin America)
Default : No
Forced : No

Text #9
ID : 11
Format : UTF-8
Codec ID : S_TEXT/UTF8
Codec ID/Info : UTF-8 Plain Text
Duration : 1 h 18 min
Bit rate : 49 b/s
Frame rate : 0.178 FPS
Count of elements : 839
Stream size : 28.5 KiB (0%)
Language : Spanish (ES)
Default : No
Forced : No

Text #10
ID : 12
Format : UTF-8
Codec ID : S_TEXT/UTF8
Codec ID/Info : UTF-8 Plain Text
Duration : 1 h 20 min
Bit rate : 47 b/s
Frame rate : 0.200 FPS
Count of elements : 967
Stream size : 27.7 KiB (0%)
Title : Estonia
Language : Estonian (EE)
Default : No
Forced : No

Text #11
ID : 13
Format : UTF-8
Codec ID : S_TEXT/UTF8
Codec ID/Info : UTF-8 Plain Text
Duration : 1 h 20 min
Bit rate : 47 b/s
Frame rate : 0.195 FPS
Count of elements : 942
Stream size : 27.8 KiB (0%)
Language : Finnish (FI)
Default : No
Forced : No

Text #12
ID : 14
Format : UTF-8
Codec ID : S_TEXT/UTF8
Codec ID/Info : UTF-8 Plain Text
Duration : 1 h 20 min
Bit rate : 39 b/s
Frame rate : 0.201 FPS
Count of elements : 972
Stream size : 23.3 KiB (0%)
Language : Croatian (HR)
Default : No
Forced : No

Text #13
ID : 15
Format : UTF-8
Codec ID : S_TEXT/UTF8
Codec ID/Info : UTF-8 Plain Text
Duration : 1 h 20 min
Bit rate : 41 b/s
Frame rate : 0.202 FPS
Count of elements : 977
Stream size : 24.3 KiB (0%)
Language : Hungarian (HU)
Default : No
Forced : No

Text #14
ID : 16
Format : UTF-8
Codec ID : S_TEXT/UTF8
Codec ID/Info : UTF-8 Plain Text
Duration : 1 h 20 min
Bit rate : 53 b/s
Frame rate : 0.200 FPS
Count of elements : 964
Stream size : 31.6 KiB (0%)
Language : Icelandic (IS)
Default : No
Forced : No

Text #15
ID : 17
Format : UTF-8
Codec ID : S_TEXT/UTF8
Codec ID/Info : UTF-8 Plain Text
Duration : 1 h 20 min
Bit rate : 45 b/s
Frame rate : 0.201 FPS
Count of elements : 972
Stream size : 26.9 KiB (0%)
Language : Lithuanian (LT)
Default : No
Forced : No

Text #16
ID : 18
Format : UTF-8
Codec ID : S_TEXT/UTF8
Codec ID/Info : UTF-8 Plain Text
Duration : 1 h 20 min
Bit rate : 46 b/s
Frame rate : 0.202 FPS
Count of elements : 973
Stream size : 27.3 KiB (0%)
Language : Latvian (LV)
Default : No
Forced : No

Text #17
ID : 19
Format : UTF-8
Codec ID : S_TEXT/UTF8
Codec ID/Info : UTF-8 Plain Text
Duration : 1 h 20 min
Bit rate : 81 b/s
Frame rate : 0.201 FPS
Count of elements : 969
Stream size : 48.1 KiB (0%)
Language : Macedonian (MK)
Default : No
Forced : No

Text #18
ID : 20
Format : UTF-8
Codec ID : S_TEXT/UTF8
Codec ID/Info : UTF-8 Plain Text
Duration : 1 h 20 min
Bit rate : 37 b/s
Frame rate : 0.199 FPS
Count of elements : 963
Stream size : 22.0 KiB (0%)
Language : Dutch (NL)
Default : No
Forced : No

Text #19
ID : 21
Format : UTF-8
Codec ID : S_TEXT/UTF8
Codec ID/Info : UTF-8 Plain Text
Duration : 1 h 20 min
Bit rate : 40 b/s
Frame rate : 0.199 FPS
Count of elements : 962
Stream size : 23.7 KiB (0%)
Language : Norwegian (NO)
Default : No
Forced : No

Text #20
ID : 22
Format : UTF-8
Codec ID : S_TEXT/UTF8
Codec ID/Info : UTF-8 Plain Text
Duration : 1 h 20 min
Bit rate : 35 b/s
Frame rate : 0.199 FPS
Count of elements : 959
Stream size : 21.2 KiB (0%)
Language : Polish (PL)
Default : No
Forced : No

Text #21
ID : 23
Format : UTF-8
Codec ID : S_TEXT/UTF8
Codec ID/Info : UTF-8 Plain Text
Duration : 1 h 20 min
Bit rate : 37 b/s
Frame rate : 0.200 FPS
Count of elements : 967
Stream size : 22.1 KiB (0%)
Title : Brazilian
Language : Portuguese (BR)
Default : No
Forced : No

Text #22
ID : 24
Format : UTF-8
Codec ID : S_TEXT/UTF8
Codec ID/Info : UTF-8 Plain Text
Duration : 1 h 20 min
Bit rate : 48 b/s
Frame rate : 0.201 FPS
Count of elements : 969
Stream size : 28.4 KiB (0%)
Language : Portuguese (PT)
Default : No
Forced : No

Text #23
ID : 25
Format : UTF-8
Codec ID : S_TEXT/UTF8
Codec ID/Info : UTF-8 Plain Text
Duration : 1 h 20 min
Bit rate : 48 b/s
Frame rate : 0.198 FPS
Count of elements : 956
Stream size : 28.7 KiB (0%)
Language : Romanian (RO)
Default : No
Forced : No

Text #24
ID : 26
Format : UTF-8
Codec ID : S_TEXT/UTF8
Codec ID/Info : UTF-8 Plain Text
Duration : 1 h 20 min
Bit rate : 68 b/s
Frame rate : 0.201 FPS
Count of elements : 971
Stream size : 40.6 KiB (0%)
Language : Russian (RU)
Default : No
Forced : No

Text #25
ID : 27
Format : UTF-8
Codec ID : S_TEXT/UTF8
Codec ID/Info : UTF-8 Plain Text
Duration : 1 h 20 min
Bit rate : 43 b/s
Frame rate : 0.200 FPS
Count of elements : 967
Stream size : 25.9 KiB (0%)
Language : Slovak (SK)
Default : No
Forced : No

Text #26
ID : 28
Format : UTF-8
Codec ID : S_TEXT/UTF8
Codec ID/Info : UTF-8 Plain Text
Duration : 1 h 20 min
Bit rate : 41 b/s
Frame rate : 0.200 FPS
Count of elements : 968
Stream size : 24.7 KiB (0%)
Language : Slovenian (SI)
Default : No
Forced : No

Text #27
ID : 29
Format : UTF-8
Codec ID : S_TEXT/UTF8
Codec ID/Info : UTF-8 Plain Text
Duration : 1 h 20 min
Bit rate : 42 b/s
Frame rate : 0.201 FPS
Count of elements : 971
Stream size : 25.0 KiB (0%)
Title : Latin,
Language : Serbian-Latn-RS
Default : No
Forced : No

Text #28
ID : 30
Format : UTF-8
Codec ID : S_TEXT/UTF8
Codec ID/Info : UTF-8 Plain Text
Duration : 1 h 20 min
Bit rate : 39 b/s
Frame rate : 0.198 FPS
Count of elements : 955
Stream size : 23.0 KiB (0%)
Language : Swedish (SE)
Default : No
Forced : No

Text #29
ID : 31
Format : UTF-8
Codec ID : S_TEXT/UTF8
Codec ID/Info : UTF-8 Plain Text
Duration : 1 h 20 min
Bit rate : 46 b/s
Frame rate : 0.200 FPS
Count of elements : 967
Stream size : 27.6 KiB (0%)
Language : Turkish (TR)
Default : No
Forced : No

Download

Direct download files get automatically deleted after a month or so. Posted on : 01/16/2023

[collapse]

Media Info and Download Links | S01E01-1080p.10bit.WEBRip.6CH.x265.HEVC

General
Format : Matroska
Format version : Version 4
File size : 1.02 GiB
Duration : 1 h 20 min
Overall bit rate : 1 816 kb/s
Movie name : The.Last.of.Us.S01E01.1080p.10bit.WEBRip.6CH.x265.HEVC

Video
ID : 1
Format : HEVC
Format/Info : High Efficiency Video Coding
Format profile : Main [email protected]@Main
Codec ID : V_MPEGH/ISO/HEVC
Duration : 1 h 20 min
Bit rate : 1 606 kb/s
Width : 1 920 pixels
Height : 1 080 pixels
Display aspect ratio : 16:9
Frame rate mode : Constant
Frame rate : 23.976 (24000/1001) FPS
Color space : YUV
Chroma subsampling : 4:2:0
Bit depth : 10 bits
Bits/(Pixel*Frame) : 0.032
Stream size : 928 MiB (88%)
Default : Yes
Forced : No
Color range : Limited
Color primaries : BT.709
Transfer characteristics : BT.709
Matrix coefficients : BT.709

Audio
ID : 2
Format : AAC LC SBR
Commercial name : HE-AAC
Format settings : Explicit
Codec ID : A_AAC-2
Duration : 1 h 20 min
Bit rate : 204 kb/s
Channel(s) : 6 channels
Channel layout : C L R Ls Rs LFE
Sampling rate : 48.0 kHz
Frame rate : 23.438 FPS (2048 SPF)
Compression mode : Lossy
Delay relative to video : 23 ms
Stream size : 118 MiB (11%)
Language : English
Default : Yes
Forced : No

Text #1
ID : 3
Format : UTF-8
Codec ID : S_TEXT/UTF8
Codec ID/Info : UTF-8 Plain Text
Duration : 1 h 18 min
Bit rate : 49 b/s
Frame rate : 0.208 FPS
Count of elements : 982
Stream size : 28.7 KiB (0%)
Language : English (US)
Default : No
Forced : No

Text #2
ID : 4
Format : UTF-8
Codec ID : S_TEXT/UTF8
Codec ID/Info : UTF-8 Plain Text
Duration : 1 h 20 min
Bit rate : 60 b/s
Frame rate : 0.258 FPS
Count of elements : 1247
Stream size : 35.4 KiB (0%)
Title : SDH
Language : English (US)
Default : Yes
Forced : No

Text #3
ID : 5
Format : UTF-8
Codec ID : S_TEXT/UTF8
Codec ID/Info : UTF-8 Plain Text
Duration : 1 h 20 min
Bit rate : 67 b/s
Frame rate : 0.201 FPS
Count of elements : 972
Stream size : 40.1 KiB (0%)
Language : Bulgarian (BG)
Default : No
Forced : No

Text #4
ID : 6
Format : UTF-8
Codec ID : S_TEXT/UTF8
Codec ID/Info : UTF-8 Plain Text
Duration : 1 h 20 min
Bit rate : 44 b/s
Frame rate : 0.200 FPS
Count of elements : 966
Stream size : 26.0 KiB (0%)
Language : Czech (CZ)
Default : No
Forced : No

Text #5
ID : 7
Format : UTF-8
Codec ID : S_TEXT/UTF8
Codec ID/Info : UTF-8 Plain Text
Duration : 1 h 20 min
Bit rate : 39 b/s
Frame rate : 0.197 FPS
Count of elements : 949
Stream size : 23.3 KiB (0%)
Language : Danish (DK)
Default : No
Forced : No

Text #6
ID : 8
Format : UTF-8
Codec ID : S_TEXT/UTF8
Codec ID/Info : UTF-8 Plain Text
Duration : 1 h 20 min
Bit rate : 69 b/s
Frame rate : 0.202 FPS
Count of elements : 973
Stream size : 40.7 KiB (0%)
Language : Greek (GR)
Default : No
Forced : No

Text #7
ID : 9
Format : UTF-8
Codec ID : S_TEXT/UTF8
Codec ID/Info : UTF-8 Plain Text
Duration : 1 h 20 min
Bit rate : 41 b/s
Frame rate : 0.199 FPS
Count of elements : 962
Stream size : 24.5 KiB (0%)
Title : Latin American
Language : Spanish (Latin America)
Default : No
Forced : No

Text #8
ID : 10
Format : UTF-8
Codec ID : S_TEXT/UTF8
Codec ID/Info : UTF-8 Plain Text
Duration : 1 h 20 min
Bit rate : 61 b/s
Frame rate : 0.267 FPS
Count of elements : 1287
Stream size : 36.0 KiB (0%)
Title : Latin American (SDH)
Language : Spanish (Latin America)
Default : No
Forced : No

Text #9
ID : 11
Format : UTF-8
Codec ID : S_TEXT/UTF8
Codec ID/Info : UTF-8 Plain Text
Duration : 1 h 18 min
Bit rate : 49 b/s
Frame rate : 0.178 FPS
Count of elements : 839
Stream size : 28.5 KiB (0%)
Language : Spanish (ES)
Default : No
Forced : No

Text #10
ID : 12
Format : UTF-8
Codec ID : S_TEXT/UTF8
Codec ID/Info : UTF-8 Plain Text
Duration : 1 h 20 min
Bit rate : 47 b/s
Frame rate : 0.200 FPS
Count of elements : 967
Stream size : 27.7 KiB (0%)
Title : Estonia
Language : Estonian (EE)
Default : No
Forced : No

Text #11
ID : 13
Format : UTF-8
Codec ID : S_TEXT/UTF8
Codec ID/Info : UTF-8 Plain Text
Duration : 1 h 20 min
Bit rate : 47 b/s
Frame rate : 0.195 FPS
Count of elements : 942
Stream size : 27.8 KiB (0%)
Language : Finnish (FI)
Default : No
Forced : No

Text #12
ID : 14
Format : UTF-8
Codec ID : S_TEXT/UTF8
Codec ID/Info : UTF-8 Plain Text
Duration : 1 h 20 min
Bit rate : 39 b/s
Frame rate : 0.201 FPS
Count of elements : 972
Stream size : 23.3 KiB (0%)
Language : Croatian (HR)
Default : No
Forced : No

Text #13
ID : 15
Format : UTF-8
Codec ID : S_TEXT/UTF8
Codec ID/Info : UTF-8 Plain Text
Duration : 1 h 20 min
Bit rate : 41 b/s
Frame rate : 0.202 FPS
Count of elements : 977
Stream size : 24.3 KiB (0%)
Language : Hungarian (HU)
Default : No
Forced : No

Text #14
ID : 16
Format : UTF-8
Codec ID : S_TEXT/UTF8
Codec ID/Info : UTF-8 Plain Text
Duration : 1 h 20 min
Bit rate : 53 b/s
Frame rate : 0.200 FPS
Count of elements : 964
Stream size : 31.6 KiB (0%)
Language : Icelandic (IS)
Default : No
Forced : No

Text #15
ID : 17
Format : UTF-8
Codec ID : S_TEXT/UTF8
Codec ID/Info : UTF-8 Plain Text
Duration : 1 h 20 min
Bit rate : 45 b/s
Frame rate : 0.201 FPS
Count of elements : 972
Stream size : 26.9 KiB (0%)
Language : Lithuanian (LT)
Default : No
Forced : No

Text #16
ID : 18
Format : UTF-8
Codec ID : S_TEXT/UTF8
Codec ID/Info : UTF-8 Plain Text
Duration : 1 h 20 min
Bit rate : 46 b/s
Frame rate : 0.202 FPS
Count of elements : 973
Stream size : 27.3 KiB (0%)
Language : Latvian (LV)
Default : No
Forced : No

Text #17
ID : 19
Format : UTF-8
Codec ID : S_TEXT/UTF8
Codec ID/Info : UTF-8 Plain Text
Duration : 1 h 20 min
Bit rate : 81 b/s
Frame rate : 0.201 FPS
Count of elements : 969
Stream size : 48.1 KiB (0%)
Language : Macedonian (MK)
Default : No
Forced : No

Text #18
ID : 20
Format : UTF-8
Codec ID : S_TEXT/UTF8
Codec ID/Info : UTF-8 Plain Text
Duration : 1 h 20 min
Bit rate : 37 b/s
Frame rate : 0.199 FPS
Count of elements : 963
Stream size : 22.0 KiB (0%)
Language : Dutch (NL)
Default : No
Forced : No

Text #19
ID : 21
Format : UTF-8
Codec ID : S_TEXT/UTF8
Codec ID/Info : UTF-8 Plain Text
Duration : 1 h 20 min
Bit rate : 40 b/s
Frame rate : 0.199 FPS
Count of elements : 962
Stream size : 23.7 KiB (0%)
Language : Norwegian (NO)
Default : No
Forced : No

Text #20
ID : 22
Format : UTF-8
Codec ID : S_TEXT/UTF8
Codec ID/Info : UTF-8 Plain Text
Duration : 1 h 20 min
Bit rate : 35 b/s
Frame rate : 0.199 FPS
Count of elements : 959
Stream size : 21.2 KiB (0%)
Language : Polish (PL)
Default : No
Forced : No

Text #21
ID : 23
Format : UTF-8
Codec ID : S_TEXT/UTF8
Codec ID/Info : UTF-8 Plain Text
Duration : 1 h 20 min
Bit rate : 37 b/s
Frame rate : 0.200 FPS
Count of elements : 967
Stream size : 22.1 KiB (0%)
Title : Brazilian
Language : Portuguese (BR)
Default : No
Forced : No

Text #22
ID : 24
Format : UTF-8
Codec ID : S_TEXT/UTF8
Codec ID/Info : UTF-8 Plain Text
Duration : 1 h 20 min
Bit rate : 48 b/s
Frame rate : 0.201 FPS
Count of elements : 969
Stream size : 28.4 KiB (0%)
Language : Portuguese (PT)
Default : No
Forced : No

Text #23
ID : 25
Format : UTF-8
Codec ID : S_TEXT/UTF8
Codec ID/Info : UTF-8 Plain Text
Duration : 1 h 20 min
Bit rate : 48 b/s
Frame rate : 0.198 FPS
Count of elements : 956
Stream size : 28.7 KiB (0%)
Language : Romanian (RO)
Default : No
Forced : No

Text #24
ID : 26
Format : UTF-8
Codec ID : S_TEXT/UTF8
Codec ID/Info : UTF-8 Plain Text
Duration : 1 h 20 min
Bit rate : 68 b/s
Frame rate : 0.201 FPS
Count of elements : 971
Stream size : 40.6 KiB (0%)
Language : Russian (RU)
Default : No
Forced : No

Text #25
ID : 27
Format : UTF-8
Codec ID : S_TEXT/UTF8
Codec ID/Info : UTF-8 Plain Text
Duration : 1 h 20 min
Bit rate : 43 b/s
Frame rate : 0.200 FPS
Count of elements : 967
Stream size : 25.9 KiB (0%)
Language : Slovak (SK)
Default : No
Forced : No

Text #26
ID : 28
Format : UTF-8
Codec ID : S_TEXT/UTF8
Codec ID/Info : UTF-8 Plain Text
Duration : 1 h 20 min
Bit rate : 41 b/s
Frame rate : 0.200 FPS
Count of elements : 968
Stream size : 24.7 KiB (0%)
Language : Slovenian (SI)
Default : No
Forced : No

Text #27
ID : 29
Format : UTF-8
Codec ID : S_TEXT/UTF8
Codec ID/Info : UTF-8 Plain Text
Duration : 1 h 20 min
Bit rate : 42 b/s
Frame rate : 0.201 FPS
Count of elements : 971
Stream size : 25.0 KiB (0%)
Title : Latin,
Language : Serbian-Latn-RS
Default : No
Forced : No

Text #28
ID : 30
Format : UTF-8
Codec ID : S_TEXT/UTF8
Codec ID/Info : UTF-8 Plain Text
Duration : 1 h 20 min
Bit rate : 39 b/s
Frame rate : 0.198 FPS
Count of elements : 955
Stream size : 23.0 KiB (0%)
Language : Swedish (SE)
Default : No
Forced : No

Text #29
ID : 31
Format : UTF-8
Codec ID : S_TEXT/UTF8
Codec ID/Info : UTF-8 Plain Text
Duration : 1 h 20 min
Bit rate : 46 b/s
Frame rate : 0.200 FPS
Count of elements : 967
Stream size : 27.6 KiB (0%)
Language : Turkish (TR)
Default : No
Forced : No

Download

Direct download files get automatically deleted after a month or so. Posted on : 01/16/2023

[collapse]

Media Info and Download Links | S01E01-720p.10bit.WEBRip.2CH.x265.HEVC

General
Format : Matroska
Format version : Version 4
File size : 433 MiB
Duration : 1 h 20 min
Overall bit rate : 749 kb/s
Movie name : The.Last.of.Us.S01E01.720p.10bit.WEBRip.2CH.x265.HEVC

Video
ID : 1
Format : HEVC
Format/Info : High Efficiency Video Coding
Format profile : Main [email protected]@Main
Codec ID : V_MPEGH/ISO/HEVC
Duration : 1 h 20 min
Bit rate : 675 kb/s
Width : 1 280 pixels
Height : 720 pixels
Display aspect ratio : 16:9
Frame rate mode : Constant
Frame rate : 23.976 (24000/1001) FPS
Color space : YUV
Chroma subsampling : 4:2:0
Bit depth : 10 bits
Bits/(Pixel*Frame) : 0.031
Stream size : 390 MiB (90%)
Default : Yes
Forced : No
Color range : Limited
Color primaries : BT.709
Transfer characteristics : BT.709
Matrix coefficients : BT.709

Audio
ID : 2
Format : AAC LC SBR
Commercial name : HE-AAC
Format settings : Explicit
Codec ID : A_AAC-2
Duration : 1 h 20 min
Bit rate : 68.2 kb/s
Channel(s) : 2 channels
Channel layout : L R
Sampling rate : 48.0 kHz
Frame rate : 23.438 FPS (2048 SPF)
Compression mode : Lossy
Delay relative to video : 23 ms
Stream size : 39.4 MiB (9%)
Language : English
Default : Yes
Forced : No

Text #1
ID : 3
Format : UTF-8
Codec ID : S_TEXT/UTF8
Codec ID/Info : UTF-8 Plain Text
Duration : 1 h 18 min
Bit rate : 49 b/s
Frame rate : 0.208 FPS
Count of elements : 982
Stream size : 28.7 KiB (0%)
Language : English (US)
Default : No
Forced : No

Text #2
ID : 4
Format : UTF-8
Codec ID : S_TEXT/UTF8
Codec ID/Info : UTF-8 Plain Text
Duration : 1 h 20 min
Bit rate : 60 b/s
Frame rate : 0.258 FPS
Count of elements : 1247
Stream size : 35.4 KiB (0%)
Title : SDH
Language : English (US)
Default : Yes
Forced : No

Text #3
ID : 5
Format : UTF-8
Codec ID : S_TEXT/UTF8
Codec ID/Info : UTF-8 Plain Text
Duration : 1 h 20 min
Bit rate : 67 b/s
Frame rate : 0.201 FPS
Count of elements : 972
Stream size : 40.1 KiB (0%)
Language : Bulgarian (BG)
Default : No
Forced : No

Text #4
ID : 6
Format : UTF-8
Codec ID : S_TEXT/UTF8
Codec ID/Info : UTF-8 Plain Text
Duration : 1 h 20 min
Bit rate : 44 b/s
Frame rate : 0.200 FPS
Count of elements : 966
Stream size : 26.0 KiB (0%)
Language : Czech (CZ)
Default : No
Forced : No

Text #5
ID : 7
Format : UTF-8
Codec ID : S_TEXT/UTF8
Codec ID/Info : UTF-8 Plain Text
Duration : 1 h 20 min
Bit rate : 39 b/s
Frame rate : 0.197 FPS
Count of elements : 949
Stream size : 23.3 KiB (0%)
Language : Danish (DK)
Default : No
Forced : No

Text #6
ID : 8
Format : UTF-8
Codec ID : S_TEXT/UTF8
Codec ID/Info : UTF-8 Plain Text
Duration : 1 h 20 min
Bit rate : 69 b/s
Frame rate : 0.202 FPS
Count of elements : 973
Stream size : 40.7 KiB (0%)
Language : Greek (GR)
Default : No
Forced : No

Text #7
ID : 9
Format : UTF-8
Codec ID : S_TEXT/UTF8
Codec ID/Info : UTF-8 Plain Text
Duration : 1 h 20 min
Bit rate : 41 b/s
Frame rate : 0.199 FPS
Count of elements : 962
Stream size : 24.5 KiB (0%)
Title : Latin American
Language : Spanish (Latin America)
Default : No
Forced : No

Text #8
ID : 10
Format : UTF-8
Codec ID : S_TEXT/UTF8
Codec ID/Info : UTF-8 Plain Text
Duration : 1 h 20 min
Bit rate : 61 b/s
Frame rate : 0.267 FPS
Count of elements : 1287
Stream size : 36.0 KiB (0%)
Title : Latin American (SDH)
Language : Spanish (Latin America)
Default : No
Forced : No

Text #9
ID : 11
Format : UTF-8
Codec ID : S_TEXT/UTF8
Codec ID/Info : UTF-8 Plain Text
Duration : 1 h 18 min
Bit rate : 49 b/s
Frame rate : 0.178 FPS
Count of elements : 839
Stream size : 28.5 KiB (0%)
Language : Spanish (ES)
Default : No
Forced : No

Text #10
ID : 12
Format : UTF-8
Codec ID : S_TEXT/UTF8
Codec ID/Info : UTF-8 Plain Text
Duration : 1 h 20 min
Bit rate : 47 b/s
Frame rate : 0.200 FPS
Count of elements : 967
Stream size : 27.7 KiB (0%)
Title : Estonia
Language : Estonian (EE)
Default : No
Forced : No

Text #11
ID : 13
Format : UTF-8
Codec ID : S_TEXT/UTF8
Codec ID/Info : UTF-8 Plain Text
Duration : 1 h 20 min
Bit rate : 47 b/s
Frame rate : 0.195 FPS
Count of elements : 942
Stream size : 27.8 KiB (0%)
Language : Finnish (FI)
Default : No
Forced : No

Text #12
ID : 14
Format : UTF-8
Codec ID : S_TEXT/UTF8
Codec ID/Info : UTF-8 Plain Text
Duration : 1 h 20 min
Bit rate : 39 b/s
Frame rate : 0.201 FPS
Count of elements : 972
Stream size : 23.3 KiB (0%)
Language : Croatian (HR)
Default : No
Forced : No

Text #13
ID : 15
Format : UTF-8
Codec ID : S_TEXT/UTF8
Codec ID/Info : UTF-8 Plain Text
Duration : 1 h 20 min
Bit rate : 41 b/s
Frame rate : 0.202 FPS
Count of elements : 977
Stream size : 24.3 KiB (0%)
Language : Hungarian (HU)
Default : No
Forced : No

Text #14
ID : 16
Format : UTF-8
Codec ID : S_TEXT/UTF8
Codec ID/Info : UTF-8 Plain Text
Duration : 1 h 20 min
Bit rate : 53 b/s
Frame rate : 0.200 FPS
Count of elements : 964
Stream size : 31.6 KiB (0%)
Language : Icelandic (IS)
Default : No
Forced : No

Text #15
ID : 17
Format : UTF-8
Codec ID : S_TEXT/UTF8
Codec ID/Info : UTF-8 Plain Text
Duration : 1 h 20 min
Bit rate : 45 b/s
Frame rate : 0.201 FPS
Count of elements : 972
Stream size : 26.9 KiB (0%)
Language : Lithuanian (LT)
Default : No
Forced : No

Text #16
ID : 18
Format : UTF-8
Codec ID : S_TEXT/UTF8
Codec ID/Info : UTF-8 Plain Text
Duration : 1 h 20 min
Bit rate : 46 b/s
Frame rate : 0.202 FPS
Count of elements : 973
Stream size : 27.3 KiB (0%)
Language : Latvian (LV)
Default : No
Forced : No

Text #17
ID : 19
Format : UTF-8
Codec ID : S_TEXT/UTF8
Codec ID/Info : UTF-8 Plain Text
Duration : 1 h 20 min
Bit rate : 81 b/s
Frame rate : 0.201 FPS
Count of elements : 969
Stream size : 48.1 KiB (0%)
Language : Macedonian (MK)
Default : No
Forced : No

Text #18
ID : 20
Format : UTF-8
Codec ID : S_TEXT/UTF8
Codec ID/Info : UTF-8 Plain Text
Duration : 1 h 20 min
Bit rate : 37 b/s
Frame rate : 0.199 FPS
Count of elements : 963
Stream size : 22.0 KiB (0%)
Language : Dutch (NL)
Default : No
Forced : No

Text #19
ID : 21
Format : UTF-8
Codec ID : S_TEXT/UTF8
Codec ID/Info : UTF-8 Plain Text
Duration : 1 h 20 min
Bit rate : 40 b/s
Frame rate : 0.199 FPS
Count of elements : 962
Stream size : 23.7 KiB (0%)
Language : Norwegian (NO)
Default : No
Forced : No

Text #20
ID : 22
Format : UTF-8
Codec ID : S_TEXT/UTF8
Codec ID/Info : UTF-8 Plain Text
Duration : 1 h 20 min
Bit rate : 35 b/s
Frame rate : 0.199 FPS
Count of elements : 959
Stream size : 21.2 KiB (0%)
Language : Polish (PL)
Default : No
Forced : No

Text #21
ID : 23
Format : UTF-8
Codec ID : S_TEXT/UTF8
Codec ID/Info : UTF-8 Plain Text
Duration : 1 h 20 min
Bit rate : 37 b/s
Frame rate : 0.200 FPS
Count of elements : 967
Stream size : 22.1 KiB (0%)
Title : Brazilian
Language : Portuguese (BR)
Default : No
Forced : No

Text #22
ID : 24
Format : UTF-8
Codec ID : S_TEXT/UTF8
Codec ID/Info : UTF-8 Plain Text
Duration : 1 h 20 min
Bit rate : 48 b/s
Frame rate : 0.201 FPS
Count of elements : 969
Stream size : 28.4 KiB (0%)
Language : Portuguese (PT)
Default : No
Forced : No

Text #23
ID : 25
Format : UTF-8
Codec ID : S_TEXT/UTF8
Codec ID/Info : UTF-8 Plain Text
Duration : 1 h 20 min
Bit rate : 48 b/s
Frame rate : 0.198 FPS
Count of elements : 956
Stream size : 28.7 KiB (0%)
Language : Romanian (RO)
Default : No
Forced : No

Text #24
ID : 26
Format : UTF-8
Codec ID : S_TEXT/UTF8
Codec ID/Info : UTF-8 Plain Text
Duration : 1 h 20 min
Bit rate : 68 b/s
Frame rate : 0.201 FPS
Count of elements : 971
Stream size : 40.6 KiB (0%)
Language : Russian (RU)
Default : No
Forced : No

Text #25
ID : 27
Format : UTF-8
Codec ID : S_TEXT/UTF8
Codec ID/Info : UTF-8 Plain Text
Duration : 1 h 20 min
Bit rate : 43 b/s
Frame rate : 0.200 FPS
Count of elements : 967
Stream size : 25.9 KiB (0%)
Language : Slovak (SK)
Default : No
Forced : No

Text #26
ID : 28
Format : UTF-8
Codec ID : S_TEXT/UTF8
Codec ID/Info : UTF-8 Plain Text
Duration : 1 h 20 min
Bit rate : 41 b/s
Frame rate : 0.200 FPS
Count of elements : 968
Stream size : 24.7 KiB (0%)
Language : Slovenian (SI)
Default : No
Forced : No

Text #27
ID : 29
Format : UTF-8
Codec ID : S_TEXT/UTF8
Codec ID/Info : UTF-8 Plain Text
Duration : 1 h 20 min
Bit rate : 42 b/s
Frame rate : 0.201 FPS
Count of elements : 971
Stream size : 25.0 KiB (0%)
Title : Latin,
Language : Serbian-Latn-RS
Default : No
Forced : No

Text #28
ID : 30
Format : UTF-8
Codec ID : S_TEXT/UTF8
Codec ID/Info : UTF-8 Plain Text
Duration : 1 h 20 min
Bit rate : 39 b/s
Frame rate : 0.198 FPS
Count of elements : 955
Stream size : 23.0 KiB (0%)
Language : Swedish (SE)
Default : No
Forced : No

Text #29
ID : 31
Format : UTF-8
Codec ID : S_TEXT/UTF8
Codec ID/Info : UTF-8 Plain Text
Duration : 1 h 20 min
Bit rate : 46 b/s
Frame rate : 0.200 FPS
Count of elements : 967
Stream size : 27.6 KiB (0%)
Language : Turkish (TR)
Default : No
Forced : No

Download

Direct download files get automatically deleted after a month or so. Posted on : 01/16/2023

[collapse]

You may also like...

error: nah :p~