Salem’s Lot

PG | 3h 20min | Horror | TV Mini-Series (1979)

A novelist and a young horror fan attempt to save a small New England town which has been invaded by vampires.

Watch trailer

Media information

General
Format : Matroska
Format version : Version 4
File size : 2.28 GiB
Duration : 3 h 3 min
Overall bit rate : 1 786 kb/s
Movie name : Salems.Lot.1979.1080p.10bit.BluRay.2CH.x265.HEVC

Video
ID : 1
Format : HEVC
Format/Info : High Efficiency Video Coding
Format profile : Main 10@L4@Main
Codec ID : V_MPEGH/ISO/HEVC
Duration : 3 h 3 min
Bit rate : 1 655 kb/s
Width : 1 472 pixels
Height : 1 072 pixels
Display aspect ratio : 1.373
Frame rate mode : Variable
Frame rate : 23.976 FPS
Color space : YUV
Chroma subsampling : 4:2:0 (Type 0)
Bit depth : 10 bits
Bits/(Pixel*Frame) : 0.044
Stream size : 2.12 GiB (93%)
Default : Yes
Forced : No
Color range : Limited

Audio
ID : 2
Format : AAC LC
Codec ID : A_AAC-2
Duration : 3 h 3 min
Bit rate : 128 kb/s
Channel(s) : 2 channels
Channel layout : L R
Sampling rate : 48.0 kHz
Frame rate : 46.875 FPS (1024 SPF)
Compression mode : Lossy
Stream size : 168 MiB (7%)
Language : English
Default : Yes
Forced : No

Text
ID : 3
Format : UTF-8
Codec ID : S_TEXT/UTF8
Codec ID/Info : UTF-8 Plain Text
Duration : 3 h 0 min
Bit rate : 39 b/s
Count of elements : 1934
Stream size : 52.2 KiB (0%)
Language : English
Default : Yes
Forced : No

[collapse]
Download Link(s)

Download

Direct download files get automatically deleted after a month or so. Posted on : 06/05/2021

[collapse]
Magnet Link

Magnet

Salems.Lot.1979.1080p.BluRay.x264-USURY-14.33 GB

[collapse]

You may also like...

error: nah :p~