Lisey’s Story

TV-MA | Drama, Horror, Mystery | TV Series (2021– )

A widow becomes the object of a dangerous stalker, obsessed with her husband’s work.

Watch trailer

Media Info and Download Links | S01E08

General
Format : Matroska
Format version : Version 4
File size : 267 MiB
Duration : 56 min 54 s
Overall bit rate : 656 kb/s
Movie name : Lisey’s.Story.S01E08.Lisey’s.Story.720p.10bit.WEBRip.2CH.x265.HEVC

Video
ID : 1
Format : HEVC
Format/Info : High Efficiency Video Coding
Format profile : Main [email protected]@Main
Codec ID : V_MPEGH/ISO/HEVC
Duration : 56 min 54 s
Bit rate : 580 kb/s
Width : 1 280 pixels
Height : 640 pixels
Display aspect ratio : 2.000
Frame rate mode : Constant
Frame rate : 23.976 (24000/1001) FPS
Color space : YUV
Chroma subsampling : 4:2:0
Bit depth : 10 bits
Bits/(Pixel*Frame) : 0.030
Stream size : 236 MiB (88%)
Default : Yes
Forced : No
Color range : Limited
Color primaries : BT.709
Transfer characteristics : BT.709
Matrix coefficients : BT.709

Audio
ID : 2
Format : AAC LC SBR
Commercial name : HE-AAC
Format settings : Explicit
Codec ID : A_AAC-2
Duration : 56 min 54 s
Bit rate : 72.0 kb/s
Channel(s) : 2 channels
Channel layout : L R
Sampling rate : 48.0 kHz
Frame rate : 23.438 FPS (2048 SPF)
Compression mode : Lossy
Delay relative to video : 23 ms
Stream size : 29.0 MiB (11%)
Language : English
Default : Yes
Forced : No

Text #1
ID : 3
Format : UTF-8
Codec ID : S_TEXT/UTF8
Codec ID/Info : UTF-8 Plain Text
Duration : 51 min 59 s
Bit rate : 29 b/s
Count of elements : 357
Stream size : 11.2 KiB (0%)
Title : English
Language : English
Default : No
Forced : No

Text #2
ID : 4
Format : UTF-8
Codec ID : S_TEXT/UTF8
Codec ID/Info : UTF-8 Plain Text
Duration : 52 min 46 s
Bit rate : 35 b/s
Count of elements : 469
Stream size : 13.9 KiB (0%)
Title : English SDH
Language : English
Default : Yes
Forced : No

Text #3
ID : 5
Format : UTF-8
Codec ID : S_TEXT/UTF8
Codec ID/Info : UTF-8 Plain Text
Duration : 55 min 18 s
Bit rate : 41 b/s
Count of elements : 376
Stream size : 16.8 KiB (0%)
Title : Arabic
Language : Arabic
Default : No
Forced : No

Text #4
ID : 6
Format : UTF-8
Codec ID : S_TEXT/UTF8
Codec ID/Info : UTF-8 Plain Text
Duration : 55 min 18 s
Bit rate : 40 b/s
Count of elements : 363
Stream size : 16.4 KiB (0%)
Title : Bulgarian
Language : Bulgarian
Default : No
Forced : No

Text #5
ID : 7
Format : UTF-8
Codec ID : S_TEXT/UTF8
Codec ID/Info : UTF-8 Plain Text
Duration : 55 min 27 s
Bit rate : 27 b/s
Count of elements : 378
Stream size : 11.2 KiB (0%)
Title : Cantonese
Language : Chinese
Default : No
Forced : No

Text #6
ID : 8
Format : UTF-8
Codec ID : S_TEXT/UTF8
Codec ID/Info : UTF-8 Plain Text
Duration : 55 min 27 s
Bit rate : 26 b/s
Count of elements : 378
Stream size : 10.8 KiB (0%)
Title : Traditional
Language : Chinese
Default : No
Forced : No

Text #7
ID : 9
Format : UTF-8
Codec ID : S_TEXT/UTF8
Codec ID/Info : UTF-8 Plain Text
Duration : 55 min 18 s
Bit rate : 26 b/s
Count of elements : 377
Stream size : 10.7 KiB (0%)
Title : Simplified
Language : Chinese
Default : No
Forced : No

Text #8
ID : 10
Format : UTF-8
Codec ID : S_TEXT/UTF8
Codec ID/Info : UTF-8 Plain Text
Duration : 55 min 27 s
Bit rate : 25 b/s
Count of elements : 362
Stream size : 10.3 KiB (0%)
Title : Czech
Language : Czech
Default : No
Forced : No

Text #9
ID : 11
Format : UTF-8
Codec ID : S_TEXT/UTF8
Codec ID/Info : UTF-8 Plain Text
Duration : 55 min 18 s
Bit rate : 27 b/s
Count of elements : 354
Stream size : 11.3 KiB (0%)
Title : Danish
Language : Danish
Default : No
Forced : No

Text #10
ID : 12
Format : UTF-8
Codec ID : S_TEXT/UTF8
Codec ID/Info : UTF-8 Plain Text
Duration : 55 min 18 s
Bit rate : 26 b/s
Count of elements : 333
Stream size : 10.6 KiB (0%)
Title : Dutch
Language : Dutch
Default : No
Forced : No

Text #11
ID : 13
Format : UTF-8
Codec ID : S_TEXT/UTF8
Codec ID/Info : UTF-8 Plain Text
Duration : 55 min 18 s
Bit rate : 26 b/s
Count of elements : 349
Stream size : 10.9 KiB (0%)
Title : Estonian
Language : Estonian
Default : No
Forced : No

Text #12
ID : 14
Format : UTF-8
Codec ID : S_TEXT/UTF8
Codec ID/Info : UTF-8 Plain Text
Duration : 55 min 18 s
Bit rate : 27 b/s
Count of elements : 372
Stream size : 11.2 KiB (0%)
Title : Finnish
Language : Finnish
Default : No
Forced : No

Text #13
ID : 15
Format : UTF-8
Codec ID : S_TEXT/UTF8
Codec ID/Info : UTF-8 Plain Text
Duration : 55 min 24 s
Bit rate : 25 b/s
Count of elements : 382
Stream size : 10.2 KiB (0%)
Title : French
Language : French
Default : No
Forced : No

Text #14
ID : 16
Format : UTF-8
Codec ID : S_TEXT/UTF8
Codec ID/Info : UTF-8 Plain Text
Duration : 55 min 24 s
Bit rate : 25 b/s
Count of elements : 382
Stream size : 10.2 KiB (0%)
Title : French Canadian
Language : French
Default : No
Forced : No

Text #15
ID : 17
Format : UTF-8
Codec ID : S_TEXT/UTF8
Codec ID/Info : UTF-8 Plain Text
Duration : 54 min 23 s
Bit rate : 28 b/s
Count of elements : 325
Stream size : 11.3 KiB (0%)
Title : German
Language : German
Default : No
Forced : No

Text #16
ID : 18
Format : UTF-8
Codec ID : S_TEXT/UTF8
Codec ID/Info : UTF-8 Plain Text
Duration : 55 min 27 s
Bit rate : 45 b/s
Count of elements : 373
Stream size : 18.4 KiB (0%)
Title : Greek
Language : Greek
Default : No
Forced : No

Text #17
ID : 19
Format : UTF-8
Codec ID : S_TEXT/UTF8
Codec ID/Info : UTF-8 Plain Text
Duration : 55 min 18 s
Bit rate : 38 b/s
Count of elements : 377
Stream size : 15.5 KiB (0%)
Title : Hebrew
Language : Hebrew
Default : No
Forced : No

Text #18
ID : 20
Format : UTF-8
Codec ID : S_TEXT/UTF8
Codec ID/Info : UTF-8 Plain Text
Duration : 55 min 27 s
Bit rate : 74 b/s
Count of elements : 378
Stream size : 30.4 KiB (0%)
Title : Hindi
Language : Hindi
Default : No
Forced : No

Text #19
ID : 21
Format : UTF-8
Codec ID : S_TEXT/UTF8
Codec ID/Info : UTF-8 Plain Text
Duration : 55 min 27 s
Bit rate : 27 b/s
Count of elements : 374
Stream size : 11.3 KiB (0%)
Title : Hungarian
Language : Hungarian
Default : No
Forced : No

Text #20
ID : 22
Format : UTF-8
Codec ID : S_TEXT/UTF8
Codec ID/Info : UTF-8 Plain Text
Duration : 55 min 18 s
Bit rate : 27 b/s
Count of elements : 371
Stream size : 11.0 KiB (0%)
Title : Indonesian
Language : Indonesian
Default : No
Forced : No

Text #21
ID : 23
Format : UTF-8
Codec ID : S_TEXT/UTF8
Codec ID/Info : UTF-8 Plain Text
Duration : 54 min 30 s
Bit rate : 27 b/s
Count of elements : 371
Stream size : 10.9 KiB (0%)
Title : Italian
Language : Italian
Default : No
Forced : No

Text #22
ID : 24
Format : UTF-8
Codec ID : S_TEXT/UTF8
Codec ID/Info : UTF-8 Plain Text
Duration : 55 min 27 s
Bit rate : 25 b/s
Count of elements : 392
Stream size : 10.5 KiB (0%)
Title : Japanese
Language : Japanese
Default : No
Forced : No

Text #23
ID : 25
Format : UTF-8
Codec ID : S_TEXT/UTF8
Codec ID/Info : UTF-8 Plain Text
Duration : 55 min 27 s
Bit rate : 28 b/s
Count of elements : 378
Stream size : 11.6 KiB (0%)
Title : Korean
Language : Korean
Default : No
Forced : No

Text #24
ID : 26
Format : UTF-8
Codec ID : S_TEXT/UTF8
Codec ID/Info : UTF-8 Plain Text
Duration : 55 min 18 s
Bit rate : 28 b/s
Count of elements : 374
Stream size : 11.7 KiB (0%)
Title : Latvian
Language : Latvian
Default : No
Forced : No

Text #25
ID : 27
Format : UTF-8
Codec ID : S_TEXT/UTF8
Codec ID/Info : UTF-8 Plain Text
Duration : 55 min 18 s
Bit rate : 28 b/s
Count of elements : 377
Stream size : 11.6 KiB (0%)
Title : Lithuanian
Language : Lithuanian
Default : No
Forced : No

Text #26
ID : 28
Format : UTF-8
Codec ID : S_TEXT/UTF8
Codec ID/Info : UTF-8 Plain Text
Duration : 55 min 18 s
Bit rate : 29 b/s
Count of elements : 372
Stream size : 11.8 KiB (0%)
Title : Malay
Language : Malay
Default : No
Forced : No

Text #27
ID : 29
Format : UTF-8
Codec ID : S_TEXT/UTF8
Codec ID/Info : UTF-8 Plain Text
Duration : 55 min 18 s
Bit rate : 26 b/s
Count of elements : 338
Stream size : 10.5 KiB (0%)
Title : Norwegian
Language : Norwegian
Default : No
Forced : No

Text #28
ID : 30
Format : UTF-8
Codec ID : S_TEXT/UTF8
Codec ID/Info : UTF-8 Plain Text
Duration : 55 min 27 s
Bit rate : 25 b/s
Count of elements : 367
Stream size : 10.3 KiB (0%)
Title : Polish
Language : Polish
Default : No
Forced : No

Text #29
ID : 31
Format : UTF-8
Codec ID : S_TEXT/UTF8
Codec ID/Info : UTF-8 Plain Text
Duration : 55 min 27 s
Bit rate : 27 b/s
Count of elements : 369
Stream size : 11.2 KiB (0%)
Title : Portuguese
Language : Portuguese
Default : No
Forced : No

Text #30
ID : 32
Format : UTF-8
Codec ID : S_TEXT/UTF8
Codec ID/Info : UTF-8 Plain Text
Duration : 55 min 27 s
Bit rate : 25 b/s
Count of elements : 369
Stream size : 10.4 KiB (0%)
Title : Brazilian Portuguese
Language : Portuguese
Default : No
Forced : No

Text #31
ID : 33
Format : UTF-8
Codec ID : S_TEXT/UTF8
Codec ID/Info : UTF-8 Plain Text
Duration : 55 min 27 s
Bit rate : 44 b/s
Count of elements : 360
Stream size : 18.2 KiB (0%)
Title : Russian
Language : Russian
Default : No
Forced : No

Text #32
ID : 34
Format : UTF-8
Codec ID : S_TEXT/UTF8
Codec ID/Info : UTF-8 Plain Text
Duration : 55 min 27 s
Bit rate : 27 b/s
Count of elements : 375
Stream size : 11.0 KiB (0%)
Title : Slovak
Language : Slovak
Default : No
Forced : No

Text #33
ID : 35
Format : UTF-8
Codec ID : S_TEXT/UTF8
Codec ID/Info : UTF-8 Plain Text
Duration : 55 min 18 s
Bit rate : 21 b/s
Count of elements : 324
Stream size : 8.76 KiB (0%)
Title : Slovenian
Language : Slovenian
Default : No
Forced : No

Text #34
ID : 36
Format : UTF-8
Codec ID : S_TEXT/UTF8
Codec ID/Info : UTF-8 Plain Text
Duration : 55 min 27 s
Bit rate : 26 b/s
Count of elements : 362
Stream size : 10.8 KiB (0%)
Title : European Spanish
Language : Spanish
Default : No
Forced : No

Text #35
ID : 37
Format : UTF-8
Codec ID : S_TEXT/UTF8
Codec ID/Info : UTF-8 Plain Text
Duration : 55 min 27 s
Bit rate : 26 b/s
Count of elements : 375
Stream size : 10.8 KiB (0%)
Title : Spanish
Language : Spanish
Default : No
Forced : No

Text #36
ID : 38
Format : UTF-8
Codec ID : S_TEXT/UTF8
Codec ID/Info : UTF-8 Plain Text
Duration : 55 min 18 s
Bit rate : 25 b/s
Count of elements : 362
Stream size : 10.5 KiB (0%)
Title : Swedish
Language : Swedish
Default : No
Forced : No

Text #37
ID : 39
Format : UTF-8
Codec ID : S_TEXT/UTF8
Codec ID/Info : UTF-8 Plain Text
Duration : 55 min 18 s
Bit rate : 85 b/s
Count of elements : 377
Stream size : 34.8 KiB (0%)
Title : Tamil
Language : Tamil
Default : No
Forced : No

Text #38
ID : 40
Format : UTF-8
Codec ID : S_TEXT/UTF8
Codec ID/Info : UTF-8 Plain Text
Duration : 55 min 18 s
Bit rate : 80 b/s
Count of elements : 377
Stream size : 32.4 KiB (0%)
Title : Telugu
Language : Telugu
Default : No
Forced : No

Text #39
ID : 41
Format : UTF-8
Codec ID : S_TEXT/UTF8
Codec ID/Info : UTF-8 Plain Text
Duration : 55 min 18 s
Bit rate : 72 b/s
Count of elements : 376
Stream size : 29.3 KiB (0%)
Title : Thai
Language : Thai
Default : No
Forced : No

Text #40
ID : 42
Format : UTF-8
Codec ID : S_TEXT/UTF8
Codec ID/Info : UTF-8 Plain Text
Duration : 55 min 18 s
Bit rate : 28 b/s
Count of elements : 372
Stream size : 11.5 KiB (0%)
Title : Turkish
Language : Turkish
Default : No
Forced : No

Text #41
ID : 43
Format : UTF-8
Codec ID : S_TEXT/UTF8
Codec ID/Info : UTF-8 Plain Text
Duration : 55 min 27 s
Bit rate : 39 b/s
Count of elements : 376
Stream size : 16.1 KiB (0%)
Title : Ukrainian
Language : Ukrainian
Default : No
Forced : No

Text #42
ID : 44
Format : UTF-8
Codec ID : S_TEXT/UTF8
Codec ID/Info : UTF-8 Plain Text
Duration : 55 min 27 s
Bit rate : 35 b/s
Count of elements : 374
Stream size : 14.6 KiB (0%)
Title : Vietnamese
Language : Vietnamese
Default : No
Forced : No

Download

Direct download files get automatically deleted after a month or so. Posted on : 07/16/2021

[collapse]
Media Info and Download Links | S01E07

General
Format : Matroska
Format version : Version 4
File size : 186 MiB
Duration : 48 min 47 s
Overall bit rate : 534 kb/s
Movie name : Lisey’s.Story.S01E07.No.Light.No.Spark.720p.10bit.WEBRip.2CH.x265.HEVC

Video
ID : 1
Format : HEVC
Format/Info : High Efficiency Video Coding
Format profile : Main [email protected]@Main
Codec ID : V_MPEGH/ISO/HEVC
Duration : 48 min 47 s
Bit rate : 458 kb/s
Width : 1 280 pixels
Height : 640 pixels
Display aspect ratio : 2.000
Frame rate mode : Constant
Frame rate : 23.976 (24000/1001) FPS
Color space : YUV
Chroma subsampling : 4:2:0
Bit depth : 10 bits
Bits/(Pixel*Frame) : 0.023
Stream size : 160 MiB (86%)
Default : Yes
Forced : No
Color range : Limited
Color primaries : BT.709
Transfer characteristics : BT.709
Matrix coefficients : BT.709

Audio
ID : 2
Format : AAC LC SBR
Commercial name : HE-AAC
Format settings : Explicit
Codec ID : A_AAC-2
Duration : 48 min 47 s
Bit rate : 72.0 kb/s
Channel(s) : 2 channels
Channel layout : L R
Sampling rate : 48.0 kHz
Frame rate : 23.438 FPS (2048 SPF)
Compression mode : Lossy
Delay relative to video : 23 ms
Stream size : 24.7 MiB (13%)
Language : English
Default : Yes
Forced : No

Text #1
ID : 3
Format : UTF-8
Codec ID : S_TEXT/UTF8
Codec ID/Info : UTF-8 Plain Text
Duration : 44 min 57 s
Bit rate : 35 b/s
Count of elements : 400
Stream size : 11.7 KiB (0%)
Title : English
Language : English
Default : Yes
Forced : No

Text #2
ID : 4
Format : UTF-8
Codec ID : S_TEXT/UTF8
Codec ID/Info : UTF-8 Plain Text
Duration : 47 min 11 s
Bit rate : 44 b/s
Count of elements : 410
Stream size : 15.3 KiB (0%)
Title : Arabic
Language : Arabic
Default : No
Forced : No

Text #3
ID : 5
Format : UTF-8
Codec ID : S_TEXT/UTF8
Codec ID/Info : UTF-8 Plain Text
Duration : 47 min 11 s
Bit rate : 49 b/s
Count of elements : 401
Stream size : 17.0 KiB (0%)
Title : Bulgarian
Language : Bulgarian
Default : No
Forced : No

Text #4
ID : 6
Format : UTF-8
Codec ID : S_TEXT/UTF8
Codec ID/Info : UTF-8 Plain Text
Duration : 47 min 11 s
Bit rate : 30 b/s
Count of elements : 410
Stream size : 10.6 KiB (0%)
Title : Chinese Simplified
Language : Chinese
Default : No
Forced : No

Text #5
ID : 7
Format : UTF-8
Codec ID : S_TEXT/UTF8
Codec ID/Info : UTF-8 Plain Text
Duration : 47 min 20 s
Bit rate : 31 b/s
Count of elements : 411
Stream size : 10.7 KiB (0%)
Title : Chinese Traditional
Language : Chinese
Default : No
Forced : No

Text #6
ID : 8
Format : UTF-8
Codec ID : S_TEXT/UTF8
Codec ID/Info : UTF-8 Plain Text
Duration : 47 min 20 s
Bit rate : 32 b/s
Count of elements : 411
Stream size : 11.2 KiB (0%)
Title : Chinese Yue
Language : Chinese
Default : No
Forced : No

Text #7
ID : 9
Format : UTF-8
Codec ID : S_TEXT/UTF8
Codec ID/Info : UTF-8 Plain Text
Duration : 47 min 20 s
Bit rate : 31 b/s
Count of elements : 399
Stream size : 10.9 KiB (0%)
Title : Czech
Language : Czech
Default : No
Forced : No

Text #8
ID : 10
Format : UTF-8
Codec ID : S_TEXT/UTF8
Codec ID/Info : UTF-8 Plain Text
Duration : 47 min 11 s
Bit rate : 33 b/s
Count of elements : 390
Stream size : 11.5 KiB (0%)
Title : Danish
Language : Danish
Default : No
Forced : No

Text #9
ID : 11
Format : UTF-8
Codec ID : S_TEXT/UTF8
Codec ID/Info : UTF-8 Plain Text
Duration : 47 min 11 s
Bit rate : 33 b/s
Count of elements : 374
Stream size : 11.4 KiB (0%)
Title : Dutch
Language : Dutch
Default : No
Forced : No

Text #10
ID : 12
Format : UTF-8
Codec ID : S_TEXT/UTF8
Codec ID/Info : UTF-8 Plain Text
Duration : 47 min 11 s
Bit rate : 31 b/s
Count of elements : 384
Stream size : 10.9 KiB (0%)
Title : Estonian
Language : Estonian
Default : No
Forced : No

Text #11
ID : 13
Format : UTF-8
Codec ID : S_TEXT/UTF8
Codec ID/Info : UTF-8 Plain Text
Duration : 47 min 20 s
Bit rate : 34 b/s
Count of elements : 400
Stream size : 11.9 KiB (0%)
Title : European Spanish
Language : Spanish
Default : No
Forced : No

Text #12
ID : 14
Format : UTF-8
Codec ID : S_TEXT/UTF8
Codec ID/Info : UTF-8 Plain Text
Duration : 47 min 11 s
Bit rate : 32 b/s
Count of elements : 406
Stream size : 11.2 KiB (0%)
Title : Finnish
Language : Finnish
Default : No
Forced : No

Text #13
ID : 15
Format : UTF-8
Codec ID : S_TEXT/UTF8
Codec ID/Info : UTF-8 Plain Text
Duration : 47 min 16 s
Bit rate : 34 b/s
Count of elements : 420
Stream size : 11.8 KiB (0%)
Title : French
Language : French
Default : No
Forced : No

Text #14
ID : 16
Format : UTF-8
Codec ID : S_TEXT/UTF8
Codec ID/Info : UTF-8 Plain Text
Duration : 47 min 16 s
Bit rate : 34 b/s
Count of elements : 420
Stream size : 11.8 KiB (0%)
Title : French Canadian
Language : French
Default : No
Forced : No

Text #15
ID : 17
Format : UTF-8
Codec ID : S_TEXT/UTF8
Codec ID/Info : UTF-8 Plain Text
Duration : 47 min 11 s
Bit rate : 33 b/s
Count of elements : 383
Stream size : 11.6 KiB (0%)
Title : German
Language : German
Default : No
Forced : No

Text #16
ID : 18
Format : UTF-8
Codec ID : S_TEXT/UTF8
Codec ID/Info : UTF-8 Plain Text
Duration : 47 min 20 s
Bit rate : 55 b/s
Count of elements : 407
Stream size : 19.2 KiB (0%)
Title : Greek
Language : Greek
Default : No
Forced : No

Text #17
ID : 19
Format : UTF-8
Codec ID : S_TEXT/UTF8
Codec ID/Info : UTF-8 Plain Text
Duration : 47 min 11 s
Bit rate : 45 b/s
Count of elements : 410
Stream size : 15.7 KiB (0%)
Title : Hebrew
Language : Hebrew
Default : No
Forced : No

Text #18
ID : 20
Format : UTF-8
Codec ID : S_TEXT/UTF8
Codec ID/Info : UTF-8 Plain Text
Duration : 47 min 20 s
Bit rate : 91 b/s
Count of elements : 411
Stream size : 31.6 KiB (0%)
Title : Hindi
Language : Hindi
Default : No
Forced : No

Text #19
ID : 21
Format : UTF-8
Codec ID : S_TEXT/UTF8
Codec ID/Info : UTF-8 Plain Text
Duration : 47 min 20 s
Bit rate : 33 b/s
Count of elements : 407
Stream size : 11.6 KiB (0%)
Title : Hungarian
Language : Hungarian
Default : No
Forced : No

Text #20
ID : 22
Format : UTF-8
Codec ID : S_TEXT/UTF8
Codec ID/Info : UTF-8 Plain Text
Duration : 47 min 11 s
Bit rate : 32 b/s
Count of elements : 409
Stream size : 11.2 KiB (0%)
Title : Indonesian
Language : Indonesian
Default : No
Forced : No

Text #21
ID : 23
Format : UTF-8
Codec ID : S_TEXT/UTF8
Codec ID/Info : UTF-8 Plain Text
Duration : 47 min 21 s
Bit rate : 35 b/s
Count of elements : 402
Stream size : 12.2 KiB (0%)
Title : Italian
Language : Italian
Default : No
Forced : No

Text #22
ID : 24
Format : UTF-8
Codec ID : S_TEXT/UTF8
Codec ID/Info : UTF-8 Plain Text
Duration : 47 min 20 s
Bit rate : 32 b/s
Count of elements : 421
Stream size : 11.2 KiB (0%)
Title : Japanese
Language : Japanese
Default : No
Forced : No

Text #23
ID : 25
Format : UTF-8
Codec ID : S_TEXT/UTF8
Codec ID/Info : UTF-8 Plain Text
Duration : 47 min 20 s
Bit rate : 34 b/s
Count of elements : 411
Stream size : 12.1 KiB (0%)
Title : Korean
Language : Korean
Default : No
Forced : No

Text #24
ID : 26
Format : UTF-8
Codec ID : S_TEXT/UTF8
Codec ID/Info : UTF-8 Plain Text
Duration : 47 min 20 s
Bit rate : 34 b/s
Count of elements : 410
Stream size : 12.0 KiB (0%)
Title : Latin America Spanish
Language : Spanish
Default : No
Forced : No

Text #25
ID : 27
Format : UTF-8
Codec ID : S_TEXT/UTF8
Codec ID/Info : UTF-8 Plain Text
Duration : 47 min 11 s
Bit rate : 35 b/s
Count of elements : 409
Stream size : 12.3 KiB (0%)
Title : Latvian
Language : Latvian
Default : No
Forced : No

Text #26
ID : 28
Format : UTF-8
Codec ID : S_TEXT/UTF8
Codec ID/Info : UTF-8 Plain Text
Duration : 47 min 11 s
Bit rate : 34 b/s
Count of elements : 410
Stream size : 12.0 KiB (0%)
Title : Lithuanian
Language : Lithuanian
Default : No
Forced : No

Text #27
ID : 29
Format : UTF-8
Codec ID : S_TEXT/UTF8
Codec ID/Info : UTF-8 Plain Text
Duration : 47 min 11 s
Bit rate : 34 b/s
Count of elements : 408
Stream size : 12.0 KiB (0%)
Title : Malay
Language : Malay
Default : No
Forced : No

Text #28
ID : 30
Format : UTF-8
Codec ID : S_TEXT/UTF8
Codec ID/Info : UTF-8 Plain Text
Duration : 47 min 11 s
Bit rate : 30 b/s
Count of elements : 373
Stream size : 10.5 KiB (0%)
Title : Norwegian
Language : Norwegian
Default : No
Forced : No

Text #29
ID : 31
Format : UTF-8
Codec ID : S_TEXT/UTF8
Codec ID/Info : UTF-8 Plain Text
Duration : 47 min 20 s
Bit rate : 30 b/s
Count of elements : 395
Stream size : 10.6 KiB (0%)
Title : Polish
Language : Polish
Default : No
Forced : No

Text #30
ID : 32
Format : UTF-8
Codec ID : S_TEXT/UTF8
Codec ID/Info : UTF-8 Plain Text
Duration : 47 min 20 s
Bit rate : 33 b/s
Count of elements : 407
Stream size : 11.7 KiB (0%)
Title : Portuguese
Language : Portuguese
Default : No
Forced : No

Text #31
ID : 33
Format : UTF-8
Codec ID : S_TEXT/UTF8
Codec ID/Info : UTF-8 Plain Text
Duration : 47 min 20 s
Bit rate : 31 b/s
Count of elements : 410
Stream size : 10.9 KiB (0%)
Title : Portuguese Brazilian
Language : Portuguese
Default : No
Forced : No

Text #32
ID : 34
Format : UTF-8
Codec ID : S_TEXT/UTF8
Codec ID/Info : UTF-8 Plain Text
Duration : 46 min 22 s
Bit rate : 54 b/s
Count of elements : 388
Stream size : 18.4 KiB (0%)
Title : Russian
Language : Russian
Default : No
Forced : No

Text #33
ID : 35
Format : UTF-8
Codec ID : S_TEXT/UTF8
Codec ID/Info : UTF-8 Plain Text
Duration : 47 min 20 s
Bit rate : 32 b/s
Count of elements : 406
Stream size : 11.3 KiB (0%)
Title : Slovak
Language : Slovak
Default : No
Forced : No

Text #34
ID : 36
Format : UTF-8
Codec ID : S_TEXT/UTF8
Codec ID/Info : UTF-8 Plain Text
Duration : 47 min 11 s
Bit rate : 26 b/s
Count of elements : 362
Stream size : 9.33 KiB (0%)
Title : Slovenian
Language : Slovenian
Default : No
Forced : No

Text #35
ID : 37
Format : UTF-8
Codec ID : S_TEXT/UTF8
Codec ID/Info : UTF-8 Plain Text
Duration : 47 min 11 s
Bit rate : 30 b/s
Count of elements : 405
Stream size : 10.5 KiB (0%)
Title : Swedish
Language : Swedish
Default : No
Forced : No

Text #36
ID : 38
Format : UTF-8
Codec ID : S_TEXT/UTF8
Codec ID/Info : UTF-8 Plain Text
Duration : 47 min 11 s
Bit rate : 105 b/s
Count of elements : 410
Stream size : 36.5 KiB (0%)
Title : Tamil
Language : Tamil
Default : No
Forced : No

Text #37
ID : 39
Format : UTF-8
Codec ID : S_TEXT/UTF8
Codec ID/Info : UTF-8 Plain Text
Duration : 47 min 11 s
Bit rate : 95 b/s
Count of elements : 410
Stream size : 33.2 KiB (0%)
Title : Telugu
Language : Telugu
Default : No
Forced : No

Text #38
ID : 40
Format : UTF-8
Codec ID : S_TEXT/UTF8
Codec ID/Info : UTF-8 Plain Text
Duration : 47 min 11 s
Bit rate : 87 b/s
Count of elements : 410
Stream size : 30.1 KiB (0%)
Title : Thai
Language : Thai
Default : No
Forced : No

Text #39
ID : 41
Format : UTF-8
Codec ID : S_TEXT/UTF8
Codec ID/Info : UTF-8 Plain Text
Duration : 47 min 11 s
Bit rate : 34 b/s
Count of elements : 408
Stream size : 11.8 KiB (0%)
Title : Turkish
Language : Turkish
Default : No
Forced : No

Text #40
ID : 42
Format : UTF-8
Codec ID : S_TEXT/UTF8
Codec ID/Info : UTF-8 Plain Text
Duration : 47 min 20 s
Bit rate : 48 b/s
Count of elements : 407
Stream size : 16.7 KiB (0%)
Title : Ukrainian
Language : Ukrainian
Default : No
Forced : No

Text #41
ID : 43
Format : UTF-8
Codec ID : S_TEXT/UTF8
Codec ID/Info : UTF-8 Plain Text
Duration : 47 min 20 s
Bit rate : 42 b/s
Count of elements : 410
Stream size : 14.8 KiB (0%)
Title : Vietnamese
Language : Vietnamese
Default : No
Forced : No

Download

Direct download files get automatically deleted after a month or so. Posted on : 07/09/2021

[collapse]
Media Info and Download Links | S01E06

General
Format : Matroska
Format version : Version 4
File size : 199 MiB
Duration : 46 min 55 s
Overall bit rate : 592 kb/s
Movie name : Lisey’s.Story.S01E06.Now.You.Must.Be.Still.720p.10bit.WEBRip.2CH.x265.HEVC

Video
ID : 1
Format : HEVC
Format/Info : High Efficiency Video Coding
Format profile : Main [email protected]@Main
Codec ID : V_MPEGH/ISO/HEVC
Duration : 46 min 55 s
Bit rate : 518 kb/s
Width : 1 280 pixels
Height : 640 pixels
Display aspect ratio : 2.000
Frame rate mode : Constant
Frame rate : 23.976 (24000/1001) FPS
Color space : YUV
Chroma subsampling : 4:2:0
Bit depth : 10 bits
Bits/(Pixel*Frame) : 0.026
Stream size : 174 MiB (87%)
Default : Yes
Forced : No
Color range : Limited
Color primaries : BT.709
Transfer characteristics : BT.709
Matrix coefficients : BT.709

Audio
ID : 2
Format : AAC LC SBR
Commercial name : HE-AAC
Format settings : Explicit
Codec ID : A_AAC-2
Duration : 46 min 55 s
Bit rate : 68.4 kb/s
Channel(s) : 2 channels
Channel layout : L R
Sampling rate : 48.0 kHz
Frame rate : 23.438 FPS (2048 SPF)
Compression mode : Lossy
Delay relative to video : 23 ms
Stream size : 23.0 MiB (12%)
Language : English
Default : Yes
Forced : No

Text #1
ID : 3
Format : UTF-8
Codec ID : S_TEXT/UTF8
Codec ID/Info : UTF-8 Plain Text
Duration : 42 min 46 s
Bit rate : 46 b/s
Count of elements : 412
Stream size : 14.6 KiB (0%)
Title : English
Language : English
Default : Yes
Forced : No

Text #2
ID : 4
Format : UTF-8
Codec ID : S_TEXT/UTF8
Codec ID/Info : UTF-8 Plain Text
Duration : 45 min 19 s
Bit rate : 57 b/s
Count of elements : 423
Stream size : 19.0 KiB (0%)
Title : Arabic
Language : Arabic
Default : No
Forced : No

Text #3
ID : 5
Format : UTF-8
Codec ID : S_TEXT/UTF8
Codec ID/Info : UTF-8 Plain Text
Duration : 45 min 19 s
Bit rate : 63 b/s
Count of elements : 413
Stream size : 21.1 KiB (0%)
Title : Bulgarian
Language : Bulgarian
Default : No
Forced : No

Text #4
ID : 6
Format : UTF-8
Codec ID : S_TEXT/UTF8
Codec ID/Info : UTF-8 Plain Text
Duration : 45 min 19 s
Bit rate : 39 b/s
Count of elements : 424
Stream size : 13.1 KiB (0%)
Title : Chinese Simplified
Language : Chinese
Default : No
Forced : No

Text #5
ID : 7
Format : UTF-8
Codec ID : S_TEXT/UTF8
Codec ID/Info : UTF-8 Plain Text
Duration : 45 min 28 s
Bit rate : 40 b/s
Count of elements : 425
Stream size : 13.3 KiB (0%)
Title : Chinese Traditional
Language : Chinese
Default : No
Forced : No

Text #6
ID : 8
Format : UTF-8
Codec ID : S_TEXT/UTF8
Codec ID/Info : UTF-8 Plain Text
Duration : 45 min 28 s
Bit rate : 42 b/s
Count of elements : 425
Stream size : 14.0 KiB (0%)
Title : Chinese Yue
Language : Chinese
Default : No
Forced : No

Text #7
ID : 9
Format : UTF-8
Codec ID : S_TEXT/UTF8
Codec ID/Info : UTF-8 Plain Text
Duration : 45 min 28 s
Bit rate : 38 b/s
Count of elements : 409
Stream size : 12.7 KiB (0%)
Title : Czech
Language : Czech
Default : No
Forced : No

Text #8
ID : 10
Format : UTF-8
Codec ID : S_TEXT/UTF8
Codec ID/Info : UTF-8 Plain Text
Duration : 45 min 19 s
Bit rate : 42 b/s
Count of elements : 404
Stream size : 14.1 KiB (0%)
Title : Danish
Language : Danish
Default : No
Forced : No

Text #9
ID : 11
Format : UTF-8
Codec ID : S_TEXT/UTF8
Codec ID/Info : UTF-8 Plain Text
Duration : 45 min 19 s
Bit rate : 40 b/s
Count of elements : 374
Stream size : 13.6 KiB (0%)
Title : Dutch
Language : Dutch
Default : No
Forced : No

Text #10
ID : 12
Format : UTF-8
Codec ID : S_TEXT/UTF8
Codec ID/Info : UTF-8 Plain Text
Duration : 45 min 19 s
Bit rate : 40 b/s
Count of elements : 391
Stream size : 13.3 KiB (0%)
Title : Estonian
Language : Estonian
Default : No
Forced : No

Text #11
ID : 13
Format : UTF-8
Codec ID : S_TEXT/UTF8
Codec ID/Info : UTF-8 Plain Text
Duration : 45 min 28 s
Bit rate : 43 b/s
Count of elements : 423
Stream size : 14.4 KiB (0%)
Title : European Spanish
Language : Spanish
Default : No
Forced : No

Text #12
ID : 14
Format : UTF-8
Codec ID : S_TEXT/UTF8
Codec ID/Info : UTF-8 Plain Text
Duration : 45 min 19 s
Bit rate : 42 b/s
Count of elements : 418
Stream size : 14.1 KiB (0%)
Title : Finnish
Language : Finnish
Default : No
Forced : No

Text #13
ID : 15
Format : UTF-8
Codec ID : S_TEXT/UTF8
Codec ID/Info : UTF-8 Plain Text
Duration : 45 min 24 s
Bit rate : 41 b/s
Count of elements : 424
Stream size : 14.0 KiB (0%)
Title : French
Language : French
Default : No
Forced : No

Text #14
ID : 16
Format : UTF-8
Codec ID : S_TEXT/UTF8
Codec ID/Info : UTF-8 Plain Text
Duration : 45 min 24 s
Bit rate : 41 b/s
Count of elements : 424
Stream size : 14.0 KiB (0%)
Title : French Canadian
Language : French
Default : No
Forced : No

Text #15
ID : 17
Format : UTF-8
Codec ID : S_TEXT/UTF8
Codec ID/Info : UTF-8 Plain Text
Duration : 44 min 24 s
Bit rate : 41 b/s
Count of elements : 367
Stream size : 13.6 KiB (0%)
Title : German
Language : German
Default : No
Forced : No

Text #16
ID : 18
Format : UTF-8
Codec ID : S_TEXT/UTF8
Codec ID/Info : UTF-8 Plain Text
Duration : 45 min 28 s
Bit rate : 68 b/s
Count of elements : 419
Stream size : 22.9 KiB (0%)
Title : Greek
Language : Greek
Default : No
Forced : No

Text #17
ID : 19
Format : UTF-8
Codec ID : S_TEXT/UTF8
Codec ID/Info : UTF-8 Plain Text
Duration : 45 min 19 s
Bit rate : 57 b/s
Count of elements : 424
Stream size : 19.1 KiB (0%)
Title : Hebrew
Language : Hebrew
Default : No
Forced : No

Text #18
ID : 20
Format : UTF-8
Codec ID : S_TEXT/UTF8
Codec ID/Info : UTF-8 Plain Text
Duration : 45 min 28 s
Bit rate : 116 b/s
Count of elements : 425
Stream size : 38.9 KiB (0%)
Title : Hindi
Language : Hindi
Default : No
Forced : No

Text #19
ID : 21
Format : UTF-8
Codec ID : S_TEXT/UTF8
Codec ID/Info : UTF-8 Plain Text
Duration : 45 min 28 s
Bit rate : 40 b/s
Count of elements : 423
Stream size : 13.5 KiB (0%)
Title : Hungarian
Language : Hungarian
Default : No
Forced : No

Text #20
ID : 22
Format : UTF-8
Codec ID : S_TEXT/UTF8
Codec ID/Info : UTF-8 Plain Text
Duration : 45 min 19 s
Bit rate : 41 b/s
Count of elements : 421
Stream size : 13.7 KiB (0%)
Title : Indonesian
Language : Indonesian
Default : No
Forced : No

Text #21
ID : 23
Format : UTF-8
Codec ID : S_TEXT/UTF8
Codec ID/Info : UTF-8 Plain Text
Duration : 44 min 32 s
Bit rate : 42 b/s
Count of elements : 419
Stream size : 13.8 KiB (0%)
Title : Italian
Language : Italian
Default : No
Forced : No

Text #22
ID : 24
Format : UTF-8
Codec ID : S_TEXT/UTF8
Codec ID/Info : UTF-8 Plain Text
Duration : 45 min 28 s
Bit rate : 37 b/s
Count of elements : 432
Stream size : 12.3 KiB (0%)
Title : Japanese
Language : Japanese
Default : No
Forced : No

Text #23
ID : 25
Format : UTF-8
Codec ID : S_TEXT/UTF8
Codec ID/Info : UTF-8 Plain Text
Duration : 45 min 28 s
Bit rate : 43 b/s
Count of elements : 425
Stream size : 14.5 KiB (0%)
Title : Korean
Language : Korean
Default : No
Forced : No

Text #24
ID : 26
Format : UTF-8
Codec ID : S_TEXT/UTF8
Codec ID/Info : UTF-8 Plain Text
Duration : 45 min 28 s
Bit rate : 41 b/s
Count of elements : 425
Stream size : 13.8 KiB (0%)
Title : Latin America Spanish
Language : Spanish
Default : No
Forced : No

Text #25
ID : 27
Format : UTF-8
Codec ID : S_TEXT/UTF8
Codec ID/Info : UTF-8 Plain Text
Duration : 45 min 19 s
Bit rate : 44 b/s
Count of elements : 420
Stream size : 14.8 KiB (0%)
Title : Latvian
Language : Latvian
Default : No
Forced : No

Text #26
ID : 28
Format : UTF-8
Codec ID : S_TEXT/UTF8
Codec ID/Info : UTF-8 Plain Text
Duration : 45 min 19 s
Bit rate : 43 b/s
Count of elements : 424
Stream size : 14.6 KiB (0%)
Title : Lithuanian
Language : Lithuanian
Default : No
Forced : No

Text #27
ID : 29
Format : UTF-8
Codec ID : S_TEXT/UTF8
Codec ID/Info : UTF-8 Plain Text
Duration : 45 min 19 s
Bit rate : 44 b/s
Count of elements : 422
Stream size : 14.8 KiB (0%)
Title : Malay
Language : Malay
Default : No
Forced : No

Text #28
ID : 30
Format : UTF-8
Codec ID : S_TEXT/UTF8
Codec ID/Info : UTF-8 Plain Text
Duration : 45 min 19 s
Bit rate : 38 b/s
Count of elements : 369
Stream size : 12.9 KiB (0%)
Title : Norwegian
Language : Norwegian
Default : No
Forced : No

Text #29
ID : 31
Format : UTF-8
Codec ID : S_TEXT/UTF8
Codec ID/Info : UTF-8 Plain Text
Duration : 45 min 28 s
Bit rate : 38 b/s
Count of elements : 398
Stream size : 13.0 KiB (0%)
Title : Polish
Language : Polish
Default : No
Forced : No

Text #30
ID : 32
Format : UTF-8
Codec ID : S_TEXT/UTF8
Codec ID/Info : UTF-8 Plain Text
Duration : 45 min 28 s
Bit rate : 43 b/s
Count of elements : 422
Stream size : 14.5 KiB (0%)
Title : Portuguese
Language : Portuguese
Default : No
Forced : No

Text #31
ID : 33
Format : UTF-8
Codec ID : S_TEXT/UTF8
Codec ID/Info : UTF-8 Plain Text
Duration : 45 min 28 s
Bit rate : 39 b/s
Count of elements : 423
Stream size : 13.0 KiB (0%)
Title : Portuguese Brazilian
Language : Portuguese
Default : No
Forced : No

Text #32
ID : 34
Format : UTF-8
Codec ID : S_TEXT/UTF8
Codec ID/Info : UTF-8 Plain Text
Duration : 44 min 6 s
Bit rate : 68 b/s
Count of elements : 399
Stream size : 22.1 KiB (0%)
Title : Russian
Language : Russian
Default : No
Forced : No

Text #33
ID : 35
Format : UTF-8
Codec ID : S_TEXT/UTF8
Codec ID/Info : UTF-8 Plain Text
Duration : 45 min 28 s
Bit rate : 41 b/s
Count of elements : 418
Stream size : 13.9 KiB (0%)
Title : Slovak
Language : Slovak
Default : No
Forced : No

Text #34
ID : 36
Format : UTF-8
Codec ID : S_TEXT/UTF8
Codec ID/Info : UTF-8 Plain Text
Duration : 45 min 19 s
Bit rate : 34 b/s
Count of elements : 384
Stream size : 11.4 KiB (0%)
Title : Slovenian
Language : Slovenian
Default : No
Forced : No

Text #35
ID : 37
Format : UTF-8
Codec ID : S_TEXT/UTF8
Codec ID/Info : UTF-8 Plain Text
Duration : 45 min 19 s
Bit rate : 40 b/s
Count of elements : 406
Stream size : 13.3 KiB (0%)
Title : Swedish
Language : Swedish
Default : No
Forced : No

Text #36
ID : 38
Format : UTF-8
Codec ID : S_TEXT/UTF8
Codec ID/Info : UTF-8 Plain Text
Duration : 45 min 19 s
Bit rate : 129 b/s
Count of elements : 424
Stream size : 42.9 KiB (0%)
Title : Tamil
Language : Tamil
Default : No
Forced : No

Text #37
ID : 39
Format : UTF-8
Codec ID : S_TEXT/UTF8
Codec ID/Info : UTF-8 Plain Text
Duration : 45 min 19 s
Bit rate : 124 b/s
Count of elements : 424
Stream size : 41.3 KiB (0%)
Title : Telugu
Language : Telugu
Default : No
Forced : No

Text #38
ID : 40
Format : UTF-8
Codec ID : S_TEXT/UTF8
Codec ID/Info : UTF-8 Plain Text
Duration : 45 min 19 s
Bit rate : 110 b/s
Count of elements : 424
Stream size : 36.7 KiB (0%)
Title : Thai
Language : Thai
Default : No
Forced : No

Text #39
ID : 41
Format : UTF-8
Codec ID : S_TEXT/UTF8
Codec ID/Info : UTF-8 Plain Text
Duration : 45 min 19 s
Bit rate : 43 b/s
Count of elements : 421
Stream size : 14.5 KiB (0%)
Title : Turkish
Language : Turkish
Default : No
Forced : No

Text #40
ID : 42
Format : UTF-8
Codec ID : S_TEXT/UTF8
Codec ID/Info : UTF-8 Plain Text
Duration : 45 min 28 s
Bit rate : 61 b/s
Count of elements : 425
Stream size : 20.5 KiB (0%)
Title : Ukrainian
Language : Ukrainian
Default : No
Forced : No

Text #41
ID : 43
Format : UTF-8
Codec ID : S_TEXT/UTF8
Codec ID/Info : UTF-8 Plain Text
Duration : 45 min 28 s
Bit rate : 55 b/s
Count of elements : 423
Stream size : 18.4 KiB (0%)
Title : Vietnamese
Language : Vietnamese
Default : No
Forced : No

Download

Direct download files get automatically deleted after a month or so. Posted on : 07/02/2021

[collapse]
Media Info and Download Links | S01E05

General
Format : Matroska
Format version : Version 4
File size : 205 MiB
Duration : 47 min 57 s
Overall bit rate : 598 kb/s
Movie name : Lisey’s.Story.S01E05.The.Good.Brother.720p.10bit.WEBRip.2CH.x265.HEVC

Video
ID : 1
Format : HEVC
Format/Info : High Efficiency Video Coding
Format profile : Main [email protected]@Main
Codec ID : V_MPEGH/ISO/HEVC
Duration : 47 min 57 s
Bit rate : 523 kb/s
Width : 1 280 pixels
Height : 640 pixels
Display aspect ratio : 2.000
Frame rate mode : Constant
Frame rate : 23.976 (24000/1001) FPS
Color space : YUV
Chroma subsampling : 4:2:0
Bit depth : 10 bits
Bits/(Pixel*Frame) : 0.027
Stream size : 179 MiB (87%)
Default : Yes
Forced : No
Color range : Limited
Color primaries : BT.709
Transfer characteristics : BT.709
Matrix coefficients : BT.709

Audio
ID : 2
Format : AAC LC SBR
Commercial name : HE-AAC
Format settings : Explicit
Codec ID : A_AAC-2
Duration : 47 min 57 s
Bit rate : 70.4 kb/s
Channel(s) : 2 channels
Channel layout : L R
Sampling rate : 48.0 kHz
Frame rate : 23.438 FPS (2048 SPF)
Compression mode : Lossy
Delay relative to video : 23 ms
Stream size : 24.2 MiB (12%)
Language : English
Default : Yes
Forced : No

Text #1
ID : 3
Format : UTF-8
Codec ID : S_TEXT/UTF8
Codec ID/Info : UTF-8 Plain Text
Duration : 43 min 46 s
Bit rate : 34 b/s
Count of elements : 361
Stream size : 11.1 KiB (0%)
Title : English
Language : English
Default : Yes
Forced : No

Text #2
ID : 4
Format : UTF-8
Codec ID : S_TEXT/UTF8
Codec ID/Info : UTF-8 Plain Text
Duration : 46 min 21 s
Bit rate : 41 b/s
Count of elements : 368
Stream size : 14.2 KiB (0%)
Title : Arabic
Language : Arabic
Default : No
Forced : No

Text #3
ID : 5
Format : UTF-8
Codec ID : S_TEXT/UTF8
Codec ID/Info : UTF-8 Plain Text
Duration : 46 min 21 s
Bit rate : 48 b/s
Count of elements : 359
Stream size : 16.4 KiB (0%)
Title : Bulgarian
Language : Bulgarian
Default : No
Forced : No

Text #4
ID : 6
Format : UTF-8
Codec ID : S_TEXT/UTF8
Codec ID/Info : UTF-8 Plain Text
Duration : 46 min 21 s
Bit rate : 29 b/s
Count of elements : 369
Stream size : 10.2 KiB (0%)
Title : Chinese Simplified
Language : Chinese
Default : No
Forced : No

Text #5
ID : 7
Format : UTF-8
Codec ID : S_TEXT/UTF8
Codec ID/Info : UTF-8 Plain Text
Duration : 46 min 30 s
Bit rate : 30 b/s
Count of elements : 370
Stream size : 10.3 KiB (0%)
Title : Chinese Traditional
Language : Chinese
Default : No
Forced : No

Text #6
ID : 8
Format : UTF-8
Codec ID : S_TEXT/UTF8
Codec ID/Info : UTF-8 Plain Text
Duration : 46 min 30 s
Bit rate : 30 b/s
Count of elements : 370
Stream size : 10.4 KiB (0%)
Title : Chinese Yue
Language : Chinese
Default : No
Forced : No

Text #7
ID : 9
Format : UTF-8
Codec ID : S_TEXT/UTF8
Codec ID/Info : UTF-8 Plain Text
Duration : 46 min 30 s
Bit rate : 29 b/s
Count of elements : 354
Stream size : 10.2 KiB (0%)
Title : Czech
Language : Czech
Default : No
Forced : No

Text #8
ID : 10
Format : UTF-8
Codec ID : S_TEXT/UTF8
Codec ID/Info : UTF-8 Plain Text
Duration : 46 min 21 s
Bit rate : 32 b/s
Count of elements : 351
Stream size : 11.0 KiB (0%)
Title : Danish
Language : Danish
Default : No
Forced : No

Text #9
ID : 11
Format : UTF-8
Codec ID : S_TEXT/UTF8
Codec ID/Info : UTF-8 Plain Text
Duration : 46 min 21 s
Bit rate : 31 b/s
Count of elements : 335
Stream size : 10.7 KiB (0%)
Title : Dutch
Language : Dutch
Default : No
Forced : No

Text #10
ID : 12
Format : UTF-8
Codec ID : S_TEXT/UTF8
Codec ID/Info : UTF-8 Plain Text
Duration : 46 min 21 s
Bit rate : 30 b/s
Count of elements : 358
Stream size : 10.5 KiB (0%)
Title : Estonian
Language : Estonian
Default : No
Forced : No

Text #11
ID : 13
Format : UTF-8
Codec ID : S_TEXT/UTF8
Codec ID/Info : UTF-8 Plain Text
Duration : 46 min 30 s
Bit rate : 31 b/s
Count of elements : 365
Stream size : 10.6 KiB (0%)
Title : European Spanish
Language : Spanish
Default : No
Forced : No

Text #12
ID : 14
Format : UTF-8
Codec ID : S_TEXT/UTF8
Codec ID/Info : UTF-8 Plain Text
Duration : 46 min 21 s
Bit rate : 32 b/s
Count of elements : 367
Stream size : 11.0 KiB (0%)
Title : Finnish
Language : Finnish
Default : No
Forced : No

Text #13
ID : 15
Format : UTF-8
Codec ID : S_TEXT/UTF8
Codec ID/Info : UTF-8 Plain Text
Duration : 46 min 27 s
Bit rate : 31 b/s
Count of elements : 400
Stream size : 10.7 KiB (0%)
Title : French
Language : French
Default : No
Forced : No

Text #14
ID : 16
Format : UTF-8
Codec ID : S_TEXT/UTF8
Codec ID/Info : UTF-8 Plain Text
Duration : 46 min 27 s
Bit rate : 31 b/s
Count of elements : 400
Stream size : 10.7 KiB (0%)
Title : French Canadian
Language : French
Default : No
Forced : No

Text #15
ID : 17
Format : UTF-8
Codec ID : S_TEXT/UTF8
Codec ID/Info : UTF-8 Plain Text
Duration : 46 min 18 s
Bit rate : 33 b/s
Count of elements : 351
Stream size : 11.2 KiB (0%)
Title : German
Language : German
Default : No
Forced : No

Text #16
ID : 18
Format : UTF-8
Codec ID : S_TEXT/UTF8
Codec ID/Info : UTF-8 Plain Text
Duration : 46 min 30 s
Bit rate : 52 b/s
Count of elements : 366
Stream size : 17.8 KiB (0%)
Title : Greek
Language : Greek
Default : No
Forced : No

Text #17
ID : 19
Format : UTF-8
Codec ID : S_TEXT/UTF8
Codec ID/Info : UTF-8 Plain Text
Duration : 46 min 21 s
Bit rate : 43 b/s
Count of elements : 369
Stream size : 14.9 KiB (0%)
Title : Hebrew
Language : Hebrew
Default : No
Forced : No

Text #18
ID : 20
Format : UTF-8
Codec ID : S_TEXT/UTF8
Codec ID/Info : UTF-8 Plain Text
Duration : 46 min 30 s
Bit rate : 86 b/s
Count of elements : 370
Stream size : 29.5 KiB (0%)
Title : Hindi
Language : Hindi
Default : No
Forced : No

Text #19
ID : 21
Format : UTF-8
Codec ID : S_TEXT/UTF8
Codec ID/Info : UTF-8 Plain Text
Duration : 46 min 30 s
Bit rate : 31 b/s
Count of elements : 368
Stream size : 10.6 KiB (0%)
Title : Hungarian
Language : Hungarian
Default : No
Forced : No

Text #20
ID : 22
Format : UTF-8
Codec ID : S_TEXT/UTF8
Codec ID/Info : UTF-8 Plain Text
Duration : 46 min 21 s
Bit rate : 31 b/s
Count of elements : 366
Stream size : 10.6 KiB (0%)
Title : Indonesian
Language : Indonesian
Default : No
Forced : No

Text #21
ID : 23
Format : UTF-8
Codec ID : S_TEXT/UTF8
Codec ID/Info : UTF-8 Plain Text
Duration : 46 min 27 s
Bit rate : 33 b/s
Count of elements : 367
Stream size : 11.5 KiB (0%)
Title : Italian
Language : Italian
Default : No
Forced : No

Text #22
ID : 24
Format : UTF-8
Codec ID : S_TEXT/UTF8
Codec ID/Info : UTF-8 Plain Text
Duration : 46 min 30 s
Bit rate : 29 b/s
Count of elements : 379
Stream size : 10.0 KiB (0%)
Title : Japanese
Language : Japanese
Default : No
Forced : No

Text #23
ID : 25
Format : UTF-8
Codec ID : S_TEXT/UTF8
Codec ID/Info : UTF-8 Plain Text
Duration : 46 min 30 s
Bit rate : 32 b/s
Count of elements : 370
Stream size : 11.1 KiB (0%)
Title : Korean
Language : Korean
Default : No
Forced : No

Text #24
ID : 26
Format : UTF-8
Codec ID : S_TEXT/UTF8
Codec ID/Info : UTF-8 Plain Text
Duration : 46 min 30 s
Bit rate : 31 b/s
Count of elements : 371
Stream size : 10.7 KiB (0%)
Title : Latin America Spanish
Language : Spanish
Default : No
Forced : No

Text #25
ID : 27
Format : UTF-8
Codec ID : S_TEXT/UTF8
Codec ID/Info : UTF-8 Plain Text
Duration : 46 min 21 s
Bit rate : 34 b/s
Count of elements : 367
Stream size : 11.5 KiB (0%)
Title : Latvian
Language : Latvian
Default : No
Forced : No

Text #26
ID : 28
Format : UTF-8
Codec ID : S_TEXT/UTF8
Codec ID/Info : UTF-8 Plain Text
Duration : 46 min 21 s
Bit rate : 32 b/s
Count of elements : 369
Stream size : 10.9 KiB (0%)
Title : Lithuanian
Language : Lithuanian
Default : No
Forced : No

Text #27
ID : 29
Format : UTF-8
Codec ID : S_TEXT/UTF8
Codec ID/Info : UTF-8 Plain Text
Duration : 46 min 21 s
Bit rate : 33 b/s
Count of elements : 367
Stream size : 11.2 KiB (0%)
Title : Malay
Language : Malay
Default : No
Forced : No

Text #28
ID : 30
Format : UTF-8
Codec ID : S_TEXT/UTF8
Codec ID/Info : UTF-8 Plain Text
Duration : 46 min 21 s
Bit rate : 30 b/s
Count of elements : 339
Stream size : 10.5 KiB (0%)
Title : Norwegian
Language : Norwegian
Default : No
Forced : No

Text #29
ID : 31
Format : UTF-8
Codec ID : S_TEXT/UTF8
Codec ID/Info : UTF-8 Plain Text
Duration : 46 min 30 s
Bit rate : 30 b/s
Count of elements : 360
Stream size : 10.3 KiB (0%)
Title : Polish
Language : Polish
Default : No
Forced : No

Text #30
ID : 32
Format : UTF-8
Codec ID : S_TEXT/UTF8
Codec ID/Info : UTF-8 Plain Text
Duration : 46 min 30 s
Bit rate : 33 b/s
Count of elements : 365
Stream size : 11.4 KiB (0%)
Title : Portuguese
Language : Portuguese
Default : No
Forced : No

Text #31
ID : 33
Format : UTF-8
Codec ID : S_TEXT/UTF8
Codec ID/Info : UTF-8 Plain Text
Duration : 46 min 30 s
Bit rate : 30 b/s
Count of elements : 367
Stream size : 10.4 KiB (0%)
Title : Portuguese Brazilian
Language : Portuguese
Default : No
Forced : No

Text #32
ID : 34
Format : UTF-8
Codec ID : S_TEXT/UTF8
Codec ID/Info : UTF-8 Plain Text
Duration : 46 min 30 s
Bit rate : 50 b/s
Count of elements : 364
Stream size : 17.3 KiB (0%)
Title : Russian
Language : Russian
Default : No
Forced : No

Text #33
ID : 35
Format : UTF-8
Codec ID : S_TEXT/UTF8
Codec ID/Info : UTF-8 Plain Text
Duration : 46 min 30 s
Bit rate : 31 b/s
Count of elements : 368
Stream size : 10.6 KiB (0%)
Title : Slovak
Language : Slovak
Default : No
Forced : No

Text #34
ID : 36
Format : UTF-8
Codec ID : S_TEXT/UTF8
Codec ID/Info : UTF-8 Plain Text
Duration : 46 min 21 s
Bit rate : 26 b/s
Count of elements : 332
Stream size : 8.97 KiB (0%)
Title : Slovenian
Language : Slovenian
Default : No
Forced : No

Text #35
ID : 37
Format : UTF-8
Codec ID : S_TEXT/UTF8
Codec ID/Info : UTF-8 Plain Text
Duration : 46 min 21 s
Bit rate : 31 b/s
Count of elements : 357
Stream size : 10.6 KiB (0%)
Title : Swedish
Language : Swedish
Default : No
Forced : No

Text #36
ID : 38
Format : UTF-8
Codec ID : S_TEXT/UTF8
Codec ID/Info : UTF-8 Plain Text
Duration : 46 min 21 s
Bit rate : 96 b/s
Count of elements : 369
Stream size : 32.9 KiB (0%)
Title : Tamil
Language : Tamil
Default : No
Forced : No

Text #37
ID : 39
Format : UTF-8
Codec ID : S_TEXT/UTF8
Codec ID/Info : UTF-8 Plain Text
Duration : 46 min 21 s
Bit rate : 89 b/s
Count of elements : 369
Stream size : 30.5 KiB (0%)
Title : Telugu
Language : Telugu
Default : No
Forced : No

Text #38
ID : 40
Format : UTF-8
Codec ID : S_TEXT/UTF8
Codec ID/Info : UTF-8 Plain Text
Duration : 46 min 21 s
Bit rate : 83 b/s
Count of elements : 369
Stream size : 28.3 KiB (0%)
Title : Thai
Language : Thai
Default : No
Forced : No

Text #39
ID : 41
Format : UTF-8
Codec ID : S_TEXT/UTF8
Codec ID/Info : UTF-8 Plain Text
Duration : 46 min 21 s
Bit rate : 31 b/s
Count of elements : 367
Stream size : 10.9 KiB (0%)
Title : Turkish
Language : Turkish
Default : No
Forced : No

Text #40
ID : 42
Format : UTF-8
Codec ID : S_TEXT/UTF8
Codec ID/Info : UTF-8 Plain Text
Duration : 46 min 30 s
Bit rate : 46 b/s
Count of elements : 369
Stream size : 15.8 KiB (0%)
Title : Ukrainian
Language : Ukrainian
Default : No
Forced : No

Text #41
ID : 43
Format : UTF-8
Codec ID : S_TEXT/UTF8
Codec ID/Info : UTF-8 Plain Text
Duration : 46 min 30 s
Bit rate : 39 b/s
Count of elements : 368
Stream size : 13.6 KiB (0%)
Title : Vietnamese
Language : Vietnamese
Default : No
Forced : No

Download

Direct download files get automatically deleted after a month or so. Posted on : 06/25/2021

[collapse]
Media Info and Download Links | S01E04

General
Format : Matroska
Format version : Version 4
File size : 159 MiB
Duration : 50 min 41 s
Overall bit rate : 440 kb/s
Movie name : Lisey’s.Story.S01E04.Jim.Dandy.720p.10bit.WEBRip.2CH.x265.HEVC

Video
ID : 1
Format : HEVC
Format/Info : High Efficiency Video Coding
Format profile : Main [email protected]@Main
Codec ID : V_MPEGH/ISO/HEVC
Duration : 50 min 41 s
Bit rate : 364 kb/s
Width : 1 280 pixels
Height : 640 pixels
Display aspect ratio : 2.000
Frame rate mode : Constant
Frame rate : 23.976 (24000/1001) FPS
Color space : YUV
Chroma subsampling : 4:2:0
Bit depth : 10 bits
Bits/(Pixel*Frame) : 0.019
Stream size : 132 MiB (83%)
Default : Yes
Forced : No
Color range : Limited
Color primaries : BT.709
Transfer characteristics : BT.709
Matrix coefficients : BT.709

Audio
ID : 2
Format : AAC LC SBR
Commercial name : HE-AAC
Format settings : Explicit
Codec ID : A_AAC-2
Duration : 50 min 41 s
Bit rate : 70.1 kb/s
Channel(s) : 2 channels
Channel layout : L R
Sampling rate : 48.0 kHz
Frame rate : 23.438 FPS (2048 SPF)
Compression mode : Lossy
Delay relative to video : 23 ms
Stream size : 25.4 MiB (16%)
Language : English
Default : Yes
Forced : No

Text #1
ID : 3
Format : UTF-8
Codec ID : S_TEXT/UTF8
Codec ID/Info : UTF-8 Plain Text
Duration : 46 min 25 s
Bit rate : 40 b/s
Count of elements : 420
Stream size : 13.7 KiB (0%)
Language : English
Default : No
Forced : No

Text #2
ID : 4
Format : UTF-8
Codec ID : S_TEXT/UTF8
Codec ID/Info : UTF-8 Plain Text
Duration : 46 min 25 s
Bit rate : 41 b/s
Count of elements : 422
Stream size : 14.0 KiB (0%)
Title : SDH
Language : English
Default : Yes
Forced : No

Text #3
ID : 5
Format : UTF-8
Codec ID : S_TEXT/UTF8
Codec ID/Info : UTF-8 Plain Text
Duration : 46 min 38 s
Bit rate : 46 b/s
Count of elements : 518
Stream size : 15.9 KiB (0%)
Title : SDH
Language : English
Default : No
Forced : No

Text #4
ID : 6
Format : UTF-8
Codec ID : S_TEXT/UTF8
Codec ID/Info : UTF-8 Plain Text
Duration : 49 min 6 s
Bit rate : 48 b/s
Count of elements : 429
Stream size : 17.3 KiB (0%)
Language : Arabic
Default : No
Forced : No

Text #5
ID : 7
Format : UTF-8
Codec ID : S_TEXT/UTF8
Codec ID/Info : UTF-8 Plain Text
Duration : 49 min 6 s
Bit rate : 54 b/s
Count of elements : 419
Stream size : 19.8 KiB (0%)
Language : Bulgarian
Default : No
Forced : No

Text #6
ID : 8
Format : UTF-8
Codec ID : S_TEXT/UTF8
Codec ID/Info : UTF-8 Plain Text
Duration : 49 min 6 s
Bit rate : 33 b/s
Count of elements : 431
Stream size : 11.9 KiB (0%)
Title : Simplified Mandarin
Default : No
Forced : No

Text #7
ID : 9
Format : UTF-8
Codec ID : S_TEXT/UTF8
Codec ID/Info : UTF-8 Plain Text
Duration : 49 min 14 s
Bit rate : 32 b/s
Count of elements : 432
Stream size : 11.6 KiB (0%)
Title : Traditional Mandarin
Default : No
Forced : No

Text #8
ID : 10
Format : UTF-8
Codec ID : S_TEXT/UTF8
Codec ID/Info : UTF-8 Plain Text
Duration : 49 min 14 s
Bit rate : 35 b/s
Count of elements : 414
Stream size : 12.6 KiB (0%)
Language : Czech
Default : No
Forced : No

Text #9
ID : 11
Format : UTF-8
Codec ID : S_TEXT/UTF8
Codec ID/Info : UTF-8 Plain Text
Duration : 49 min 6 s
Bit rate : 38 b/s
Count of elements : 417
Stream size : 13.8 KiB (0%)
Language : Danish
Default : No
Forced : No

Text #10
ID : 12
Format : UTF-8
Codec ID : S_TEXT/UTF8
Codec ID/Info : UTF-8 Plain Text
Duration : 48 min 10 s
Bit rate : 39 b/s
Count of elements : 398
Stream size : 13.9 KiB (0%)
Language : German
Default : No
Forced : No

Text #11
ID : 13
Format : UTF-8
Codec ID : S_TEXT/UTF8
Codec ID/Info : UTF-8 Plain Text
Duration : 49 min 14 s
Bit rate : 61 b/s
Count of elements : 423
Stream size : 22.1 KiB (0%)
Language : Greek
Default : No
Forced : No

Text #12
ID : 14
Format : UTF-8
Codec ID : S_TEXT/UTF8
Codec ID/Info : UTF-8 Plain Text
Duration : 49 min 14 s
Bit rate : 37 b/s
Count of elements : 430
Stream size : 13.3 KiB (0%)
Title : Latin America
Language : Spanish
Default : No
Forced : No

Text #13
ID : 15
Format : UTF-8
Codec ID : S_TEXT/UTF8
Codec ID/Info : UTF-8 Plain Text
Duration : 49 min 14 s
Bit rate : 34 b/s
Count of elements : 402
Stream size : 12.4 KiB (0%)
Title : Spain
Language : Spanish
Default : No
Forced : No

Text #14
ID : 16
Format : UTF-8
Codec ID : S_TEXT/UTF8
Codec ID/Info : UTF-8 Plain Text
Duration : 49 min 6 s
Bit rate : 36 b/s
Count of elements : 403
Stream size : 13.1 KiB (0%)
Language : Estonian
Default : No
Forced : No

Text #15
ID : 17
Format : UTF-8
Codec ID : S_TEXT/UTF8
Codec ID/Info : UTF-8 Plain Text
Duration : 49 min 6 s
Bit rate : 38 b/s
Count of elements : 428
Stream size : 13.7 KiB (0%)
Language : Finnish
Default : No
Forced : No

Text #16
ID : 18
Format : UTF-8
Codec ID : S_TEXT/UTF8
Codec ID/Info : UTF-8 Plain Text
Duration : 48 min 19 s
Bit rate : 37 b/s
Count of elements : 440
Stream size : 13.4 KiB (0%)
Title : Canada
Language : French
Default : No
Forced : No

Text #17
ID : 19
Format : UTF-8
Codec ID : S_TEXT/UTF8
Codec ID/Info : UTF-8 Plain Text
Duration : 48 min 19 s
Bit rate : 37 b/s
Count of elements : 440
Stream size : 13.4 KiB (0%)
Title : France
Language : French
Default : No
Forced : No

Text #18
ID : 20
Format : UTF-8
Codec ID : S_TEXT/UTF8
Codec ID/Info : UTF-8 Plain Text
Duration : 49 min 6 s
Bit rate : 49 b/s
Count of elements : 432
Stream size : 17.8 KiB (0%)
Language : Hebrew
Default : No
Forced : No

Text #19
ID : 21
Format : UTF-8
Codec ID : S_TEXT/UTF8
Codec ID/Info : UTF-8 Plain Text
Duration : 49 min 14 s
Bit rate : 100 b/s
Count of elements : 433
Stream size : 36.4 KiB (0%)
Language : Hindi
Default : No
Forced : No

Text #20
ID : 22
Format : UTF-8
Codec ID : S_TEXT/UTF8
Codec ID/Info : UTF-8 Plain Text
Duration : 49 min 14 s
Bit rate : 37 b/s
Count of elements : 433
Stream size : 13.4 KiB (0%)
Language : Hungarian
Default : No
Forced : No

Text #21
ID : 23
Format : UTF-8
Codec ID : S_TEXT/UTF8
Codec ID/Info : UTF-8 Plain Text
Duration : 49 min 6 s
Bit rate : 38 b/s
Count of elements : 431
Stream size : 13.7 KiB (0%)
Language : Indonesian
Default : No
Forced : No

Text #22
ID : 24
Format : UTF-8
Codec ID : S_TEXT/UTF8
Codec ID/Info : UTF-8 Plain Text
Duration : 49 min 14 s
Bit rate : 37 b/s
Count of elements : 427
Stream size : 13.4 KiB (0%)
Language : Italian
Default : No
Forced : No

Text #23
ID : 25
Format : UTF-8
Codec ID : S_TEXT/UTF8
Codec ID/Info : UTF-8 Plain Text
Duration : 49 min 14 s
Bit rate : 33 b/s
Count of elements : 439
Stream size : 12.1 KiB (0%)
Language : Japanese
Default : No
Forced : No

Text #24
ID : 26
Format : UTF-8
Codec ID : S_TEXT/UTF8
Codec ID/Info : UTF-8 Plain Text
Duration : 49 min 14 s
Bit rate : 37 b/s
Count of elements : 433
Stream size : 13.6 KiB (0%)
Language : Korean
Default : No
Forced : No

Text #25
ID : 27
Format : UTF-8
Codec ID : S_TEXT/UTF8
Codec ID/Info : UTF-8 Plain Text
Duration : 49 min 6 s
Bit rate : 37 b/s
Count of elements : 431
Stream size : 13.6 KiB (0%)
Language : Lithuanian
Default : No
Forced : No

Text #26
ID : 28
Format : UTF-8
Codec ID : S_TEXT/UTF8
Codec ID/Info : UTF-8 Plain Text
Duration : 49 min 6 s
Bit rate : 39 b/s
Count of elements : 427
Stream size : 14.1 KiB (0%)
Language : Latvian
Default : No
Forced : No

Text #27
ID : 29
Format : UTF-8
Codec ID : S_TEXT/UTF8
Codec ID/Info : UTF-8 Plain Text
Duration : 49 min 6 s
Bit rate : 39 b/s
Count of elements : 432
Stream size : 14.2 KiB (0%)
Language : Malay
Default : No
Forced : No

Text #28
ID : 30
Format : UTF-8
Codec ID : S_TEXT/UTF8
Codec ID/Info : UTF-8 Plain Text
Duration : 49 min 6 s
Bit rate : 32 b/s
Count of elements : 364
Stream size : 11.6 KiB (0%)
Language : Dutch
Default : No
Forced : No

Text #29
ID : 31
Format : UTF-8
Codec ID : S_TEXT/UTF8
Codec ID/Info : UTF-8 Plain Text
Duration : 49 min 6 s
Bit rate : 32 b/s
Count of elements : 371
Stream size : 11.6 KiB (0%)
Language : Norwegian
Default : No
Forced : No

Text #30
ID : 32
Format : UTF-8
Codec ID : S_TEXT/UTF8
Codec ID/Info : UTF-8 Plain Text
Duration : 49 min 14 s
Bit rate : 34 b/s
Count of elements : 414
Stream size : 12.6 KiB (0%)
Language : Polish
Default : No
Forced : No

Text #31
ID : 33
Format : UTF-8
Codec ID : S_TEXT/UTF8
Codec ID/Info : UTF-8 Plain Text
Duration : 49 min 14 s
Bit rate : 38 b/s
Count of elements : 429
Stream size : 13.8 KiB (0%)
Title : Portuguese
Language : Portuguese
Default : No
Forced : No

Text #32
ID : 34
Format : UTF-8
Codec ID : S_TEXT/UTF8
Codec ID/Info : UTF-8 Plain Text
Duration : 49 min 14 s
Bit rate : 34 b/s
Count of elements : 429
Stream size : 12.6 KiB (0%)
Title : Brazil
Language : Portuguese
Default : No
Forced : No

Text #33
ID : 35
Format : UTF-8
Codec ID : S_TEXT/UTF8
Codec ID/Info : UTF-8 Plain Text
Duration : 47 min 26 s
Bit rate : 60 b/s
Count of elements : 417
Stream size : 20.9 KiB (0%)
Language : Russian
Default : No
Forced : No

Text #34
ID : 36
Format : UTF-8
Codec ID : S_TEXT/UTF8
Codec ID/Info : UTF-8 Plain Text
Duration : 49 min 14 s
Bit rate : 36 b/s
Count of elements : 433
Stream size : 13.1 KiB (0%)
Language : Slovak
Default : No
Forced : No

Text #35
ID : 37
Format : UTF-8
Codec ID : S_TEXT/UTF8
Codec ID/Info : UTF-8 Plain Text
Duration : 49 min 6 s
Bit rate : 30 b/s
Count of elements : 379
Stream size : 11.1 KiB (0%)
Language : Slovenian
Default : No
Forced : No

Text #36
ID : 38
Format : UTF-8
Codec ID : S_TEXT/UTF8
Codec ID/Info : UTF-8 Plain Text
Duration : 49 min 6 s
Bit rate : 33 b/s
Count of elements : 393
Stream size : 11.9 KiB (0%)
Language : Swedish
Default : No
Forced : No

Text #37
ID : 39
Format : UTF-8
Codec ID : S_TEXT/UTF8
Codec ID/Info : UTF-8 Plain Text
Duration : 49 min 6 s
Bit rate : 111 b/s
Count of elements : 432
Stream size : 40.2 KiB (0%)
Language : Tamil
Default : No
Forced : No

Text #38
ID : 40
Format : UTF-8
Codec ID : S_TEXT/UTF8
Codec ID/Info : UTF-8 Plain Text
Duration : 49 min 6 s
Bit rate : 104 b/s
Count of elements : 432
Stream size : 37.6 KiB (0%)
Language : Telugu
Default : No
Forced : No

Text #39
ID : 41
Format : UTF-8
Codec ID : S_TEXT/UTF8
Codec ID/Info : UTF-8 Plain Text
Duration : 49 min 6 s
Bit rate : 94 b/s
Count of elements : 432
Stream size : 34.1 KiB (0%)
Language : Thai
Default : No
Forced : No

Text #40
ID : 42
Format : UTF-8
Codec ID : S_TEXT/UTF8
Codec ID/Info : UTF-8 Plain Text
Duration : 49 min 6 s
Bit rate : 39 b/s
Count of elements : 432
Stream size : 14.2 KiB (0%)
Language : Turkish
Default : No
Forced : No

Text #41
ID : 43
Format : UTF-8
Codec ID : S_TEXT/UTF8
Codec ID/Info : UTF-8 Plain Text
Duration : 49 min 14 s
Bit rate : 54 b/s
Count of elements : 429
Stream size : 19.5 KiB (0%)
Language : Ukrainian
Default : No
Forced : No

Text #42
ID : 44
Format : UTF-8
Codec ID : S_TEXT/UTF8
Codec ID/Info : UTF-8 Plain Text
Duration : 49 min 14 s
Bit rate : 48 b/s
Count of elements : 433
Stream size : 17.5 KiB (0%)
Language : Vietnamese
Default : No
Forced : No

Text #43
ID : 45
Format : UTF-8
Codec ID : S_TEXT/UTF8
Codec ID/Info : UTF-8 Plain Text
Duration : 49 min 14 s
Bit rate : 33 b/s
Count of elements : 432
Stream size : 12.0 KiB (0%)
Title : Cantonese
Default : No
Forced : No

Download

Direct download files get automatically deleted after a month or so. Posted on : 06/19/2021

[collapse]
Media Info and Download Links | S01E03

General
Format : Matroska
Format version : Version 4
File size : 239 MiB
Duration : 52 min 15 s
Overall bit rate : 639 kb/s
Movie name : Lisey’s.Story.S01E03.Under.the.Yum-Yum.Tree.720p.10bit.WEBRip.2CH.x265.HEVC

Video
ID : 1
Format : HEVC
Format/Info : High Efficiency Video Coding
Format profile : Main [email protected]@Main
Codec ID : V_MPEGH/ISO/HEVC
Duration : 52 min 15 s
Bit rate : 562 kb/s
Width : 1 280 pixels
Height : 640 pixels
Display aspect ratio : 2.000
Frame rate mode : Constant
Frame rate : 23.976 (24000/1001) FPS
Color space : YUV
Chroma subsampling : 4:2:0
Bit depth : 10 bits
Bits/(Pixel*Frame) : 0.029
Stream size : 210 MiB (88%)
Default : Yes
Forced : No
Color range : Limited
Color primaries : BT.709
Transfer characteristics : BT.709
Matrix coefficients : BT.709

Audio
ID : 2
Format : AAC LC SBR
Commercial name : HE-AAC
Format settings : Explicit
Codec ID : A_AAC-2
Duration : 52 min 15 s
Bit rate : 72.0 kb/s
Channel(s) : 2 channels
Channel layout : L R
Sampling rate : 48.0 kHz
Frame rate : 23.438 FPS (2048 SPF)
Compression mode : Lossy
Delay relative to video : 23 ms
Stream size : 26.9 MiB (11%)
Language : English
Default : Yes
Forced : No

Text #1
ID : 3
Format : UTF-8
Codec ID : S_TEXT/UTF8
Codec ID/Info : UTF-8 Plain Text
Duration : 48 min 13 s
Bit rate : 40 b/s
Count of elements : 466
Stream size : 14.4 KiB (0%)
Title : English
Language : English
Default : Yes
Forced : No

Text #2
ID : 4
Format : UTF-8
Codec ID : S_TEXT/UTF8
Codec ID/Info : UTF-8 Plain Text
Duration : 50 min 40 s
Bit rate : 52 b/s
Count of elements : 483
Stream size : 19.6 KiB (0%)
Title : Arabic
Language : Arabic
Default : No
Forced : No

Text #3
ID : 5
Format : UTF-8
Codec ID : S_TEXT/UTF8
Codec ID/Info : UTF-8 Plain Text
Duration : 50 min 40 s
Bit rate : 58 b/s
Count of elements : 473
Stream size : 21.5 KiB (0%)
Title : Bulgarian
Language : Bulgarian
Default : No
Forced : No

Text #4
ID : 6
Format : UTF-8
Codec ID : S_TEXT/UTF8
Codec ID/Info : UTF-8 Plain Text
Duration : 50 min 40 s
Bit rate : 36 b/s
Count of elements : 483
Stream size : 13.6 KiB (0%)
Title : Chinese Simplified
Language : Chinese
Default : No
Forced : No

Text #5
ID : 7
Format : UTF-8
Codec ID : S_TEXT/UTF8
Codec ID/Info : UTF-8 Plain Text
Duration : 50 min 48 s
Bit rate : 37 b/s
Count of elements : 484
Stream size : 14.0 KiB (0%)
Title : Chinese Traditional
Language : Chinese
Default : No
Forced : No

Text #6
ID : 8
Format : UTF-8
Codec ID : S_TEXT/UTF8
Codec ID/Info : UTF-8 Plain Text
Duration : 50 min 48 s
Bit rate : 38 b/s
Count of elements : 484
Stream size : 14.2 KiB (0%)
Title : Chinese Yue
Language : Chinese
Default : No
Forced : No

Text #7
ID : 9
Format : UTF-8
Codec ID : S_TEXT/UTF8
Codec ID/Info : UTF-8 Plain Text
Duration : 50 min 48 s
Bit rate : 35 b/s
Count of elements : 468
Stream size : 13.4 KiB (0%)
Title : Czech
Language : Czech
Default : No
Forced : No

Text #8
ID : 10
Format : UTF-8
Codec ID : S_TEXT/UTF8
Codec ID/Info : UTF-8 Plain Text
Duration : 50 min 40 s
Bit rate : 39 b/s
Count of elements : 464
Stream size : 14.7 KiB (0%)
Title : Danish
Language : Danish
Default : No
Forced : No

Text #9
ID : 11
Format : UTF-8
Codec ID : S_TEXT/UTF8
Codec ID/Info : UTF-8 Plain Text
Duration : 50 min 40 s
Bit rate : 37 b/s
Count of elements : 437
Stream size : 14.0 KiB (0%)
Title : Dutch
Language : Dutch
Default : No
Forced : No

Text #10
ID : 12
Format : UTF-8
Codec ID : S_TEXT/UTF8
Codec ID/Info : UTF-8 Plain Text
Duration : 50 min 40 s
Bit rate : 37 b/s
Count of elements : 458
Stream size : 13.8 KiB (0%)
Title : Estonian
Language : Estonian
Default : No
Forced : No

Text #11
ID : 13
Format : UTF-8
Codec ID : S_TEXT/UTF8
Codec ID/Info : UTF-8 Plain Text
Duration : 50 min 48 s
Bit rate : 39 b/s
Count of elements : 486
Stream size : 14.8 KiB (0%)
Title : European Spanish
Language : Spanish
Default : No
Forced : No

Text #12
ID : 14
Format : UTF-8
Codec ID : S_TEXT/UTF8
Codec ID/Info : UTF-8 Plain Text
Duration : 50 min 40 s
Bit rate : 39 b/s
Count of elements : 481
Stream size : 14.5 KiB (0%)
Title : Finnish
Language : Finnish
Default : No
Forced : No

Text #13
ID : 15
Format : UTF-8
Codec ID : S_TEXT/UTF8
Codec ID/Info : UTF-8 Plain Text
Duration : 50 min 44 s
Bit rate : 33 b/s
Count of elements : 505
Stream size : 12.3 KiB (0%)
Title : French
Language : French
Default : No
Forced : No

Text #14
ID : 16
Format : UTF-8
Codec ID : S_TEXT/UTF8
Codec ID/Info : UTF-8 Plain Text
Duration : 50 min 44 s
Bit rate : 33 b/s
Count of elements : 505
Stream size : 12.3 KiB (0%)
Title : French Canadian
Language : French
Default : No
Forced : No

Text #15
ID : 17
Format : UTF-8
Codec ID : S_TEXT/UTF8
Codec ID/Info : UTF-8 Plain Text
Duration : 49 min 44 s
Bit rate : 40 b/s
Count of elements : 458
Stream size : 14.6 KiB (0%)
Title : German
Language : German
Default : No
Forced : No

Text #16
ID : 18
Format : UTF-8
Codec ID : S_TEXT/UTF8
Codec ID/Info : UTF-8 Plain Text
Duration : 50 min 48 s
Bit rate : 64 b/s
Count of elements : 477
Stream size : 24.1 KiB (0%)
Title : Greek
Language : Greek
Default : No
Forced : No

Text #17
ID : 19
Format : UTF-8
Codec ID : S_TEXT/UTF8
Codec ID/Info : UTF-8 Plain Text
Duration : 50 min 40 s
Bit rate : 53 b/s
Count of elements : 483
Stream size : 19.8 KiB (0%)
Title : Hebrew
Language : Hebrew
Default : No
Forced : No

Text #18
ID : 20
Format : UTF-8
Codec ID : S_TEXT/UTF8
Codec ID/Info : UTF-8 Plain Text
Duration : 50 min 48 s
Bit rate : 106 b/s
Count of elements : 484
Stream size : 39.8 KiB (0%)
Title : Hindi
Language : Hindi
Default : No
Forced : No

Text #19
ID : 21
Format : UTF-8
Codec ID : S_TEXT/UTF8
Codec ID/Info : UTF-8 Plain Text
Duration : 50 min 48 s
Bit rate : 38 b/s
Count of elements : 483
Stream size : 14.4 KiB (0%)
Title : Hungarian
Language : Hungarian
Default : No
Forced : No

Text #20
ID : 22
Format : UTF-8
Codec ID : S_TEXT/UTF8
Codec ID/Info : UTF-8 Plain Text
Duration : 50 min 40 s
Bit rate : 38 b/s
Count of elements : 482
Stream size : 14.5 KiB (0%)
Title : Indonesian
Language : Indonesian
Default : No
Forced : No

Text #21
ID : 23
Format : UTF-8
Codec ID : S_TEXT/UTF8
Codec ID/Info : UTF-8 Plain Text
Duration : 49 min 52 s
Bit rate : 41 b/s
Count of elements : 474
Stream size : 15.3 KiB (0%)
Title : Italian
Language : Italian
Default : No
Forced : No

Text #22
ID : 24
Format : UTF-8
Codec ID : S_TEXT/UTF8
Codec ID/Info : UTF-8 Plain Text
Duration : 50 min 48 s
Bit rate : 37 b/s
Count of elements : 494
Stream size : 14.1 KiB (0%)
Title : Japanese
Language : Japanese
Default : No
Forced : No

Text #23
ID : 25
Format : UTF-8
Codec ID : S_TEXT/UTF8
Codec ID/Info : UTF-8 Plain Text
Duration : 50 min 48 s
Bit rate : 39 b/s
Count of elements : 484
Stream size : 14.7 KiB (0%)
Title : Korean
Language : Korean
Default : No
Forced : No

Text #24
ID : 26
Format : UTF-8
Codec ID : S_TEXT/UTF8
Codec ID/Info : UTF-8 Plain Text
Duration : 50 min 48 s
Bit rate : 39 b/s
Count of elements : 487
Stream size : 14.6 KiB (0%)
Title : Latin America Spanish
Language : Spanish
Default : No
Forced : No

Text #25
ID : 27
Format : UTF-8
Codec ID : S_TEXT/UTF8
Codec ID/Info : UTF-8 Plain Text
Duration : 50 min 40 s
Bit rate : 40 b/s
Count of elements : 480
Stream size : 15.2 KiB (0%)
Title : Latvian
Language : Latvian
Default : No
Forced : No

Text #26
ID : 28
Format : UTF-8
Codec ID : S_TEXT/UTF8
Codec ID/Info : UTF-8 Plain Text
Duration : 50 min 40 s
Bit rate : 39 b/s
Count of elements : 483
Stream size : 14.8 KiB (0%)
Title : Lithuanian
Language : Lithuanian
Default : No
Forced : No

Text #27
ID : 29
Format : UTF-8
Codec ID : S_TEXT/UTF8
Codec ID/Info : UTF-8 Plain Text
Duration : 50 min 40 s
Bit rate : 41 b/s
Count of elements : 481
Stream size : 15.2 KiB (0%)
Title : Malay
Language : Malay
Default : No
Forced : No

Text #28
ID : 30
Format : UTF-8
Codec ID : S_TEXT/UTF8
Codec ID/Info : UTF-8 Plain Text
Duration : 50 min 40 s
Bit rate : 37 b/s
Count of elements : 445
Stream size : 13.8 KiB (0%)
Title : Norwegian
Language : Norwegian
Default : No
Forced : No

Text #29
ID : 31
Format : UTF-8
Codec ID : S_TEXT/UTF8
Codec ID/Info : UTF-8 Plain Text
Duration : 50 min 48 s
Bit rate : 35 b/s
Count of elements : 458
Stream size : 13.1 KiB (0%)
Title : Polish
Language : Polish
Default : No
Forced : No

Text #30
ID : 32
Format : UTF-8
Codec ID : S_TEXT/UTF8
Codec ID/Info : UTF-8 Plain Text
Duration : 50 min 48 s
Bit rate : 39 b/s
Count of elements : 479
Stream size : 14.9 KiB (0%)
Title : Portuguese
Language : Portuguese
Default : No
Forced : No

Text #31
ID : 33
Format : UTF-8
Codec ID : S_TEXT/UTF8
Codec ID/Info : UTF-8 Plain Text
Duration : 50 min 48 s
Bit rate : 36 b/s
Count of elements : 483
Stream size : 13.5 KiB (0%)
Title : Portuguese Brazilian
Language : Portuguese
Default : No
Forced : No

Text #32
ID : 34
Format : UTF-8
Codec ID : S_TEXT/UTF8
Codec ID/Info : UTF-8 Plain Text
Duration : 50 min 48 s
Bit rate : 63 b/s
Count of elements : 466
Stream size : 23.5 KiB (0%)
Title : Russian
Language : Russian
Default : No
Forced : No

Text #33
ID : 35
Format : UTF-8
Codec ID : S_TEXT/UTF8
Codec ID/Info : UTF-8 Plain Text
Duration : 50 min 48 s
Bit rate : 38 b/s
Count of elements : 481
Stream size : 14.2 KiB (0%)
Title : Slovak
Language : Slovak
Default : No
Forced : No

Text #34
ID : 36
Format : UTF-8
Codec ID : S_TEXT/UTF8
Codec ID/Info : UTF-8 Plain Text
Duration : 50 min 40 s
Bit rate : 31 b/s
Count of elements : 424
Stream size : 11.8 KiB (0%)
Title : Slovenian
Language : Slovenian
Default : No
Forced : No

Text #35
ID : 37
Format : UTF-8
Codec ID : S_TEXT/UTF8
Codec ID/Info : UTF-8 Plain Text
Duration : 50 min 40 s
Bit rate : 37 b/s
Count of elements : 471
Stream size : 13.8 KiB (0%)
Title : Swedish
Language : Swedish
Default : No
Forced : No

Text #36
ID : 38
Format : UTF-8
Codec ID : S_TEXT/UTF8
Codec ID/Info : UTF-8 Plain Text
Duration : 50 min 40 s
Bit rate : 118 b/s
Count of elements : 483
Stream size : 44.1 KiB (0%)
Title : Tamil
Language : Tamil
Default : No
Forced : No

Text #37
ID : 39
Format : UTF-8
Codec ID : S_TEXT/UTF8
Codec ID/Info : UTF-8 Plain Text
Duration : 50 min 40 s
Bit rate : 114 b/s
Count of elements : 483
Stream size : 42.4 KiB (0%)
Title : Telugu
Language : Telugu
Default : No
Forced : No

Text #38
ID : 40
Format : UTF-8
Codec ID : S_TEXT/UTF8
Codec ID/Info : UTF-8 Plain Text
Duration : 50 min 40 s
Bit rate : 102 b/s
Count of elements : 483
Stream size : 38.1 KiB (0%)
Title : Thai
Language : Thai
Default : No
Forced : No

Text #39
ID : 41
Format : UTF-8
Codec ID : S_TEXT/UTF8
Codec ID/Info : UTF-8 Plain Text
Duration : 50 min 40 s
Bit rate : 39 b/s
Count of elements : 482
Stream size : 14.7 KiB (0%)
Title : Turkish
Language : Turkish
Default : No
Forced : No

Text #40
ID : 42
Format : UTF-8
Codec ID : S_TEXT/UTF8
Codec ID/Info : UTF-8 Plain Text
Duration : 50 min 48 s
Bit rate : 56 b/s
Count of elements : 481
Stream size : 21.0 KiB (0%)
Title : Ukrainian
Language : Ukrainian
Default : No
Forced : No

Text #41
ID : 43
Format : UTF-8
Codec ID : S_TEXT/UTF8
Codec ID/Info : UTF-8 Plain Text
Duration : 50 min 48 s
Bit rate : 51 b/s
Count of elements : 483
Stream size : 19.1 KiB (0%)
Title : Vietnamese
Language : Vietnamese
Default : No
Forced : No

Download

Direct download files get automatically deleted after a month or so. Posted on : 06/11/2021

[collapse]
Media Info and Download Links | S01E02

General
Format : Matroska
Format version : Version 4
File size : 177 MiB
Duration : 52 min 58 s
Overall bit rate : 468 kb/s
Movie name : Lisey’s.Story.S01E02.Blood.Bool.720p.10bit.WEBRip.2CH.x265.HEVC

Video
ID : 1
Format : HEVC
Format/Info : High Efficiency Video Coding
Format profile : Main [email protected]@Main
Codec ID : V_MPEGH/ISO/HEVC
Duration : 52 min 58 s
Bit rate : 391 kb/s
Width : 1 280 pixels
Height : 640 pixels
Display aspect ratio : 2.000
Frame rate mode : Constant
Frame rate : 23.976 (24000/1001) FPS
Color space : YUV
Chroma subsampling : 4:2:0
Bit depth : 10 bits
Bits/(Pixel*Frame) : 0.020
Stream size : 148 MiB (84%)
Default : Yes
Forced : No
Color range : Limited
Color primaries : BT.709
Transfer characteristics : BT.709
Matrix coefficients : BT.709

Audio
ID : 2
Format : AAC LC SBR
Commercial name : HE-AAC
Format settings : Explicit
Codec ID : A_AAC-2
Duration : 52 min 57 s
Bit rate : 72.0 kb/s
Channel(s) : 2 channels
Channel layout : L R
Sampling rate : 48.0 kHz
Frame rate : 23.438 FPS (2048 SPF)
Compression mode : Lossy
Delay relative to video : 23 ms
Stream size : 26.8 MiB (15%)
Language : English
Default : Yes
Forced : No

Text #1
ID : 3
Format : UTF-8
Codec ID : S_TEXT/UTF8
Codec ID/Info : UTF-8 Plain Text
Duration : 48 min 15 s
Bit rate : 53 b/s
Count of elements : 521
Stream size : 19.0 KiB (0%)
Title : English
Language : English
Default : Yes
Forced : No

Text #2
ID : 4
Format : UTF-8
Codec ID : S_TEXT/UTF8
Codec ID/Info : UTF-8 Plain Text
Duration : 51 min 22 s
Bit rate : 66 b/s
Count of elements : 529
Stream size : 24.9 KiB (0%)
Title : Arabic
Language : Arabic
Default : No
Forced : No

Text #3
ID : 5
Format : UTF-8
Codec ID : S_TEXT/UTF8
Codec ID/Info : UTF-8 Plain Text
Duration : 51 min 22 s
Bit rate : 72 b/s
Count of elements : 516
Stream size : 27.2 KiB (0%)
Title : Bulgarian
Language : Bulgarian
Default : No
Forced : No

Text #4
ID : 6
Format : UTF-8
Codec ID : S_TEXT/UTF8
Codec ID/Info : UTF-8 Plain Text
Duration : 51 min 22 s
Bit rate : 45 b/s
Count of elements : 529
Stream size : 17.2 KiB (0%)
Title : Chinese Simplified
Language : Chinese
Default : No
Forced : No

Text #5
ID : 7
Format : UTF-8
Codec ID : S_TEXT/UTF8
Codec ID/Info : UTF-8 Plain Text
Duration : 51 min 31 s
Bit rate : 45 b/s
Count of elements : 530
Stream size : 17.1 KiB (0%)
Title : Chinese Traditional
Language : Chinese
Default : No
Forced : No

Text #6
ID : 8
Format : UTF-8
Codec ID : S_TEXT/UTF8
Codec ID/Info : UTF-8 Plain Text
Duration : 51 min 31 s
Bit rate : 46 b/s
Count of elements : 530
Stream size : 17.6 KiB (0%)
Title : Chinese Yue
Language : Chinese
Default : No
Forced : No

Text #7
ID : 9
Format : UTF-8
Codec ID : S_TEXT/UTF8
Codec ID/Info : UTF-8 Plain Text
Duration : 51 min 31 s
Bit rate : 45 b/s
Count of elements : 495
Stream size : 17.3 KiB (0%)
Title : Czech
Language : Czech
Default : No
Forced : No

Text #8
ID : 10
Format : UTF-8
Codec ID : S_TEXT/UTF8
Codec ID/Info : UTF-8 Plain Text
Duration : 51 min 22 s
Bit rate : 48 b/s
Count of elements : 497
Stream size : 18.2 KiB (0%)
Title : Danish
Language : Danish
Default : No
Forced : No

Text #9
ID : 11
Format : UTF-8
Codec ID : S_TEXT/UTF8
Codec ID/Info : UTF-8 Plain Text
Duration : 51 min 22 s
Bit rate : 47 b/s
Count of elements : 469
Stream size : 18.1 KiB (0%)
Title : Dutch
Language : Dutch
Default : No
Forced : No

Text #10
ID : 12
Format : UTF-8
Codec ID : S_TEXT/UTF8
Codec ID/Info : UTF-8 Plain Text
Duration : 51 min 22 s
Bit rate : 45 b/s
Count of elements : 492
Stream size : 17.3 KiB (0%)
Title : Estonian
Language : Estonian
Default : No
Forced : No

Text #11
ID : 13
Format : UTF-8
Codec ID : S_TEXT/UTF8
Codec ID/Info : UTF-8 Plain Text
Duration : 51 min 31 s
Bit rate : 48 b/s
Count of elements : 525
Stream size : 18.3 KiB (0%)
Title : European Spanish
Language : Spanish
Default : No
Forced : No

Text #12
ID : 14
Format : UTF-8
Codec ID : S_TEXT/UTF8
Codec ID/Info : UTF-8 Plain Text
Duration : 51 min 22 s
Bit rate : 49 b/s
Count of elements : 528
Stream size : 18.4 KiB (0%)
Title : Finnish
Language : Finnish
Default : No
Forced : No

Text #13
ID : 15
Format : UTF-8
Codec ID : S_TEXT/UTF8
Codec ID/Info : UTF-8 Plain Text
Duration : 51 min 27 s
Bit rate : 43 b/s
Count of elements : 544
Stream size : 16.5 KiB (0%)
Title : French
Language : French
Default : No
Forced : No

Text #14
ID : 16
Format : UTF-8
Codec ID : S_TEXT/UTF8
Codec ID/Info : UTF-8 Plain Text
Duration : 51 min 27 s
Bit rate : 43 b/s
Count of elements : 544
Stream size : 16.5 KiB (0%)
Title : French Canadian
Language : French
Default : No
Forced : No

Text #15
ID : 17
Format : UTF-8
Codec ID : S_TEXT/UTF8
Codec ID/Info : UTF-8 Plain Text
Duration : 50 min 26 s
Bit rate : 50 b/s
Count of elements : 490
Stream size : 18.6 KiB (0%)
Title : German
Language : German
Default : No
Forced : No

Text #16
ID : 18
Format : UTF-8
Codec ID : S_TEXT/UTF8
Codec ID/Info : UTF-8 Plain Text
Duration : 51 min 31 s
Bit rate : 78 b/s
Count of elements : 514
Stream size : 29.8 KiB (0%)
Title : Greek
Language : Greek
Default : No
Forced : No

Text #17
ID : 19
Format : UTF-8
Codec ID : S_TEXT/UTF8
Codec ID/Info : UTF-8 Plain Text
Duration : 51 min 22 s
Bit rate : 65 b/s
Count of elements : 529
Stream size : 24.7 KiB (0%)
Title : Hebrew
Language : Hebrew
Default : No
Forced : No

Text #18
ID : 20
Format : UTF-8
Codec ID : S_TEXT/UTF8
Codec ID/Info : UTF-8 Plain Text
Duration : 51 min 31 s
Bit rate : 133 b/s
Count of elements : 530
Stream size : 50.4 KiB (0%)
Title : Hindi
Language : Hindi
Default : No
Forced : No

Text #19
ID : 21
Format : UTF-8
Codec ID : S_TEXT/UTF8
Codec ID/Info : UTF-8 Plain Text
Duration : 51 min 31 s
Bit rate : 48 b/s
Count of elements : 530
Stream size : 18.2 KiB (0%)
Title : Hungarian
Language : Hungarian
Default : No
Forced : No

Text #20
ID : 22
Format : UTF-8
Codec ID : S_TEXT/UTF8
Codec ID/Info : UTF-8 Plain Text
Duration : 51 min 22 s
Bit rate : 48 b/s
Count of elements : 528
Stream size : 18.1 KiB (0%)
Title : Indonesian
Language : Indonesian
Default : No
Forced : No

Text #21
ID : 23
Format : UTF-8
Codec ID : S_TEXT/UTF8
Codec ID/Info : UTF-8 Plain Text
Duration : 50 min 35 s
Bit rate : 51 b/s
Count of elements : 530
Stream size : 19.0 KiB (0%)
Title : Italian
Language : Italian
Default : No
Forced : No

Text #22
ID : 24
Format : UTF-8
Codec ID : S_TEXT/UTF8
Codec ID/Info : UTF-8 Plain Text
Duration : 51 min 31 s
Bit rate : 43 b/s
Count of elements : 541
Stream size : 16.5 KiB (0%)
Title : Japanese
Language : Japanese
Default : No
Forced : No

Text #23
ID : 25
Format : UTF-8
Codec ID : S_TEXT/UTF8
Codec ID/Info : UTF-8 Plain Text
Duration : 51 min 31 s
Bit rate : 49 b/s
Count of elements : 530
Stream size : 18.8 KiB (0%)
Title : Korean
Language : Korean
Default : No
Forced : No

Text #24
ID : 26
Format : UTF-8
Codec ID : S_TEXT/UTF8
Codec ID/Info : UTF-8 Plain Text
Duration : 51 min 31 s
Bit rate : 48 b/s
Count of elements : 539
Stream size : 18.4 KiB (0%)
Title : Latin America Spanish
Language : Spanish
Default : No
Forced : No

Text #25
ID : 27
Format : UTF-8
Codec ID : S_TEXT/UTF8
Codec ID/Info : UTF-8 Plain Text
Duration : 51 min 22 s
Bit rate : 50 b/s
Count of elements : 521
Stream size : 18.9 KiB (0%)
Title : Latvian
Language : Latvian
Default : No
Forced : No

Text #26
ID : 28
Format : UTF-8
Codec ID : S_TEXT/UTF8
Codec ID/Info : UTF-8 Plain Text
Duration : 51 min 22 s
Bit rate : 49 b/s
Count of elements : 529
Stream size : 18.7 KiB (0%)
Title : Lithuanian
Language : Lithuanian
Default : No
Forced : No

Text #27
ID : 29
Format : UTF-8
Codec ID : S_TEXT/UTF8
Codec ID/Info : UTF-8 Plain Text
Duration : 51 min 22 s
Bit rate : 51 b/s
Count of elements : 528
Stream size : 19.4 KiB (0%)
Title : Malay
Language : Malay
Default : No
Forced : No

Text #28
ID : 30
Format : UTF-8
Codec ID : S_TEXT/UTF8
Codec ID/Info : UTF-8 Plain Text
Duration : 51 min 22 s
Bit rate : 44 b/s
Count of elements : 449
Stream size : 16.9 KiB (0%)
Title : Norwegian
Language : Norwegian
Default : No
Forced : No

Text #29
ID : 31
Format : UTF-8
Codec ID : S_TEXT/UTF8
Codec ID/Info : UTF-8 Plain Text
Duration : 51 min 31 s
Bit rate : 44 b/s
Count of elements : 510
Stream size : 16.8 KiB (0%)
Title : Polish
Language : Polish
Default : No
Forced : No

Text #30
ID : 32
Format : UTF-8
Codec ID : S_TEXT/UTF8
Codec ID/Info : UTF-8 Plain Text
Duration : 51 min 31 s
Bit rate : 48 b/s
Count of elements : 525
Stream size : 18.4 KiB (0%)
Title : Portuguese
Language : Portuguese
Default : No
Forced : No

Text #31
ID : 33
Format : UTF-8
Codec ID : S_TEXT/UTF8
Codec ID/Info : UTF-8 Plain Text
Duration : 51 min 31 s
Bit rate : 45 b/s
Count of elements : 527
Stream size : 17.0 KiB (0%)
Title : Portuguese Brazilian
Language : Portuguese
Default : No
Forced : No

Text #32
ID : 34
Format : UTF-8
Codec ID : S_TEXT/UTF8
Codec ID/Info : UTF-8 Plain Text
Duration : 51 min 31 s
Bit rate : 77 b/s
Count of elements : 493
Stream size : 29.3 KiB (0%)
Title : Russian
Language : Russian
Default : No
Forced : No

Text #33
ID : 35
Format : UTF-8
Codec ID : S_TEXT/UTF8
Codec ID/Info : UTF-8 Plain Text
Duration : 51 min 31 s
Bit rate : 48 b/s
Count of elements : 527
Stream size : 18.1 KiB (0%)
Title : Slovak
Language : Slovak
Default : No
Forced : No

Text #34
ID : 36
Format : UTF-8
Codec ID : S_TEXT/UTF8
Codec ID/Info : UTF-8 Plain Text
Duration : 51 min 22 s
Bit rate : 39 b/s
Count of elements : 449
Stream size : 14.8 KiB (0%)
Title : Slovenian
Language : Slovenian
Default : No
Forced : No

Text #35
ID : 37
Format : UTF-8
Codec ID : S_TEXT/UTF8
Codec ID/Info : UTF-8 Plain Text
Duration : 51 min 22 s
Bit rate : 47 b/s
Count of elements : 518
Stream size : 17.9 KiB (0%)
Title : Swedish
Language : Swedish
Default : No
Forced : No

Text #36
ID : 38
Format : UTF-8
Codec ID : S_TEXT/UTF8
Codec ID/Info : UTF-8 Plain Text
Duration : 51 min 22 s
Bit rate : 151 b/s
Count of elements : 529
Stream size : 56.8 KiB (0%)
Title : Tamil
Language : Tamil
Default : No
Forced : No

Text #37
ID : 39
Format : UTF-8
Codec ID : S_TEXT/UTF8
Codec ID/Info : UTF-8 Plain Text
Duration : 51 min 22 s
Bit rate : 140 b/s
Count of elements : 529
Stream size : 52.9 KiB (0%)
Title : Telugu
Language : Telugu
Default : No
Forced : No

Text #38
ID : 40
Format : UTF-8
Codec ID : S_TEXT/UTF8
Codec ID/Info : UTF-8 Plain Text
Duration : 51 min 22 s
Bit rate : 126 b/s
Count of elements : 529
Stream size : 47.4 KiB (0%)
Title : Thai
Language : Thai
Default : No
Forced : No

Text #39
ID : 41
Format : UTF-8
Codec ID : S_TEXT/UTF8
Codec ID/Info : UTF-8 Plain Text
Duration : 51 min 22 s
Bit rate : 50 b/s
Count of elements : 528
Stream size : 19.0 KiB (0%)
Title : Turkish
Language : Turkish
Default : No
Forced : No

Text #40
ID : 42
Format : UTF-8
Codec ID : S_TEXT/UTF8
Codec ID/Info : UTF-8 Plain Text
Duration : 51 min 31 s
Bit rate : 73 b/s
Count of elements : 527
Stream size : 27.5 KiB (0%)
Title : Ukrainian
Language : Ukrainian
Default : No
Forced : No

Text #41
ID : 43
Format : UTF-8
Codec ID : S_TEXT/UTF8
Codec ID/Info : UTF-8 Plain Text
Duration : 51 min 31 s
Bit rate : 62 b/s
Count of elements : 529
Stream size : 23.6 KiB (0%)
Title : Vietnamese
Language : Vietnamese
Default : No
Forced : No

Download

Direct download files get automatically deleted after a month or so. Posted on : 06/04/2021

[collapse]
Media Info and Download Links | S01E01

General
Format : Matroska
Format version : Version 4
File size : 215 MiB
Duration : 50 min 7 s
Overall bit rate : 600 kb/s
Movie name : Lisey’s.Story.S01E01.Bool.Hunt.720p.10bit.WEBRip.2CH.x265.HEVC

Video
ID : 1
Format : HEVC
Format/Info : High Efficiency Video Coding
Format profile : Main [email protected]@Main
Codec ID : V_MPEGH/ISO/HEVC
Duration : 50 min 7 s
Bit rate : 525 kb/s
Width : 1 280 pixels
Height : 640 pixels
Display aspect ratio : 2.000
Frame rate mode : Constant
Frame rate : 23.976 (24000/1001) FPS
Color space : YUV
Chroma subsampling : 4:2:0
Bit depth : 10 bits
Bits/(Pixel*Frame) : 0.027
Stream size : 188 MiB (88%)
Default : Yes
Forced : No
Color range : Limited
Color primaries : BT.709
Transfer characteristics : BT.709
Matrix coefficients : BT.709

Audio
ID : 2
Format : AAC LC SBR
Commercial name : HE-AAC
Format settings : Explicit
Codec ID : A_AAC-2
Duration : 50 min 7 s
Bit rate : 68.3 kb/s
Channel(s) : 2 channels
Channel layout : L R
Sampling rate : 48.0 kHz
Frame rate : 23.438 FPS (2048 SPF)
Compression mode : Lossy
Delay relative to video : 23 ms
Stream size : 24.5 MiB (11%)
Language : English
Default : Yes
Forced : No

Text #1
ID : 3
Format : UTF-8
Codec ID : S_TEXT/UTF8
Codec ID/Info : UTF-8 Plain Text
Duration : 45 min 9 s
Bit rate : 51 b/s
Count of elements : 513
Stream size : 16.9 KiB (0%)
Title : English
Language : English
Default : Yes
Forced : No

Text #2
ID : 4
Format : UTF-8
Codec ID : S_TEXT/UTF8
Codec ID/Info : UTF-8 Plain Text
Duration : 48 min 31 s
Bit rate : 61 b/s
Count of elements : 530
Stream size : 21.8 KiB (0%)
Title : Arabic
Language : Arabic
Default : No
Forced : No

Text #3
ID : 5
Format : UTF-8
Codec ID : S_TEXT/UTF8
Codec ID/Info : UTF-8 Plain Text
Duration : 48 min 31 s
Bit rate : 69 b/s
Count of elements : 506
Stream size : 24.7 KiB (0%)
Title : Bulgarian
Language : Bulgarian
Default : No
Forced : No

Text #4
ID : 6
Format : UTF-8
Codec ID : S_TEXT/UTF8
Codec ID/Info : UTF-8 Plain Text
Duration : 48 min 31 s
Bit rate : 43 b/s
Count of elements : 531
Stream size : 15.4 KiB (0%)
Title : Chinese Simplified
Language : Chinese
Default : No
Forced : No

Text #5
ID : 7
Format : UTF-8
Codec ID : S_TEXT/UTF8
Codec ID/Info : UTF-8 Plain Text
Duration : 48 min 40 s
Bit rate : 43 b/s
Count of elements : 532
Stream size : 15.6 KiB (0%)
Title : Chinese Traditional
Language : Chinese
Default : No
Forced : No

Text #6
ID : 8
Format : UTF-8
Codec ID : S_TEXT/UTF8
Codec ID/Info : UTF-8 Plain Text
Duration : 48 min 40 s
Bit rate : 45 b/s
Count of elements : 532
Stream size : 16.2 KiB (0%)
Title : Chinese Yue
Language : Chinese
Default : No
Forced : No

Text #7
ID : 9
Format : UTF-8
Codec ID : S_TEXT/UTF8
Codec ID/Info : UTF-8 Plain Text
Duration : 48 min 40 s
Bit rate : 44 b/s
Count of elements : 501
Stream size : 15.8 KiB (0%)
Title : Czech
Language : Czech
Default : No
Forced : No

Text #8
ID : 10
Format : UTF-8
Codec ID : S_TEXT/UTF8
Codec ID/Info : UTF-8 Plain Text
Duration : 48 min 31 s
Bit rate : 45 b/s
Count of elements : 504
Stream size : 16.3 KiB (0%)
Title : Danish
Language : Danish
Default : No
Forced : No

Text #9
ID : 11
Format : UTF-8
Codec ID : S_TEXT/UTF8
Codec ID/Info : UTF-8 Plain Text
Duration : 48 min 31 s
Bit rate : 44 b/s
Count of elements : 478
Stream size : 15.9 KiB (0%)
Title : Dutch
Language : Dutch
Default : No
Forced : No

Text #10
ID : 12
Format : UTF-8
Codec ID : S_TEXT/UTF8
Codec ID/Info : UTF-8 Plain Text
Duration : 48 min 31 s
Bit rate : 44 b/s
Count of elements : 488
Stream size : 15.8 KiB (0%)
Title : Estonian
Language : Estonian
Default : No
Forced : No

Text #11
ID : 13
Format : UTF-8
Codec ID : S_TEXT/UTF8
Codec ID/Info : UTF-8 Plain Text
Duration : 48 min 40 s
Bit rate : 44 b/s
Count of elements : 500
Stream size : 15.9 KiB (0%)
Title : European Spanish
Language : Spanish
Default : No
Forced : No

Text #12
ID : 14
Format : UTF-8
Codec ID : S_TEXT/UTF8
Codec ID/Info : UTF-8 Plain Text
Duration : 48 min 31 s
Bit rate : 46 b/s
Count of elements : 527
Stream size : 16.6 KiB (0%)
Title : Finnish
Language : Finnish
Default : No
Forced : No

Text #13
ID : 15
Format : UTF-8
Codec ID : S_TEXT/UTF8
Codec ID/Info : UTF-8 Plain Text
Duration : 48 min 39 s
Bit rate : 45 b/s
Count of elements : 530
Stream size : 16.4 KiB (0%)
Title : French
Language : French
Default : No
Forced : No

Text #14
ID : 16
Format : UTF-8
Codec ID : S_TEXT/UTF8
Codec ID/Info : UTF-8 Plain Text
Duration : 48 min 39 s
Bit rate : 45 b/s
Count of elements : 530
Stream size : 16.4 KiB (0%)
Title : French Canadian
Language : French
Default : No
Forced : No

Text #15
ID : 17
Format : UTF-8
Codec ID : S_TEXT/UTF8
Codec ID/Info : UTF-8 Plain Text
Duration : 47 min 37 s
Bit rate : 45 b/s
Count of elements : 486
Stream size : 16.0 KiB (0%)
Title : German
Language : German
Default : No
Forced : No

Text #16
ID : 18
Format : UTF-8
Codec ID : S_TEXT/UTF8
Codec ID/Info : UTF-8 Plain Text
Duration : 48 min 40 s
Bit rate : 77 b/s
Count of elements : 519
Stream size : 27.5 KiB (0%)
Title : Greek
Language : Greek
Default : No
Forced : No

Text #17
ID : 19
Format : UTF-8
Codec ID : S_TEXT/UTF8
Codec ID/Info : UTF-8 Plain Text
Duration : 48 min 31 s
Bit rate : 63 b/s
Count of elements : 531
Stream size : 22.6 KiB (0%)
Title : Hebrew
Language : Hebrew
Default : No
Forced : No

Text #18
ID : 20
Format : UTF-8
Codec ID : S_TEXT/UTF8
Codec ID/Info : UTF-8 Plain Text
Duration : 48 min 40 s
Bit rate : 129 b/s
Count of elements : 532
Stream size : 46.1 KiB (0%)
Title : Hindi
Language : Hindi
Default : No
Forced : No

Text #19
ID : 21
Format : UTF-8
Codec ID : S_TEXT/UTF8
Codec ID/Info : UTF-8 Plain Text
Duration : 48 min 40 s
Bit rate : 46 b/s
Count of elements : 527
Stream size : 16.6 KiB (0%)
Title : Hungarian
Language : Hungarian
Default : No
Forced : No

Text #20
ID : 22
Format : UTF-8
Codec ID : S_TEXT/UTF8
Codec ID/Info : UTF-8 Plain Text
Duration : 48 min 31 s
Bit rate : 46 b/s
Count of elements : 528
Stream size : 16.4 KiB (0%)
Title : Indonesian
Language : Indonesian
Default : No
Forced : No

Text #21
ID : 23
Format : UTF-8
Codec ID : S_TEXT/UTF8
Codec ID/Info : UTF-8 Plain Text
Duration : 48 min 40 s
Bit rate : 47 b/s
Count of elements : 520
Stream size : 16.9 KiB (0%)
Title : Italian
Language : Italian
Default : No
Forced : No

Text #22
ID : 24
Format : UTF-8
Codec ID : S_TEXT/UTF8
Codec ID/Info : UTF-8 Plain Text
Duration : 48 min 40 s
Bit rate : 43 b/s
Count of elements : 542
Stream size : 15.5 KiB (0%)
Title : Japanese
Language : Japanese
Default : No
Forced : No

Text #23
ID : 25
Format : UTF-8
Codec ID : S_TEXT/UTF8
Codec ID/Info : UTF-8 Plain Text
Duration : 48 min 40 s
Bit rate : 48 b/s
Count of elements : 532
Stream size : 17.1 KiB (0%)
Title : Korean
Language : Korean
Default : No
Forced : No

Text #24
ID : 26
Format : UTF-8
Codec ID : S_TEXT/UTF8
Codec ID/Info : UTF-8 Plain Text
Duration : 48 min 40 s
Bit rate : 45 b/s
Count of elements : 530
Stream size : 16.4 KiB (0%)
Title : Latin America Spanish
Language : Spanish
Default : No
Forced : No

Text #25
ID : 27
Format : UTF-8
Codec ID : S_TEXT/UTF8
Codec ID/Info : UTF-8 Plain Text
Duration : 48 min 31 s
Bit rate : 48 b/s
Count of elements : 523
Stream size : 17.4 KiB (0%)
Title : Latvian
Language : Latvian
Default : No
Forced : No

Text #26
ID : 28
Format : UTF-8
Codec ID : S_TEXT/UTF8
Codec ID/Info : UTF-8 Plain Text
Duration : 48 min 31 s
Bit rate : 47 b/s
Count of elements : 531
Stream size : 16.8 KiB (0%)
Title : Lithuanian
Language : Lithuanian
Default : No
Forced : No

Text #27
ID : 29
Format : UTF-8
Codec ID : S_TEXT/UTF8
Codec ID/Info : UTF-8 Plain Text
Duration : 48 min 31 s
Bit rate : 49 b/s
Count of elements : 527
Stream size : 17.6 KiB (0%)
Title : Malay
Language : Malay
Default : No
Forced : No

Text #28
ID : 30
Format : UTF-8
Codec ID : S_TEXT/UTF8
Codec ID/Info : UTF-8 Plain Text
Duration : 48 min 31 s
Bit rate : 41 b/s
Count of elements : 434
Stream size : 14.7 KiB (0%)
Title : Norwegian
Language : Norwegian
Default : No
Forced : No

Text #29
ID : 31
Format : UTF-8
Codec ID : S_TEXT/UTF8
Codec ID/Info : UTF-8 Plain Text
Duration : 48 min 40 s
Bit rate : 42 b/s
Count of elements : 504
Stream size : 15.2 KiB (0%)
Title : Polish
Language : Polish
Default : No
Forced : No

Text #30
ID : 32
Format : UTF-8
Codec ID : S_TEXT/UTF8
Codec ID/Info : UTF-8 Plain Text
Duration : 48 min 40 s
Bit rate : 46 b/s
Count of elements : 521
Stream size : 16.7 KiB (0%)
Title : Portuguese
Language : Portuguese
Default : No
Forced : No

Text #31
ID : 33
Format : UTF-8
Codec ID : S_TEXT/UTF8
Codec ID/Info : UTF-8 Plain Text
Duration : 48 min 40 s
Bit rate : 42 b/s
Count of elements : 525
Stream size : 15.1 KiB (0%)
Title : Portuguese Brazilian
Language : Portuguese
Default : No
Forced : No

Text #32
ID : 34
Format : UTF-8
Codec ID : S_TEXT/UTF8
Codec ID/Info : UTF-8 Plain Text
Duration : 48 min 40 s
Bit rate : 73 b/s
Count of elements : 495
Stream size : 26.3 KiB (0%)
Title : Russian
Language : Russian
Default : No
Forced : No

Text #33
ID : 35
Format : UTF-8
Codec ID : S_TEXT/UTF8
Codec ID/Info : UTF-8 Plain Text
Duration : 48 min 40 s
Bit rate : 45 b/s
Count of elements : 529
Stream size : 16.2 KiB (0%)
Title : Slovak
Language : Slovak
Default : No
Forced : No

Text #34
ID : 36
Format : UTF-8
Codec ID : S_TEXT/UTF8
Codec ID/Info : UTF-8 Plain Text
Duration : 48 min 31 s
Bit rate : 36 b/s
Count of elements : 419
Stream size : 13.0 KiB (0%)
Title : Slovenian
Language : Slovenian
Default : No
Forced : No

Text #35
ID : 37
Format : UTF-8
Codec ID : S_TEXT/UTF8
Codec ID/Info : UTF-8 Plain Text
Duration : 48 min 31 s
Bit rate : 43 b/s
Count of elements : 494
Stream size : 15.6 KiB (0%)
Title : Swedish
Language : Swedish
Default : No
Forced : No

Text #36
ID : 38
Format : UTF-8
Codec ID : S_TEXT/UTF8
Codec ID/Info : UTF-8 Plain Text
Duration : 48 min 31 s
Bit rate : 141 b/s
Count of elements : 531
Stream size : 50.5 KiB (0%)
Title : Tamil
Language : Tamil
Default : No
Forced : No

Text #37
ID : 39
Format : UTF-8
Codec ID : S_TEXT/UTF8
Codec ID/Info : UTF-8 Plain Text
Duration : 48 min 31 s
Bit rate : 137 b/s
Count of elements : 531
Stream size : 49.0 KiB (0%)
Title : Telugu
Language : Telugu
Default : No
Forced : No

Text #38
ID : 40
Format : UTF-8
Codec ID : S_TEXT/UTF8
Codec ID/Info : UTF-8 Plain Text
Duration : 48 min 31 s
Bit rate : 121 b/s
Count of elements : 531
Stream size : 43.2 KiB (0%)
Title : Thai
Language : Thai
Default : No
Forced : No

Text #39
ID : 41
Format : UTF-8
Codec ID : S_TEXT/UTF8
Codec ID/Info : UTF-8 Plain Text
Duration : 48 min 31 s
Bit rate : 48 b/s
Count of elements : 528
Stream size : 17.3 KiB (0%)
Title : Turkish
Language : Turkish
Default : No
Forced : No

Text #40
ID : 42
Format : UTF-8
Codec ID : S_TEXT/UTF8
Codec ID/Info : UTF-8 Plain Text
Duration : 48 min 40 s
Bit rate : 70 b/s
Count of elements : 531
Stream size : 25.1 KiB (0%)
Title : Ukrainian
Language : Ukrainian
Default : No
Forced : No

Text #41
ID : 43
Format : UTF-8
Codec ID : S_TEXT/UTF8
Codec ID/Info : UTF-8 Plain Text
Duration : 48 min 40 s
Bit rate : 60 b/s
Count of elements : 531
Stream size : 21.4 KiB (0%)
Title : Vietnamese
Language : Vietnamese
Default : No
Forced : No

Download

Direct download files get automatically deleted after a month or so. Posted on : 06/04/2021

[collapse]

You may also like...

error: nah :p~