Ghoul

Horror | TV Series (2018– )

A prisoner arrives at a remote military interrogation centre and turns the tables on his interrogators, exposing their most shameful secrets.

Watch trailer

Details and Download | S01 COMPLETE

Average Media Info:
General
Format : Matroska
Format version : Version 4 / Version 2
Overall bit rate : 661 kb/s
Encoded date : UTC 2018-08-25 10:20:41
Writing application : mkvmerge v25.0.0 (‘Prog Noir’) 32-bit
Writing library : libebml v1.3.6 + libmatroska v1.4.9

Video
ID : 1
Format : HEVC
Format/Info : High Efficiency Video Coding
Format profile : Main [email protected]@Main
Codec ID : V_MPEGH/ISO/HEVC
Bit rate : 584 kb/s
Width : 1 280 pixels
Height : 536 pixels
Display aspect ratio : 2.40:1
Frame rate mode : Constant
Frame rate : 24.000 FPS
Color space : YUV
Chroma subsampling : 4:2:0
Bit depth : 10 bits
Bits/(Pixel*Frame) : 0.035
Default : Yes
Forced : No

Audio
ID : 2
Format : AAC
Format/Info : Advanced Audio Codec
Format profile : HE-AAC / LC
Format settings : Explicit
Codec ID : A_AAC-2
Bit rate : 72.0 kb/s
Channel(s) : 2 channels
Channel positions : Front: L R
Sampling rate : 48.0 kHz / 24.0 kHz
Frame rate : 23.438 FPS (1024 SPF)
Compression mode : Lossy
Delay relative to video : 23 ms
Language : English
Default : Yes
Forced : No

Text #1
ID : 3
Format : UTF-8
Codec ID : S_TEXT/UTF8
Codec ID/Info : UTF-8 Plain Text
Bit rate : 42 b/s
Count of elements : 434
Language : English
Default : Yes
Forced : No

Text #2
ID : 4
Format : UTF-8
Codec ID : S_TEXT/UTF8
Codec ID/Info : UTF-8 Plain Text
Bit rate : 2 b/s
Count of elements : 6
Language : Hindi
Default : No
Forced : Yes

Text #3
ID : 5
Format : UTF-8
Codec ID : S_TEXT/UTF8
Codec ID/Info : UTF-8 Plain Text
Bit rate : 57 b/s
Count of elements : 350
Language : Arabic
Default : No
Forced : No

Text #4
ID : 6
Format : UTF-8
Codec ID : S_TEXT/UTF8
Codec ID/Info : UTF-8 Plain Text
Bit rate : 24 b/s
Count of elements : 317
Language : Danish
Default : No
Forced : No

Text #5
ID : 7
Format : UTF-8
Codec ID : S_TEXT/UTF8
Codec ID/Info : UTF-8 Plain Text
Bit rate : 35 b/s
Count of elements : 337
Language : German
Default : No
Forced : No

Text #6
ID : 8
Format : UTF-8
Codec ID : S_TEXT/UTF8
Codec ID/Info : UTF-8 Plain Text
Bit rate : 52 b/s
Count of elements : 342
Language : Greek
Default : No
Forced : No

Text #7
ID : 9
Format : UTF-8
Codec ID : S_TEXT/UTF8
Codec ID/Info : UTF-8 Plain Text
Bit rate : 30 b/s
Count of elements : 348
Language : Spanish
Default : No
Forced : No

Text #8
ID : 10
Format : UTF-8
Codec ID : S_TEXT/UTF8
Codec ID/Info : UTF-8 Plain Text
Bit rate : 31 b/s
Count of elements : 338
Language : Spanish
Default : No
Forced : No

Text #9
ID : 11
Format : UTF-8
Codec ID : S_TEXT/UTF8
Codec ID/Info : UTF-8 Plain Text
Bit rate : 29 b/s
Count of elements : 332
Language : Finnish
Default : No
Forced : No

Text #10
ID : 12
Format : UTF-8
Codec ID : S_TEXT/UTF8
Codec ID/Info : UTF-8 Plain Text
Bit rate : 32 b/s
Count of elements : 333
Language : French
Default : No
Forced : No

Text #11
ID : 13
Format : UTF-8
Codec ID : S_TEXT/UTF8
Codec ID/Info : UTF-8 Plain Text
Bit rate : 49 b/s
Count of elements : 344
Language : Hebrew
Default : No
Forced : No

Text #12
ID : 14
Format : UTF-8
Codec ID : S_TEXT/UTF8
Codec ID/Info : UTF-8 Plain Text
Bit rate : 81 b/s
Count of elements : 422
Language : Hindi
Default : No
Forced : No

Text #13
ID : 15
Format : UTF-8
Codec ID : S_TEXT/UTF8
Codec ID/Info : UTF-8 Plain Text
Bit rate : 32 b/s
Count of elements : 373
Language : Italian
Default : No
Forced : No

Text #14
ID : 16
Format : UTF-8
Codec ID : S_TEXT/UTF8
Codec ID/Info : UTF-8 Plain Text
Bit rate : 27 b/s
Count of elements : 349
Language : Japanese
Default : No
Forced : No

Text #15
ID : 17
Format : UTF-8
Codec ID : S_TEXT/UTF8
Codec ID/Info : UTF-8 Plain Text
Bit rate : 33 b/s
Count of elements : 350
Language : Korean
Default : No
Forced : No

Text #16
ID : 18
Format : UTF-8
Codec ID : S_TEXT/UTF8
Codec ID/Info : UTF-8 Plain Text
Bit rate : 31 b/s
Count of elements : 321
Language : Norwegian
Default : No
Forced : No

Text #17
ID : 19
Format : UTF-8
Codec ID : S_TEXT/UTF8
Codec ID/Info : UTF-8 Plain Text
Bit rate : 28 b/s
Count of elements : 316
Language : Dutch
Default : No
Forced : No

Text #18
ID : 20
Format : UTF-8
Codec ID : S_TEXT/UTF8
Codec ID/Info : UTF-8 Plain Text
Bit rate : 26 b/s
Count of elements : 335
Language : Polish
Default : No
Forced : No

Text #19
ID : 21
Format : UTF-8
Codec ID : S_TEXT/UTF8
Codec ID/Info : UTF-8 Plain Text
Bit rate : 31 b/s
Count of elements : 320
Language : Portuguese
Default : No
Forced : No

Text #20
ID : 22
Format : UTF-8
Codec ID : S_TEXT/UTF8
Codec ID/Info : UTF-8 Plain Text
Bit rate : 30 b/s
Count of elements : 343
Language : Portuguese
Default : No
Forced : No

Text #21
ID : 23
Format : UTF-8
Codec ID : S_TEXT/UTF8
Codec ID/Info : UTF-8 Plain Text
Bit rate : 32 b/s
Count of elements : 338
Language : Romanian
Default : No
Forced : No

Text #22
ID : 24
Format : UTF-8
Codec ID : S_TEXT/UTF8
Codec ID/Info : UTF-8 Plain Text
Bit rate : 30 b/s
Count of elements : 336
Language : Swedish
Default : No
Forced : No

Text #23
ID : 25
Format : UTF-8
Codec ID : S_TEXT/UTF8
Codec ID/Info : UTF-8 Plain Text
Bit rate : 78 b/s
Count of elements : 344
Language : Thai
Default : No
Forced : No

Text #24
ID : 26
Format : UTF-8
Codec ID : S_TEXT/UTF8
Codec ID/Info : UTF-8 Plain Text
Bit rate : 29 b/s
Count of elements : 351
Language : Turkish
Default : No
Forced : No

Text #25
ID : 27
Format : UTF-8
Codec ID : S_TEXT/UTF8
Codec ID/Info : UTF-8 Plain Text
Bit rate : 29 b/s
Count of elements : 332
Language : Chinese
Default : No
Forced : No

Text #26
ID : 28
Format : UTF-8
Codec ID : S_TEXT/UTF8
Codec ID/Info : UTF-8 Plain Text
Bit rate : 29 b/s
Count of elements : 336
Language : Chinese
Default : No
Forced : No

Download

Direct download files get automatically deleted after a month or so. Posted on : 08/25/2018

File size : 661 MB (693,870,592 bytes)

[collapse]
Magnet

Magnet

Source : GHOUL.S01.HINDI.1080p.NF.WEBRip.DDP5.1.x264-NTb- 3.60 GB

[collapse]

Details and Download | S01E03

General
Format : Matroska
Format version : Version 4 / Version 2
File size : 414 MiB
Duration : 49 min 36 s
Overall bit rate : 1 168 kb/s
Movie name : GHOUL.S01E03.Reveal.Their.Guilt.Eat.Their.Flesh.720p.WEB-DL.2CH.x264.AVC
Encoded date : UTC 2018-08-24 15:30:37
Writing application : mkvmerge v25.0.0 (‘Prog Noir’) 32-bit
Writing library : libebml v1.3.6 + libmatroska v1.4.9

Video
ID : 29
Format : AVC
Format/Info : Advanced Video Codec
Format profile : [email protected]
Format settings : CABAC / 8 Ref Frames
Format settings, CABAC : Yes
Format settings, RefFrames : 8 frames
Codec ID : V_MPEG4/ISO/AVC
Duration : 49 min 36 s
Bit rate : 1 100 kb/s
Width : 1 280 pixels
Height : 536 pixels
Display aspect ratio : 2.40:1
Frame rate mode : Constant
Frame rate : 24.000 FPS
Color space : YUV
Chroma subsampling : 4:2:0
Bit depth : 8 bits
Scan type : Progressive
Bits/(Pixel*Frame) : 0.067
Stream size : 390 MiB (94%)
Default : Yes
Forced : No
Color range : Limited
Color primaries : BT.709
Transfer characteristics : BT.709
Matrix coefficients : BT.709

Audio
ID : 1
Format : AAC
Format/Info : Advanced Audio Codec
Format profile : HE-AAC / LC
Format settings : Explicit
Codec ID : A_AAC-2
Duration : 49 min 36 s
Bit rate : 64.0 kb/s
Channel(s) : 2 channels
Channel positions : Front: L R
Sampling rate : 48.0 kHz / 24.0 kHz
Frame rate : 23.438 FPS (1024 SPF)
Compression mode : Lossy
Delay relative to video : 31 ms
Stream size : 22.7 MiB (5%)
Language : Hindi
Default : Yes
Forced : No

Text #1
ID : 2
Format : UTF-8
Codec ID : S_TEXT/UTF8
Codec ID/Info : UTF-8 Plain Text
Duration : 3 min 28 s
Bit rate : 10 b/s
Count of elements : 5
Stream size : 281 Bytes (0%)
Title : Forced
Language : Hindi
Default : No
Forced : Yes

Text #2
ID : 3
Format : UTF-8
Codec ID : S_TEXT/UTF8
Codec ID/Info : UTF-8 Plain Text
Duration : 44 min 17 s
Bit rate : 50 b/s
Count of elements : 475
Stream size : 16.3 KiB (0%)
Title : SDH
Language : English
Default : Yes
Forced : No

Text #3
ID : 4
Format : UTF-8
Codec ID : S_TEXT/UTF8
Codec ID/Info : UTF-8 Plain Text
Duration : 44 min 17 s
Bit rate : 51 b/s
Count of elements : 527
Stream size : 16.7 KiB (0%)
Language : English
Default : No
Forced : No

Text #4
ID : 5
Format : UTF-8
Codec ID : S_TEXT/UTF8
Codec ID/Info : UTF-8 Plain Text
Duration : 45 min 0 s
Bit rate : 68 b/s
Count of elements : 417
Stream size : 22.6 KiB (0%)
Language : Arabic
Default : No
Forced : No

Text #5
ID : 6
Format : UTF-8
Codec ID : S_TEXT/UTF8
Codec ID/Info : UTF-8 Plain Text
Duration : 44 min 22 s
Bit rate : 30 b/s
Count of elements : 378
Stream size : 9.86 KiB (0%)
Language : Danish
Default : No
Forced : No

Text #6
ID : 7
Format : UTF-8
Codec ID : S_TEXT/UTF8
Codec ID/Info : UTF-8 Plain Text
Duration : 44 min 59 s
Bit rate : 42 b/s
Count of elements : 395
Stream size : 13.9 KiB (0%)
Language : German
Default : No
Forced : No

Text #7
ID : 8
Format : UTF-8
Codec ID : S_TEXT/UTF8
Codec ID/Info : UTF-8 Plain Text
Duration : 45 min 0 s
Bit rate : 62 b/s
Count of elements : 402
Stream size : 20.5 KiB (0%)
Language : Greek
Default : No
Forced : No

Text #8
ID : 9
Format : UTF-8
Codec ID : S_TEXT/UTF8
Codec ID/Info : UTF-8 Plain Text
Duration : 44 min 59 s
Bit rate : 36 b/s
Count of elements : 399
Stream size : 12.0 KiB (0%)
Language : Spanish
Default : No
Forced : No

Text #9
ID : 10
Format : UTF-8
Codec ID : S_TEXT/UTF8
Codec ID/Info : UTF-8 Plain Text
Duration : 44 min 22 s
Bit rate : 38 b/s
Count of elements : 392
Stream size : 12.4 KiB (0%)
Title : European
Language : Spanish
Default : No
Forced : No

Text #10
ID : 11
Format : UTF-8
Codec ID : S_TEXT/UTF8
Codec ID/Info : UTF-8 Plain Text
Duration : 44 min 59 s
Bit rate : 37 b/s
Count of elements : 390
Stream size : 12.3 KiB (0%)
Language : Finnish
Default : No
Forced : No

Text #11
ID : 12
Format : UTF-8
Codec ID : S_TEXT/UTF8
Codec ID/Info : UTF-8 Plain Text
Duration : 44 min 57 s
Bit rate : 39 b/s
Count of elements : 398
Stream size : 13.0 KiB (0%)
Language : French
Default : No
Forced : No

Text #12
ID : 13
Format : UTF-8
Codec ID : S_TEXT/UTF8
Codec ID/Info : UTF-8 Plain Text
Duration : 45 min 0 s
Bit rate : 55 b/s
Count of elements : 395
Stream size : 18.2 KiB (0%)
Language : Hebrew
Default : No
Forced : No

Text #13
ID : 14
Format : UTF-8
Codec ID : S_TEXT/UTF8
Codec ID/Info : UTF-8 Plain Text
Duration : 44 min 59 s
Bit rate : 94 b/s
Count of elements : 471
Stream size : 31.0 KiB (0%)
Title : SDH
Language : Hindi
Default : No
Forced : No

Text #14
ID : 15
Format : UTF-8
Codec ID : S_TEXT/UTF8
Codec ID/Info : UTF-8 Plain Text
Duration : 44 min 57 s
Bit rate : 37 b/s
Count of elements : 444
Stream size : 12.4 KiB (0%)
Language : Italian
Default : No
Forced : No

Text #15
ID : 16
Format : UTF-8
Codec ID : S_TEXT/UTF8
Codec ID/Info : UTF-8 Plain Text
Duration : 45 min 0 s
Bit rate : 32 b/s
Count of elements : 424
Stream size : 10.8 KiB (0%)
Language : Japanese
Default : No
Forced : No

Text #16
ID : 17
Format : UTF-8
Codec ID : S_TEXT/UTF8
Codec ID/Info : UTF-8 Plain Text
Duration : 44 min 46 s
Bit rate : 39 b/s
Count of elements : 408
Stream size : 13.0 KiB (0%)
Language : Korean
Default : No
Forced : No

Text #17
ID : 18
Format : UTF-8
Codec ID : S_TEXT/UTF8
Codec ID/Info : UTF-8 Plain Text
Duration : 44 min 59 s
Bit rate : 36 b/s
Count of elements : 366
Stream size : 12.0 KiB (0%)
Language : Norwegian Bokmal
Default : No
Forced : No

Text #18
ID : 19
Format : UTF-8
Codec ID : S_TEXT/UTF8
Codec ID/Info : UTF-8 Plain Text
Duration : 44 min 22 s
Bit rate : 34 b/s
Count of elements : 377
Stream size : 11.1 KiB (0%)
Language : Dutch
Default : No
Forced : No

Text #19
ID : 20
Format : UTF-8
Codec ID : S_TEXT/UTF8
Codec ID/Info : UTF-8 Plain Text
Duration : 44 min 57 s
Bit rate : 30 b/s
Count of elements : 389
Stream size : 10.2 KiB (0%)
Language : Polish
Default : No
Forced : No

Text #20
ID : 21
Format : UTF-8
Codec ID : S_TEXT/UTF8
Codec ID/Info : UTF-8 Plain Text
Duration : 44 min 22 s
Bit rate : 37 b/s
Count of elements : 380
Stream size : 12.3 KiB (0%)
Language : Portuguese
Default : No
Forced : No

Text #21
ID : 22
Format : UTF-8
Codec ID : S_TEXT/UTF8
Codec ID/Info : UTF-8 Plain Text
Duration : 44 min 57 s
Bit rate : 35 b/s
Count of elements : 399
Stream size : 11.7 KiB (0%)
Title : Brazilian
Language : Portuguese
Default : No
Forced : No

Text #22
ID : 23
Format : UTF-8
Codec ID : S_TEXT/UTF8
Codec ID/Info : UTF-8 Plain Text
Duration : 44 min 57 s
Bit rate : 38 b/s
Count of elements : 402
Stream size : 12.5 KiB (0%)
Language : Romanian
Default : No
Forced : No

Text #23
ID : 24
Format : UTF-8
Codec ID : S_TEXT/UTF8
Codec ID/Info : UTF-8 Plain Text
Duration : 44 min 54 s
Bit rate : 37 b/s
Count of elements : 390
Stream size : 12.4 KiB (0%)
Language : Swedish
Default : No
Forced : No

Text #24
ID : 25
Format : UTF-8
Codec ID : S_TEXT/UTF8
Codec ID/Info : UTF-8 Plain Text
Duration : 44 min 57 s
Bit rate : 89 b/s
Count of elements : 409
Stream size : 29.4 KiB (0%)
Language : Thai
Default : No
Forced : No

Text #25
ID : 26
Format : UTF-8
Codec ID : S_TEXT/UTF8
Codec ID/Info : UTF-8 Plain Text
Duration : 44 min 45 s
Bit rate : 34 b/s
Count of elements : 401
Stream size : 11.2 KiB (0%)
Language : Turkish
Default : No
Forced : No

Text #26
ID : 27
Format : UTF-8
Codec ID : S_TEXT/UTF8
Codec ID/Info : UTF-8 Plain Text
Duration : 44 min 57 s
Bit rate : 35 b/s
Count of elements : 408
Stream size : 11.7 KiB (0%)
Title : Simplified
Language : Chinese
Default : No
Forced : No

Text #27
ID : 28
Format : UTF-8
Codec ID : S_TEXT/UTF8
Codec ID/Info : UTF-8 Plain Text
Duration : 45 min 0 s
Bit rate : 34 b/s
Count of elements : 400
Stream size : 11.3 KiB (0%)
Title : Traditional
Language : Chinese
Default : No
Forced : No

Download

Direct download files get automatically deleted after a month or so. Posted on : 08/24/2018

[collapse]
Details and Download | S01E02

General
Format : Matroska
Format version : Version 4 / Version 2
File size : 370 MiB
Duration : 44 min 18 s
Overall bit rate : 1 168 kb/s
Movie name : GHOUL.S01E02.The.Nightmares.Will.Begin.720p.WEB-DL.2CH.x264.AVC
Encoded date : UTC 2018-08-24 15:29:23
Writing application : mkvmerge v25.0.0 (‘Prog Noir’) 32-bit
Writing library : libebml v1.3.6 + libmatroska v1.4.9

Video
ID : 29
Format : AVC
Format/Info : Advanced Video Codec
Format profile : [email protected]
Format settings : CABAC / 8 Ref Frames
Format settings, CABAC : Yes
Format settings, RefFrames : 8 frames
Codec ID : V_MPEG4/ISO/AVC
Duration : 44 min 18 s
Bit rate : 1 100 kb/s
Width : 1 280 pixels
Height : 536 pixels
Display aspect ratio : 2.40:1
Frame rate mode : Constant
Frame rate : 24.000 FPS
Color space : YUV
Chroma subsampling : 4:2:0
Bit depth : 8 bits
Scan type : Progressive
Bits/(Pixel*Frame) : 0.067
Stream size : 349 MiB (94%)
Default : Yes
Forced : No
Color range : Limited
Color primaries : BT.709
Transfer characteristics : BT.709
Matrix coefficients : BT.709

Audio
ID : 1
Format : AAC
Format/Info : Advanced Audio Codec
Format profile : HE-AAC / LC
Format settings : Explicit
Codec ID : A_AAC-2
Duration : 44 min 18 s
Bit rate : 64.0 kb/s
Channel(s) : 2 channels
Channel positions : Front: L R
Sampling rate : 48.0 kHz / 24.0 kHz
Frame rate : 23.438 FPS (1024 SPF)
Compression mode : Lossy
Delay relative to video : 31 ms
Stream size : 20.3 MiB (5%)
Default : Yes
Forced : No

Text #1
ID : 2
Format : UTF-8
Codec ID : S_TEXT/UTF8
Codec ID/Info : UTF-8 Plain Text
Duration : 34 min 37 s
Bit rate : 2 b/s
Count of elements : 6
Stream size : 570 Bytes (0%)
Title : Forced
Language : Hindi
Default : No
Forced : Yes

Text #2
ID : 3
Format : UTF-8
Codec ID : S_TEXT/UTF8
Codec ID/Info : UTF-8 Plain Text
Duration : 39 min 33 s
Bit rate : 42 b/s
Count of elements : 433
Stream size : 12.2 KiB (0%)
Title : SDH
Language : English
Default : Yes
Forced : No

Text #3
ID : 4
Format : UTF-8
Codec ID : S_TEXT/UTF8
Codec ID/Info : UTF-8 Plain Text
Duration : 39 min 33 s
Bit rate : 40 b/s
Count of elements : 429
Stream size : 11.7 KiB (0%)
Language : English
Default : No
Forced : No

Text #4
ID : 5
Format : UTF-8
Codec ID : S_TEXT/UTF8
Codec ID/Info : UTF-8 Plain Text
Duration : 40 min 6 s
Bit rate : 57 b/s
Count of elements : 350
Stream size : 17.0 KiB (0%)
Language : Arabic
Default : No
Forced : No

Text #5
ID : 6
Format : UTF-8
Codec ID : S_TEXT/UTF8
Codec ID/Info : UTF-8 Plain Text
Duration : 40 min 6 s
Bit rate : 24 b/s
Count of elements : 317
Stream size : 7.28 KiB (0%)
Language : Danish
Default : No
Forced : No

Text #6
ID : 7
Format : UTF-8
Codec ID : S_TEXT/UTF8
Codec ID/Info : UTF-8 Plain Text
Duration : 40 min 5 s
Bit rate : 35 b/s
Count of elements : 337
Stream size : 10.3 KiB (0%)
Language : German
Default : No
Forced : No

Text #7
ID : 8
Format : UTF-8
Codec ID : S_TEXT/UTF8
Codec ID/Info : UTF-8 Plain Text
Duration : 40 min 6 s
Bit rate : 52 b/s
Count of elements : 342
Stream size : 15.5 KiB (0%)
Language : Greek
Default : No
Forced : No

Text #8
ID : 9
Format : UTF-8
Codec ID : S_TEXT/UTF8
Codec ID/Info : UTF-8 Plain Text
Duration : 40 min 6 s
Bit rate : 30 b/s
Count of elements : 348
Stream size : 9.00 KiB (0%)
Language : Spanish
Default : No
Forced : No

Text #9
ID : 10
Format : UTF-8
Codec ID : S_TEXT/UTF8
Codec ID/Info : UTF-8 Plain Text
Duration : 40 min 6 s
Bit rate : 31 b/s
Count of elements : 338
Stream size : 9.19 KiB (0%)
Title : European
Language : Spanish
Default : No
Forced : No

Text #10
ID : 11
Format : UTF-8
Codec ID : S_TEXT/UTF8
Codec ID/Info : UTF-8 Plain Text
Duration : 40 min 6 s
Bit rate : 29 b/s
Count of elements : 332
Stream size : 8.77 KiB (0%)
Language : Finnish
Default : No
Forced : No

Text #11
ID : 12
Format : UTF-8
Codec ID : S_TEXT/UTF8
Codec ID/Info : UTF-8 Plain Text
Duration : 40 min 6 s
Bit rate : 32 b/s
Count of elements : 333
Stream size : 9.57 KiB (0%)
Language : French
Default : No
Forced : No

Text #12
ID : 13
Format : UTF-8
Codec ID : S_TEXT/UTF8
Codec ID/Info : UTF-8 Plain Text
Duration : 40 min 6 s
Bit rate : 49 b/s
Count of elements : 344
Stream size : 14.6 KiB (0%)
Language : Hebrew
Default : No
Forced : No

Text #13
ID : 14
Format : UTF-8
Codec ID : S_TEXT/UTF8
Codec ID/Info : UTF-8 Plain Text
Duration : 41 min 15 s
Bit rate : 81 b/s
Count of elements : 422
Stream size : 24.6 KiB (0%)
Title : SDH
Language : Hindi
Default : No
Forced : No

Text #14
ID : 15
Format : UTF-8
Codec ID : S_TEXT/UTF8
Codec ID/Info : UTF-8 Plain Text
Duration : 40 min 6 s
Bit rate : 32 b/s
Count of elements : 373
Stream size : 9.42 KiB (0%)
Language : Italian
Default : No
Forced : No

Text #15
ID : 16
Format : UTF-8
Codec ID : S_TEXT/UTF8
Codec ID/Info : UTF-8 Plain Text
Duration : 40 min 6 s
Bit rate : 27 b/s
Count of elements : 349
Stream size : 8.17 KiB (0%)
Language : Japanese
Default : No
Forced : No

Text #16
ID : 17
Format : UTF-8
Codec ID : S_TEXT/UTF8
Codec ID/Info : UTF-8 Plain Text
Duration : 40 min 6 s
Bit rate : 33 b/s
Count of elements : 350
Stream size : 9.97 KiB (0%)
Language : Korean
Default : No
Forced : No

Text #17
ID : 18
Format : UTF-8
Codec ID : S_TEXT/UTF8
Codec ID/Info : UTF-8 Plain Text
Duration : 40 min 6 s
Bit rate : 31 b/s
Count of elements : 321
Stream size : 9.28 KiB (0%)
Language : Norwegian Bokmal
Default : No
Forced : No

Text #18
ID : 19
Format : UTF-8
Codec ID : S_TEXT/UTF8
Codec ID/Info : UTF-8 Plain Text
Duration : 39 min 59 s
Bit rate : 28 b/s
Count of elements : 316
Stream size : 8.29 KiB (0%)
Language : Dutch
Default : No
Forced : No

Text #19
ID : 20
Format : UTF-8
Codec ID : S_TEXT/UTF8
Codec ID/Info : UTF-8 Plain Text
Duration : 40 min 6 s
Bit rate : 26 b/s
Count of elements : 335
Stream size : 7.86 KiB (0%)
Language : Polish
Default : No
Forced : No

Text #20
ID : 21
Format : UTF-8
Codec ID : S_TEXT/UTF8
Codec ID/Info : UTF-8 Plain Text
Duration : 40 min 6 s
Bit rate : 31 b/s
Count of elements : 320
Stream size : 9.12 KiB (0%)
Language : Portuguese
Default : No
Forced : No

Text #21
ID : 22
Format : UTF-8
Codec ID : S_TEXT/UTF8
Codec ID/Info : UTF-8 Plain Text
Duration : 40 min 6 s
Bit rate : 30 b/s
Count of elements : 343
Stream size : 8.89 KiB (0%)
Title : Brazilian
Language : Portuguese
Default : No
Forced : No

Text #22
ID : 23
Format : UTF-8
Codec ID : S_TEXT/UTF8
Codec ID/Info : UTF-8 Plain Text
Duration : 40 min 6 s
Bit rate : 32 b/s
Count of elements : 338
Stream size : 9.58 KiB (0%)
Language : Romanian
Default : No
Forced : No

Text #23
ID : 24
Format : UTF-8
Codec ID : S_TEXT/UTF8
Codec ID/Info : UTF-8 Plain Text
Duration : 40 min 6 s
Bit rate : 30 b/s
Count of elements : 336
Stream size : 8.89 KiB (0%)
Language : Swedish
Default : No
Forced : No

Text #24
ID : 25
Format : UTF-8
Codec ID : S_TEXT/UTF8
Codec ID/Info : UTF-8 Plain Text
Duration : 40 min 6 s
Bit rate : 78 b/s
Count of elements : 344
Stream size : 23.1 KiB (0%)
Language : Thai
Default : No
Forced : No

Text #25
ID : 26
Format : UTF-8
Codec ID : S_TEXT/UTF8
Codec ID/Info : UTF-8 Plain Text
Duration : 40 min 6 s
Bit rate : 29 b/s
Count of elements : 351
Stream size : 8.61 KiB (0%)
Language : Turkish
Default : No
Forced : No

Text #26
ID : 27
Format : UTF-8
Codec ID : S_TEXT/UTF8
Codec ID/Info : UTF-8 Plain Text
Duration : 40 min 6 s
Bit rate : 29 b/s
Count of elements : 332
Stream size : 8.78 KiB (0%)
Title : Simplified
Language : Chinese
Default : No
Forced : No

Text #27
ID : 28
Format : UTF-8
Codec ID : S_TEXT/UTF8
Codec ID/Info : UTF-8 Plain Text
Duration : 40 min 6 s
Bit rate : 29 b/s
Count of elements : 336
Stream size : 8.54 KiB (0%)
Title : Traditional
Language : Chinese
Default : No
Forced : No

Download

Direct download files get automatically deleted after a month or so. Posted on : 08/24/2018

[collapse]
Details and Download | S01E01

General
Format : Matroska
Format version : Version 4 / Version 2
File size : 374 MiB
Duration : 44 min 48 s
Overall bit rate : 1 168 kb/s
Movie name : GHOUL.S01E01.Out.of.the.Smokeless.Fire.720p.WEB-DL.2CH.x264.AVC
Encoded date : UTC 2018-08-24 15:27:45
Writing application : mkvmerge v25.0.0 (‘Prog Noir’) 32-bit
Writing library : libebml v1.3.6 + libmatroska v1.4.9

Video
ID : 29
Format : AVC
Format/Info : Advanced Video Codec
Format profile : [email protected]
Format settings : CABAC / 8 Ref Frames
Format settings, CABAC : Yes
Format settings, RefFrames : 8 frames
Codec ID : V_MPEG4/ISO/AVC
Duration : 44 min 48 s
Bit rate : 1 100 kb/s
Width : 1 280 pixels
Height : 536 pixels
Display aspect ratio : 2.40:1
Frame rate mode : Constant
Frame rate : 24.000 FPS
Color space : YUV
Chroma subsampling : 4:2:0
Bit depth : 8 bits
Scan type : Progressive
Bits/(Pixel*Frame) : 0.067
Stream size : 353 MiB (94%)
Default : Yes
Forced : No
Color range : Limited
Color primaries : BT.709
Transfer characteristics : BT.709
Matrix coefficients : BT.709

Audio
ID : 1
Format : AAC
Format/Info : Advanced Audio Codec
Format profile : HE-AAC / LC
Format settings : Explicit
Codec ID : A_AAC-2
Duration : 44 min 48 s
Bit rate : 64.0 kb/s
Channel(s) : 2 channels
Channel positions : Front: L R
Sampling rate : 48.0 kHz / 24.0 kHz
Frame rate : 23.438 FPS (1024 SPF)
Compression mode : Lossy
Delay relative to video : 31 ms
Stream size : 20.5 MiB (5%)
Language : English
Default : Yes
Forced : No

Text #1
ID : 2
Format : UTF-8
Codec ID : S_TEXT/UTF8
Codec ID/Info : UTF-8 Plain Text
Duration : 19 min 32 s
Bit rate : 7 b/s
Count of elements : 18
Stream size : 1.03 KiB (0%)
Title : Forced
Language : Hindi
Default : No
Forced : Yes

Text #2
ID : 3
Format : UTF-8
Codec ID : S_TEXT/UTF8
Codec ID/Info : UTF-8 Plain Text
Duration : 38 min 44 s
Bit rate : 55 b/s
Count of elements : 463
Stream size : 15.8 KiB (0%)
Title : SDH
Language : English
Default : Yes
Forced : No

Text #3
ID : 4
Format : UTF-8
Codec ID : S_TEXT/UTF8
Codec ID/Info : UTF-8 Plain Text
Duration : 39 min 49 s
Bit rate : 41 b/s
Count of elements : 371
Stream size : 12.0 KiB (0%)
Language : English
Default : No
Forced : No

Text #4
ID : 5
Format : UTF-8
Codec ID : S_TEXT/UTF8
Codec ID/Info : UTF-8 Plain Text
Duration : 39 min 49 s
Bit rate : 76 b/s
Count of elements : 426
Stream size : 22.2 KiB (0%)
Language : Arabic
Default : No
Forced : No

Text #5
ID : 6
Format : UTF-8
Codec ID : S_TEXT/UTF8
Codec ID/Info : UTF-8 Plain Text
Duration : 39 min 49 s
Bit rate : 32 b/s
Count of elements : 371
Stream size : 9.60 KiB (0%)
Language : Danish
Default : No
Forced : No

Text #6
ID : 7
Format : UTF-8
Codec ID : S_TEXT/UTF8
Codec ID/Info : UTF-8 Plain Text
Duration : 39 min 49 s
Bit rate : 46 b/s
Count of elements : 399
Stream size : 13.7 KiB (0%)
Language : German
Default : No
Forced : No

Text #7
ID : 8
Format : UTF-8
Codec ID : S_TEXT/UTF8
Codec ID/Info : UTF-8 Plain Text
Duration : 39 min 49 s
Bit rate : 67 b/s
Count of elements : 381
Stream size : 19.6 KiB (0%)
Language : Greek
Default : No
Forced : No

Text #8
ID : 9
Format : UTF-8
Codec ID : S_TEXT/UTF8
Codec ID/Info : UTF-8 Plain Text
Duration : 39 min 49 s
Bit rate : 42 b/s
Count of elements : 398
Stream size : 12.4 KiB (0%)
Language : Spanish
Default : No
Forced : No

Text #9
ID : 10
Format : UTF-8
Codec ID : S_TEXT/UTF8
Codec ID/Info : UTF-8 Plain Text
Duration : 39 min 49 s
Bit rate : 43 b/s
Count of elements : 404
Stream size : 12.8 KiB (0%)
Title : European
Language : Spanish
Default : No
Forced : No

Text #10
ID : 11
Format : UTF-8
Codec ID : S_TEXT/UTF8
Codec ID/Info : UTF-8 Plain Text
Duration : 39 min 49 s
Bit rate : 40 b/s
Count of elements : 372
Stream size : 11.7 KiB (0%)
Language : Finnish
Default : No
Forced : No

Text #11
ID : 12
Format : UTF-8
Codec ID : S_TEXT/UTF8
Codec ID/Info : UTF-8 Plain Text
Duration : 39 min 49 s
Bit rate : 45 b/s
Count of elements : 403
Stream size : 13.3 KiB (0%)
Language : French
Default : No
Forced : No

Text #12
ID : 13
Format : UTF-8
Codec ID : S_TEXT/UTF8
Codec ID/Info : UTF-8 Plain Text
Duration : 39 min 49 s
Bit rate : 66 b/s
Count of elements : 404
Stream size : 19.3 KiB (0%)
Language : Hebrew
Default : No
Forced : No

Text #13
ID : 14
Format : UTF-8
Codec ID : S_TEXT/UTF8
Codec ID/Info : UTF-8 Plain Text
Duration : 39 min 54 s
Bit rate : 115 b/s
Count of elements : 473
Stream size : 33.7 KiB (0%)
Title : SDH
Language : Hindi
Default : No
Forced : No

Text #14
ID : 15
Format : UTF-8
Codec ID : S_TEXT/UTF8
Codec ID/Info : UTF-8 Plain Text
Duration : 39 min 49 s
Bit rate : 45 b/s
Count of elements : 423
Stream size : 13.3 KiB (0%)
Language : Italian
Default : No
Forced : No

Text #15
ID : 16
Format : UTF-8
Codec ID : S_TEXT/UTF8
Codec ID/Info : UTF-8 Plain Text
Duration : 39 min 49 s
Bit rate : 30 b/s
Count of elements : 375
Stream size : 9.04 KiB (0%)
Language : Japanese
Default : No
Forced : No

Text #16
ID : 17
Format : UTF-8
Codec ID : S_TEXT/UTF8
Codec ID/Info : UTF-8 Plain Text
Duration : 39 min 49 s
Bit rate : 46 b/s
Count of elements : 417
Stream size : 13.5 KiB (0%)
Language : Korean
Default : No
Forced : No

Text #17
ID : 18
Format : UTF-8
Codec ID : S_TEXT/UTF8
Codec ID/Info : UTF-8 Plain Text
Duration : 39 min 49 s
Bit rate : 42 b/s
Count of elements : 330
Stream size : 12.3 KiB (0%)
Language : Norwegian Bokmal
Default : No
Forced : No

Text #18
ID : 19
Format : UTF-8
Codec ID : S_TEXT/UTF8
Codec ID/Info : UTF-8 Plain Text
Duration : 39 min 43 s
Bit rate : 37 b/s
Count of elements : 369
Stream size : 10.9 KiB (0%)
Language : Dutch
Default : No
Forced : No

Text #19
ID : 20
Format : UTF-8
Codec ID : S_TEXT/UTF8
Codec ID/Info : UTF-8 Plain Text
Duration : 39 min 49 s
Bit rate : 36 b/s
Count of elements : 393
Stream size : 10.8 KiB (0%)
Language : Polish
Default : No
Forced : No

Text #20
ID : 21
Format : UTF-8
Codec ID : S_TEXT/UTF8
Codec ID/Info : UTF-8 Plain Text
Duration : 39 min 49 s
Bit rate : 43 b/s
Count of elements : 398
Stream size : 12.8 KiB (0%)
Language : Portuguese
Default : No
Forced : No

Text #21
ID : 22
Format : UTF-8
Codec ID : S_TEXT/UTF8
Codec ID/Info : UTF-8 Plain Text
Duration : 39 min 49 s
Bit rate : 39 b/s
Count of elements : 406
Stream size : 11.7 KiB (0%)
Title : Brazilian
Language : Portuguese
Default : No
Forced : No

Text #22
ID : 23
Format : UTF-8
Codec ID : S_TEXT/UTF8
Codec ID/Info : UTF-8 Plain Text
Duration : 39 min 49 s
Bit rate : 44 b/s
Count of elements : 386
Stream size : 12.8 KiB (0%)
Language : Romanian
Default : No
Forced : No

Text #23
ID : 24
Format : UTF-8
Codec ID : S_TEXT/UTF8
Codec ID/Info : UTF-8 Plain Text
Duration : 39 min 49 s
Bit rate : 42 b/s
Count of elements : 389
Stream size : 12.3 KiB (0%)
Language : Swedish
Default : No
Forced : No

Text #24
ID : 25
Format : UTF-8
Codec ID : S_TEXT/UTF8
Codec ID/Info : UTF-8 Plain Text
Duration : 39 min 49 s
Bit rate : 112 b/s
Count of elements : 412
Stream size : 32.9 KiB (0%)
Language : Thai
Default : No
Forced : No

Text #25
ID : 26
Format : UTF-8
Codec ID : S_TEXT/UTF8
Codec ID/Info : UTF-8 Plain Text
Duration : 39 min 49 s
Bit rate : 38 b/s
Count of elements : 406
Stream size : 11.3 KiB (0%)
Language : Turkish
Default : No
Forced : No

Text #26
ID : 27
Format : UTF-8
Codec ID : S_TEXT/UTF8
Codec ID/Info : UTF-8 Plain Text
Duration : 39 min 49 s
Bit rate : 39 b/s
Count of elements : 409
Stream size : 11.4 KiB (0%)
Title : Simplified
Language : Chinese
Default : No
Forced : No

Text #27
ID : 28
Format : UTF-8
Codec ID : S_TEXT/UTF8
Codec ID/Info : UTF-8 Plain Text
Duration : 39 min 49 s
Bit rate : 36 b/s
Count of elements : 400
Stream size : 10.8 KiB (0%)
Title : Traditional
Language : Chinese
Default : No
Forced : No

Download

Direct download files get automatically deleted after a month or so. Posted on : 08/24/2018

[collapse]

You may also like...

error: nah :p~