Dr. Brain (2021)

TV-MA | Drama, Mystery, Sci-Fi

Brilliant brain scientist Sewon (Lee Sun-Kyun) suffers a horrific personal tragedy. Desperate to uncover what happened to his family, he conducts “brain syncs” with the dead to access their memories for clues.

Watch trailer

Media Info and Download Links | S01E04

General
Format : Matroska
Format version : Version 4
File size : 295 MiB
Duration : 53 min 20 s
Overall bit rate : 773 kb/s
Movie name : Dr.Brain.S01E04.DUAL-AUDIO.KOR-ENG.720p.10bit.WEBRip.2CH.x265.HEVC

Video
ID : 1
Format : HEVC
Format/Info : High Efficiency Video Coding
Format profile : Main [email protected]@Main
Codec ID : V_MPEGH/ISO/HEVC
Duration : 53 min 20 s
Bit rate : 617 kb/s
Width : 1 280 pixels
Height : 544 pixels
Display aspect ratio : 2.35:1
Frame rate mode : Constant
Frame rate : 23.976 (24000/1001) FPS
Color space : YUV
Chroma subsampling : 4:2:0
Bit depth : 10 bits
Bits/(Pixel*Frame) : 0.037
Stream size : 235 MiB (80%)
Default : Yes
Forced : No
Color range : Limited
Color primaries : BT.709
Transfer characteristics : BT.709
Matrix coefficients : BT.709

Audio #1
ID : 2
Format : AAC LC SBR
Commercial name : HE-AAC
Format settings : Explicit
Codec ID : A_AAC-2
Duration : 53 min 19 s
Bit rate : 75.3 kb/s
Channel(s) : 2 channels
Channel layout : L R
Sampling rate : 48.0 kHz
Frame rate : 23.438 FPS (2048 SPF)
Compression mode : Lossy
Delay relative to video : 23 ms
Stream size : 28.7 MiB (10%)
Language : Korean
Default : Yes
Forced : No

Audio #2
ID : 3
Format : AAC LC SBR
Commercial name : HE-AAC
Format settings : Explicit
Codec ID : A_AAC-2
Duration : 53 min 19 s
Bit rate : 75.2 kb/s
Channel(s) : 2 channels
Channel layout : L R
Sampling rate : 48.0 kHz
Frame rate : 23.438 FPS (2048 SPF)
Compression mode : Lossy
Delay relative to video : 23 ms
Stream size : 28.7 MiB (10%)
Language : English
Default : No
Forced : No

Text #1
ID : 4
Format : UTF-8
Codec ID : S_TEXT/UTF8
Codec ID/Info : UTF-8 Plain Text
Duration : 53 min 1 s
Bit rate : 35 b/s
Count of elements : 414
Stream size : 13.7 KiB (0%)
Language : English
Default : Yes
Forced : No

Text #2
ID : 5
Format : UTF-8
Codec ID : S_TEXT/UTF8
Codec ID/Info : UTF-8 Plain Text
Duration : 51 min 10 s
Bit rate : 1 b/s
Count of elements : 16
Stream size : 526 Bytes (0%)
Title : Forced
Language : English
Default : No
Forced : Yes

Text #3
ID : 6
Format : UTF-8
Codec ID : S_TEXT/UTF8
Codec ID/Info : UTF-8 Plain Text
Duration : 16 min 34 s
Bit rate : 0 b/s
Count of elements : 3
Stream size : 88.0 Bytes (0%)
Title : Forced
Language : Korean
Default : No
Forced : No

Text #4
ID : 7
Format : UTF-8
Codec ID : S_TEXT/UTF8
Codec ID/Info : UTF-8 Plain Text
Duration : 52 min 59 s
Bit rate : 39 b/s
Count of elements : 381
Stream size : 15.4 KiB (0%)
Language : Korean
Default : No
Forced : No

Text #5
ID : 8
Format : UTF-8
Codec ID : S_TEXT/UTF8
Codec ID/Info : UTF-8 Plain Text
Duration : 52 min 59 s
Bit rate : 47 b/s
Count of elements : 474
Stream size : 18.3 KiB (0%)
Title : SDH
Language : Korean
Default : No
Forced : No

Text #6
ID : 9
Format : UTF-8
Codec ID : S_TEXT/UTF8
Codec ID/Info : UTF-8 Plain Text
Duration : 52 min 59 s
Bit rate : 47 b/s
Count of elements : 398
Stream size : 18.4 KiB (0%)
Language : Arabic
Default : No
Forced : No

Text #7
ID : 10
Format : UTF-8
Codec ID : S_TEXT/UTF8
Codec ID/Info : UTF-8 Plain Text
Duration : 52 min 59 s
Bit rate : 52 b/s
Count of elements : 387
Stream size : 20.2 KiB (0%)
Language : Bulgarian
Default : No
Forced : No

Text #8
ID : 11
Format : UTF-8
Codec ID : S_TEXT/UTF8
Codec ID/Info : UTF-8 Plain Text
Duration : 52 min 59 s
Bit rate : 29 b/s
Count of elements : 400
Stream size : 11.5 KiB (0%)
Title : Simplified
Language : Chinese
Default : No
Forced : No

Text #9
ID : 12
Format : UTF-8
Codec ID : S_TEXT/UTF8
Codec ID/Info : UTF-8 Plain Text
Duration : 52 min 59 s
Bit rate : 29 b/s
Count of elements : 400
Stream size : 11.4 KiB (0%)
Title : Traditional
Language : Chinese
Default : No
Forced : No

Text #10
ID : 13
Format : UTF-8
Codec ID : S_TEXT/UTF8
Codec ID/Info : UTF-8 Plain Text
Duration : 52 min 59 s
Bit rate : 33 b/s
Count of elements : 386
Stream size : 13.0 KiB (0%)
Language : Czech
Default : No
Forced : No

Text #11
ID : 14
Format : UTF-8
Codec ID : S_TEXT/UTF8
Codec ID/Info : UTF-8 Plain Text
Duration : 52 min 59 s
Bit rate : 33 b/s
Count of elements : 372
Stream size : 13.1 KiB (0%)
Language : Danish
Default : No
Forced : No

Text #12
ID : 15
Format : UTF-8
Codec ID : S_TEXT/UTF8
Codec ID/Info : UTF-8 Plain Text
Duration : 53 min 1 s
Bit rate : 34 b/s
Count of elements : 396
Stream size : 13.2 KiB (0%)
Language : German
Default : No
Forced : No

Text #13
ID : 16
Format : UTF-8
Codec ID : S_TEXT/UTF8
Codec ID/Info : UTF-8 Plain Text
Duration : 52 min 59 s
Bit rate : 58 b/s
Count of elements : 398
Stream size : 22.6 KiB (0%)
Language : Greek
Default : No
Forced : No

Text #14
ID : 17
Format : UTF-8
Codec ID : S_TEXT/UTF8
Codec ID/Info : UTF-8 Plain Text
Duration : 52 min 59 s
Bit rate : 35 b/s
Count of elements : 396
Stream size : 13.9 KiB (0%)
Title : Latin American
Language : Spanish
Default : No
Forced : No

Text #15
ID : 18
Format : UTF-8
Codec ID : S_TEXT/UTF8
Codec ID/Info : UTF-8 Plain Text
Duration : 52 min 59 s
Bit rate : 38 b/s
Count of elements : 404
Stream size : 15.0 KiB (0%)
Language : Spanish
Default : No
Forced : No

Text #16
ID : 19
Format : UTF-8
Codec ID : S_TEXT/UTF8
Codec ID/Info : UTF-8 Plain Text
Duration : 52 min 59 s
Bit rate : 32 b/s
Count of elements : 381
Stream size : 12.5 KiB (0%)
Language : Estonian
Default : No
Forced : No

Text #17
ID : 20
Format : UTF-8
Codec ID : S_TEXT/UTF8
Codec ID/Info : UTF-8 Plain Text
Duration : 52 min 59 s
Bit rate : 32 b/s
Count of elements : 388
Stream size : 12.8 KiB (0%)
Language : Finnish
Default : No
Forced : No

Text #18
ID : 21
Format : UTF-8
Codec ID : S_TEXT/UTF8
Codec ID/Info : UTF-8 Plain Text
Duration : 51 min 43 s
Bit rate : 34 b/s
Count of elements : 470
Stream size : 13.2 KiB (0%)
Title : Canadian
Language : French
Default : No
Forced : No

Text #19
ID : 22
Format : UTF-8
Codec ID : S_TEXT/UTF8
Codec ID/Info : UTF-8 Plain Text
Duration : 51 min 43 s
Bit rate : 34 b/s
Count of elements : 470
Stream size : 13.2 KiB (0%)
Language : French
Default : No
Forced : No

Text #20
ID : 23
Format : UTF-8
Codec ID : S_TEXT/UTF8
Codec ID/Info : UTF-8 Plain Text
Duration : 52 min 59 s
Bit rate : 45 b/s
Count of elements : 400
Stream size : 17.7 KiB (0%)
Language : Hebrew
Default : No
Forced : No

Text #21
ID : 24
Format : UTF-8
Codec ID : S_TEXT/UTF8
Codec ID/Info : UTF-8 Plain Text
Duration : 52 min 59 s
Bit rate : 93 b/s
Count of elements : 400
Stream size : 36.3 KiB (0%)
Language : Hindi
Default : No
Forced : No

Text #22
ID : 25
Format : UTF-8
Codec ID : S_TEXT/UTF8
Codec ID/Info : UTF-8 Plain Text
Duration : 52 min 59 s
Bit rate : 30 b/s
Count of elements : 398
Stream size : 12.0 KiB (0%)
Language : Hungarian
Default : No
Forced : No

Text #23
ID : 26
Format : UTF-8
Codec ID : S_TEXT/UTF8
Codec ID/Info : UTF-8 Plain Text
Duration : 52 min 59 s
Bit rate : 33 b/s
Count of elements : 399
Stream size : 13.1 KiB (0%)
Language : Indonesian
Default : No
Forced : No

Text #24
ID : 27
Format : UTF-8
Codec ID : S_TEXT/UTF8
Codec ID/Info : UTF-8 Plain Text
Duration : 53 min 1 s
Bit rate : 35 b/s
Count of elements : 399
Stream size : 13.7 KiB (0%)
Language : Italian
Default : No
Forced : No

Text #25
ID : 28
Format : UTF-8
Codec ID : S_TEXT/UTF8
Codec ID/Info : UTF-8 Plain Text
Duration : 53 min 7 s
Bit rate : 30 b/s
Count of elements : 415
Stream size : 11.7 KiB (0%)
Language : Japanese
Default : No
Forced : No

Text #26
ID : 29
Format : UTF-8
Codec ID : S_TEXT/UTF8
Codec ID/Info : UTF-8 Plain Text
Duration : 52 min 59 s
Bit rate : 35 b/s
Count of elements : 400
Stream size : 13.6 KiB (0%)
Language : Lithuanian
Default : No
Forced : No

Text #27
ID : 30
Format : UTF-8
Codec ID : S_TEXT/UTF8
Codec ID/Info : UTF-8 Plain Text
Duration : 52 min 59 s
Bit rate : 36 b/s
Count of elements : 398
Stream size : 14.1 KiB (0%)
Language : Latvian
Default : No
Forced : No

Text #28
ID : 31
Format : UTF-8
Codec ID : S_TEXT/UTF8
Codec ID/Info : UTF-8 Plain Text
Duration : 52 min 59 s
Bit rate : 35 b/s
Count of elements : 400
Stream size : 13.8 KiB (0%)
Language : Malay
Default : No
Forced : No

Text #29
ID : 32
Format : UTF-8
Codec ID : S_TEXT/UTF8
Codec ID/Info : UTF-8 Plain Text
Duration : 52 min 59 s
Bit rate : 31 b/s
Count of elements : 382
Stream size : 12.3 KiB (0%)
Language : Dutch
Default : No
Forced : No

Text #30
ID : 33
Format : UTF-8
Codec ID : S_TEXT/UTF8
Codec ID/Info : UTF-8 Plain Text
Duration : 52 min 59 s
Bit rate : 33 b/s
Count of elements : 387
Stream size : 12.9 KiB (0%)
Language : Norwegian
Default : No
Forced : No

Text #31
ID : 34
Format : UTF-8
Codec ID : S_TEXT/UTF8
Codec ID/Info : UTF-8 Plain Text
Duration : 52 min 59 s
Bit rate : 31 b/s
Count of elements : 381
Stream size : 12.4 KiB (0%)
Language : Polish
Default : No
Forced : No

Text #32
ID : 35
Format : UTF-8
Codec ID : S_TEXT/UTF8
Codec ID/Info : UTF-8 Plain Text
Duration : 52 min 59 s
Bit rate : 34 b/s
Count of elements : 395
Stream size : 13.5 KiB (0%)
Language : Portuguese
Default : No
Forced : No

Text #33
ID : 36
Format : UTF-8
Codec ID : S_TEXT/UTF8
Codec ID/Info : UTF-8 Plain Text
Duration : 52 min 59 s
Bit rate : 35 b/s
Count of elements : 399
Stream size : 13.6 KiB (0%)
Title : Brazilian
Language : Portuguese
Default : No
Forced : No

Text #34
ID : 37
Format : UTF-8
Codec ID : S_TEXT/UTF8
Codec ID/Info : UTF-8 Plain Text
Duration : 52 min 59 s
Bit rate : 52 b/s
Count of elements : 429
Stream size : 20.6 KiB (0%)
Language : Russian
Default : No
Forced : No

Text #35
ID : 38
Format : UTF-8
Codec ID : S_TEXT/UTF8
Codec ID/Info : UTF-8 Plain Text
Duration : 52 min 59 s
Bit rate : 32 b/s
Count of elements : 400
Stream size : 12.7 KiB (0%)
Language : Slovak
Default : No
Forced : No

Text #36
ID : 39
Format : UTF-8
Codec ID : S_TEXT/UTF8
Codec ID/Info : UTF-8 Plain Text
Duration : 52 min 59 s
Bit rate : 28 b/s
Count of elements : 396
Stream size : 11.1 KiB (0%)
Language : Slovenian
Default : No
Forced : No

Text #37
ID : 40
Format : UTF-8
Codec ID : S_TEXT/UTF8
Codec ID/Info : UTF-8 Plain Text
Duration : 52 min 59 s
Bit rate : 34 b/s
Count of elements : 396
Stream size : 13.2 KiB (0%)
Language : Swedish
Default : No
Forced : No

Text #38
ID : 41
Format : UTF-8
Codec ID : S_TEXT/UTF8
Codec ID/Info : UTF-8 Plain Text
Duration : 52 min 59 s
Bit rate : 113 b/s
Count of elements : 400
Stream size : 44.0 KiB (0%)
Language : Tamil
Default : No
Forced : No

Text #39
ID : 42
Format : UTF-8
Codec ID : S_TEXT/UTF8
Codec ID/Info : UTF-8 Plain Text
Duration : 52 min 59 s
Bit rate : 101 b/s
Count of elements : 400
Stream size : 39.4 KiB (0%)
Language : Telugu
Default : No
Forced : No

Text #40
ID : 43
Format : UTF-8
Codec ID : S_TEXT/UTF8
Codec ID/Info : UTF-8 Plain Text
Duration : 52 min 59 s
Bit rate : 84 b/s
Count of elements : 399
Stream size : 32.9 KiB (0%)
Language : Thai
Default : No
Forced : No

Text #41
ID : 44
Format : UTF-8
Codec ID : S_TEXT/UTF8
Codec ID/Info : UTF-8 Plain Text
Duration : 52 min 59 s
Bit rate : 35 b/s
Count of elements : 398
Stream size : 13.8 KiB (0%)
Language : Turkish
Default : No
Forced : No

Text #42
ID : 45
Format : UTF-8
Codec ID : S_TEXT/UTF8
Codec ID/Info : UTF-8 Plain Text
Duration : 52 min 59 s
Bit rate : 50 b/s
Count of elements : 399
Stream size : 19.8 KiB (0%)
Language : Ukrainian
Default : No
Forced : No

Text #43
ID : 46
Format : UTF-8
Codec ID : S_TEXT/UTF8
Codec ID/Info : UTF-8 Plain Text
Duration : 52 min 59 s
Bit rate : 44 b/s
Count of elements : 400
Stream size : 17.2 KiB (0%)
Language : Vietnamese
Default : No
Forced : No

Text #44
ID : 47
Format : UTF-8
Codec ID : S_TEXT/UTF8
Codec ID/Info : UTF-8 Plain Text
Duration : 52 min 59 s
Bit rate : 29 b/s
Count of elements : 400
Stream size : 11.4 KiB (0%)
Title : Cantonese
Language : Chinese
Default : No
Forced : No

Download

Direct download files get automatically deleted after a month or so. Posted on : 11/25/2021

[collapse]
Media Info and Download Links | S01E03

General
Format : Matroska
Format version : Version 4
File size : 317 MiB
Duration : 58 min 37 s
Overall bit rate : 756 kb/s
Movie name : Dr.Brain.S01E03.DUAL-AUDIO.KOR-ENG.720p.10bit.WEBRip.2CH.x265.HEVC

Video
ID : 1
Format : HEVC
Format/Info : High Efficiency Video Coding
Format profile : Main [email protected]@Main
Codec ID : V_MPEGH/ISO/HEVC
Duration : 58 min 37 s
Bit rate : 606 kb/s
Width : 1 280 pixels
Height : 544 pixels
Display aspect ratio : 2.35:1
Frame rate mode : Constant
Frame rate : 23.976 (24000/1001) FPS
Color space : YUV
Chroma subsampling : 4:2:0
Bit depth : 10 bits
Bits/(Pixel*Frame) : 0.036
Stream size : 254 MiB (80%)
Default : Yes
Forced : No
Color range : Limited
Color primaries : BT.709
Transfer characteristics : BT.709
Matrix coefficients : BT.709

Audio #1
ID : 2
Format : AAC LC SBR
Commercial name : HE-AAC
Format settings : Explicit
Codec ID : A_AAC-2
Duration : 58 min 37 s
Bit rate : 72.0 kb/s
Channel(s) : 2 channels
Channel layout : L R
Sampling rate : 48.0 kHz
Frame rate : 23.438 FPS (2048 SPF)
Compression mode : Lossy
Delay relative to video : 23 ms
Stream size : 30.3 MiB (10%)
Language : Korean
Default : Yes
Forced : No

Audio #2
ID : 3
Format : AAC LC SBR
Format/Info : Advanced Audio Codec Low Complexity with Spectral Band Replication
Commercial name : HE-AAC
Format settings : Explicit
Codec ID : A_AAC-2
Duration : 58 min 37 s
Bit rate : 72.0 kb/s
Channel(s) : 2 channels
Channel layout : L R
Sampling rate : 48.0 kHz
Frame rate : 23.438 FPS (2048 SPF)
Compression mode : Lossy
Delay relative to video : 23 ms
Stream size : 30.5 MiB (10%)
Language : English
Default : No
Forced : No

Text #1
ID : 4
Format : UTF-8
Codec ID : S_TEXT/UTF8
Codec ID/Info : UTF-8 Plain Text
Duration : 58 min 14 s
Bit rate : 31 b/s
Count of elements : 462
Stream size : 13.4 KiB (0%)
Language : English
Default : Yes
Forced : No

Text #2
ID : 5
Format : UTF-8
Codec ID : S_TEXT/UTF8
Codec ID/Info : UTF-8 Plain Text
Duration : 56 min 26 s
Bit rate : 0 b/s
Count of elements : 14
Stream size : 293 Bytes (0%)
Title : Forced
Language : English
Default : No
Forced : Yes

Text #3
ID : 6
Format : UTF-8
Codec ID : S_TEXT/UTF8
Codec ID/Info : UTF-8 Plain Text
Duration : 51 min 19 s
Bit rate : 0 b/s
Count of elements : 2
Stream size : 70.0 Bytes (0%)
Title : Forced
Language : Korean
Default : No
Forced : No

Text #4
ID : 7
Format : UTF-8
Codec ID : S_TEXT/UTF8
Codec ID/Info : UTF-8 Plain Text
Duration : 58 min 14 s
Bit rate : 38 b/s
Count of elements : 454
Stream size : 16.5 KiB (0%)
Language : Korean
Default : No
Forced : No

Text #5
ID : 8
Format : UTF-8
Codec ID : S_TEXT/UTF8
Codec ID/Info : UTF-8 Plain Text
Duration : 58 min 15 s
Bit rate : 46 b/s
Count of elements : 548
Stream size : 19.7 KiB (0%)
Title : SDH
Language : Korean
Default : No
Forced : No

Text #6
ID : 9
Format : UTF-8
Codec ID : S_TEXT/UTF8
Codec ID/Info : UTF-8 Plain Text
Duration : 58 min 14 s
Bit rate : 42 b/s
Count of elements : 456
Stream size : 18.1 KiB (0%)
Language : Arabic
Default : No
Forced : No

Text #7
ID : 10
Format : UTF-8
Codec ID : S_TEXT/UTF8
Codec ID/Info : UTF-8 Plain Text
Duration : 58 min 14 s
Bit rate : 46 b/s
Count of elements : 447
Stream size : 19.8 KiB (0%)
Language : Bulgarian
Default : No
Forced : No

Text #8
ID : 11
Format : UTF-8
Codec ID : S_TEXT/UTF8
Codec ID/Info : UTF-8 Plain Text
Duration : 58 min 14 s
Bit rate : 28 b/s
Count of elements : 456
Stream size : 12.0 KiB (0%)
Title : Simplified
Language : Chinese
Default : No
Forced : No

Text #9
ID : 12
Format : UTF-8
Codec ID : S_TEXT/UTF8
Codec ID/Info : UTF-8 Plain Text
Duration : 58 min 14 s
Bit rate : 27 b/s
Count of elements : 456
Stream size : 11.9 KiB (0%)
Title : Traditional
Language : Chinese
Default : No
Forced : No

Text #10
ID : 13
Format : UTF-8
Codec ID : S_TEXT/UTF8
Codec ID/Info : UTF-8 Plain Text
Duration : 58 min 14 s
Bit rate : 31 b/s
Count of elements : 442
Stream size : 13.2 KiB (0%)
Language : Czech
Default : No
Forced : No

Text #11
ID : 14
Format : UTF-8
Codec ID : S_TEXT/UTF8
Codec ID/Info : UTF-8 Plain Text
Duration : 58 min 14 s
Bit rate : 30 b/s
Count of elements : 436
Stream size : 13.1 KiB (0%)
Language : Danish
Default : No
Forced : No

Text #12
ID : 15
Format : UTF-8
Codec ID : S_TEXT/UTF8
Codec ID/Info : UTF-8 Plain Text
Duration : 58 min 14 s
Bit rate : 31 b/s
Count of elements : 423
Stream size : 13.2 KiB (0%)
Language : German
Default : No
Forced : No

Text #13
ID : 16
Format : UTF-8
Codec ID : S_TEXT/UTF8
Codec ID/Info : UTF-8 Plain Text
Duration : 58 min 14 s
Bit rate : 55 b/s
Count of elements : 451
Stream size : 23.6 KiB (0%)
Language : Greek
Default : No
Forced : No

Text #14
ID : 17
Format : UTF-8
Codec ID : S_TEXT/UTF8
Codec ID/Info : UTF-8 Plain Text
Duration : 58 min 14 s
Bit rate : 32 b/s
Count of elements : 453
Stream size : 14.0 KiB (0%)
Title : Latin American
Language : Spanish
Default : No
Forced : No

Text #15
ID : 18
Format : UTF-8
Codec ID : S_TEXT/UTF8
Codec ID/Info : UTF-8 Plain Text
Duration : 58 min 14 s
Bit rate : 35 b/s
Count of elements : 457
Stream size : 15.0 KiB (0%)
Language : Spanish
Default : No
Forced : No

Text #16
ID : 19
Format : UTF-8
Codec ID : S_TEXT/UTF8
Codec ID/Info : UTF-8 Plain Text
Duration : 58 min 14 s
Bit rate : 29 b/s
Count of elements : 438
Stream size : 12.5 KiB (0%)
Language : Estonian
Default : No
Forced : No

Text #17
ID : 20
Format : UTF-8
Codec ID : S_TEXT/UTF8
Codec ID/Info : UTF-8 Plain Text
Duration : 58 min 14 s
Bit rate : 29 b/s
Count of elements : 452
Stream size : 12.6 KiB (0%)
Language : Finnish
Default : No
Forced : No

Text #18
ID : 21
Format : UTF-8
Codec ID : S_TEXT/UTF8
Codec ID/Info : UTF-8 Plain Text
Duration : 56 min 57 s
Bit rate : 32 b/s
Count of elements : 507
Stream size : 13.7 KiB (0%)
Title : Canadian
Language : French
Default : No
Forced : No

Text #19
ID : 22
Format : UTF-8
Codec ID : S_TEXT/UTF8
Codec ID/Info : UTF-8 Plain Text
Duration : 56 min 57 s
Bit rate : 32 b/s
Count of elements : 506
Stream size : 13.7 KiB (0%)
Language : French
Default : No
Forced : No

Text #20
ID : 23
Format : UTF-8
Codec ID : S_TEXT/UTF8
Codec ID/Info : UTF-8 Plain Text
Duration : 58 min 14 s
Bit rate : 42 b/s
Count of elements : 456
Stream size : 18.3 KiB (0%)
Language : Hebrew
Default : No
Forced : No

Text #21
ID : 24
Format : UTF-8
Codec ID : S_TEXT/UTF8
Codec ID/Info : UTF-8 Plain Text
Duration : 58 min 14 s
Bit rate : 88 b/s
Count of elements : 456
Stream size : 37.8 KiB (0%)
Language : Hindi
Default : No
Forced : No

Text #22
ID : 25
Format : UTF-8
Codec ID : S_TEXT/UTF8
Codec ID/Info : UTF-8 Plain Text
Duration : 58 min 14 s
Bit rate : 29 b/s
Count of elements : 456
Stream size : 12.4 KiB (0%)
Language : Hungarian
Default : No
Forced : No

Text #23
ID : 26
Format : UTF-8
Codec ID : S_TEXT/UTF8
Codec ID/Info : UTF-8 Plain Text
Duration : 58 min 14 s
Bit rate : 30 b/s
Count of elements : 454
Stream size : 13.2 KiB (0%)
Language : Indonesian
Default : No
Forced : No

Text #24
ID : 27
Format : UTF-8
Codec ID : S_TEXT/UTF8
Codec ID/Info : UTF-8 Plain Text
Duration : 58 min 14 s
Bit rate : 32 b/s
Count of elements : 456
Stream size : 13.9 KiB (0%)
Language : Italian
Default : No
Forced : No

Text #25
ID : 28
Format : UTF-8
Codec ID : S_TEXT/UTF8
Codec ID/Info : UTF-8 Plain Text
Duration : 58 min 20 s
Bit rate : 28 b/s
Count of elements : 455
Stream size : 12.1 KiB (0%)
Language : Japanese
Default : No
Forced : No

Text #26
ID : 29
Format : UTF-8
Codec ID : S_TEXT/UTF8
Codec ID/Info : UTF-8 Plain Text
Duration : 58 min 14 s
Bit rate : 31 b/s
Count of elements : 456
Stream size : 13.4 KiB (0%)
Language : Lithuanian
Default : No
Forced : No

Text #27
ID : 30
Format : UTF-8
Codec ID : S_TEXT/UTF8
Codec ID/Info : UTF-8 Plain Text
Duration : 58 min 14 s
Bit rate : 32 b/s
Count of elements : 452
Stream size : 14.0 KiB (0%)
Language : Latvian
Default : No
Forced : No

Text #28
ID : 31
Format : UTF-8
Codec ID : S_TEXT/UTF8
Codec ID/Info : UTF-8 Plain Text
Duration : 58 min 14 s
Bit rate : 33 b/s
Count of elements : 454
Stream size : 14.1 KiB (0%)
Language : Malay
Default : No
Forced : No

Text #29
ID : 32
Format : UTF-8
Codec ID : S_TEXT/UTF8
Codec ID/Info : UTF-8 Plain Text
Duration : 58 min 14 s
Bit rate : 30 b/s
Count of elements : 436
Stream size : 12.9 KiB (0%)
Language : Dutch
Default : No
Forced : No

Text #30
ID : 33
Format : UTF-8
Codec ID : S_TEXT/UTF8
Codec ID/Info : UTF-8 Plain Text
Duration : 58 min 14 s
Bit rate : 30 b/s
Count of elements : 443
Stream size : 12.9 KiB (0%)
Language : Norwegian
Default : No
Forced : No

Text #31
ID : 34
Format : UTF-8
Codec ID : S_TEXT/UTF8
Codec ID/Info : UTF-8 Plain Text
Duration : 58 min 14 s
Bit rate : 29 b/s
Count of elements : 450
Stream size : 12.5 KiB (0%)
Language : Polish
Default : No
Forced : No

Text #32
ID : 35
Format : UTF-8
Codec ID : S_TEXT/UTF8
Codec ID/Info : UTF-8 Plain Text
Duration : 58 min 14 s
Bit rate : 32 b/s
Count of elements : 450
Stream size : 13.7 KiB (0%)
Language : Portuguese
Default : No
Forced : No

Text #33
ID : 36
Format : UTF-8
Codec ID : S_TEXT/UTF8
Codec ID/Info : UTF-8 Plain Text
Duration : 58 min 14 s
Bit rate : 31 b/s
Count of elements : 452
Stream size : 13.6 KiB (0%)
Title : Brazilian
Language : Portuguese
Default : No
Forced : No

Text #34
ID : 37
Format : UTF-8
Codec ID : S_TEXT/UTF8
Codec ID/Info : UTF-8 Plain Text
Duration : 58 min 20 s
Bit rate : 46 b/s
Count of elements : 482
Stream size : 20.0 KiB (0%)
Language : Russian
Default : No
Forced : No

Text #35
ID : 38
Format : UTF-8
Codec ID : S_TEXT/UTF8
Codec ID/Info : UTF-8 Plain Text
Duration : 58 min 14 s
Bit rate : 29 b/s
Count of elements : 453
Stream size : 12.6 KiB (0%)
Language : Slovak
Default : No
Forced : No

Text #36
ID : 39
Format : UTF-8
Codec ID : S_TEXT/UTF8
Codec ID/Info : UTF-8 Plain Text
Duration : 58 min 14 s
Bit rate : 26 b/s
Count of elements : 455
Stream size : 11.5 KiB (0%)
Language : Slovenian
Default : No
Forced : No

Text #37
ID : 40
Format : UTF-8
Codec ID : S_TEXT/UTF8
Codec ID/Info : UTF-8 Plain Text
Duration : 58 min 14 s
Bit rate : 30 b/s
Count of elements : 452
Stream size : 12.9 KiB (0%)
Language : Swedish
Default : No
Forced : No

Text #38
ID : 41
Format : UTF-8
Codec ID : S_TEXT/UTF8
Codec ID/Info : UTF-8 Plain Text
Duration : 58 min 14 s
Bit rate : 98 b/s
Count of elements : 456
Stream size : 42.1 KiB (0%)
Language : Tamil
Default : No
Forced : No

Text #39
ID : 42
Format : UTF-8
Codec ID : S_TEXT/UTF8
Codec ID/Info : UTF-8 Plain Text
Duration : 58 min 14 s
Bit rate : 94 b/s
Count of elements : 456
Stream size : 40.3 KiB (0%)
Language : Telugu
Default : No
Forced : No

Text #40
ID : 43
Format : UTF-8
Codec ID : S_TEXT/UTF8
Codec ID/Info : UTF-8 Plain Text
Duration : 58 min 14 s
Bit rate : 77 b/s
Count of elements : 456
Stream size : 33.2 KiB (0%)
Language : Thai
Default : No
Forced : No

Text #41
ID : 44
Format : UTF-8
Codec ID : S_TEXT/UTF8
Codec ID/Info : UTF-8 Plain Text
Duration : 58 min 14 s
Bit rate : 32 b/s
Count of elements : 452
Stream size : 13.9 KiB (0%)
Language : Turkish
Default : No
Forced : No

Text #42
ID : 45
Format : UTF-8
Codec ID : S_TEXT/UTF8
Codec ID/Info : UTF-8 Plain Text
Duration : 58 min 14 s
Bit rate : 46 b/s
Count of elements : 455
Stream size : 19.8 KiB (0%)
Language : Ukrainian
Default : No
Forced : No

Text #43
ID : 46
Format : UTF-8
Codec ID : S_TEXT/UTF8
Codec ID/Info : UTF-8 Plain Text
Duration : 58 min 14 s
Bit rate : 41 b/s
Count of elements : 456
Stream size : 17.5 KiB (0%)
Language : Vietnamese
Default : No
Forced : No

Text #44
ID : 47
Format : UTF-8
Codec ID : S_TEXT/UTF8
Codec ID/Info : UTF-8 Plain Text
Duration : 58 min 14 s
Bit rate : 28 b/s
Count of elements : 456
Stream size : 12.0 KiB (0%)
Title : Cantonese
Language : Chinese
Default : No
Forced : No

Download

Direct download files get automatically deleted after a month or so. Posted on : 11/19/2021

[collapse]
Media Info and Download Links | S01E02

General
Format : Matroska
Format version : Version 4
File size : 249 MiB
Duration : 49 min 40 s
Overall bit rate : 700 kb/s
Movie name : Dr.Brain.S01E02.DUAL-AUDIO.KOR-ENG.720p.10bit.WEBRip.2CH.x265.HEVC

Video
ID : 1
Format : HEVC
Format/Info : High Efficiency Video Coding
Format profile : Main [email protected]@Main
Codec ID : V_MPEGH/ISO/HEVC
Duration : 49 min 40 s
Bit rate : 552 kb/s
Width : 1 280 pixels
Height : 544 pixels
Display aspect ratio : 2.35:1
Frame rate mode : Constant
Frame rate : 23.976 (24000/1001) FPS
Color space : YUV
Chroma subsampling : 4:2:0
Bit depth : 10 bits
Bits/(Pixel*Frame) : 0.033
Stream size : 196 MiB (79%)
Default : Yes
Forced : No
Color range : Limited
Color primaries : BT.709
Transfer characteristics : BT.709
Matrix coefficients : BT.709

Audio #1
ID : 2
Format : AAC LC SBR
Commercial name : HE-AAC
Format settings : Explicit
Codec ID : A_AAC-2
Duration : 49 min 40 s
Bit rate : 72.0 kb/s
Channel(s) : 2 channels
Channel layout : L R
Sampling rate : 48.0 kHz
Frame rate : 23.438 FPS (2048 SPF)
Compression mode : Lossy
Delay relative to video : 23 ms
Stream size : 25.3 MiB (10%)
Language : Korean
Default : Yes
Forced : No

Audio #2
ID : 3
Format : AAC LC SBR
Commercial name : HE-AAC
Format settings : Explicit
Codec ID : A_AAC-2
Duration : 49 min 40 s
Bit rate : 72.0 kb/s
Channel(s) : 2 channels
Channel layout : L R
Sampling rate : 48.0 kHz
Frame rate : 23.438 FPS (2048 SPF)
Compression mode : Lossy
Delay relative to video : 23 ms
Stream size : 25.3 MiB (10%)
Language : English
Default : No
Forced : No

Text #1
ID : 4
Format : UTF-8
Codec ID : S_TEXT/UTF8
Codec ID/Info : UTF-8 Plain Text
Duration : 49 min 14 s
Bit rate : 34 b/s
Count of elements : 389
Stream size : 12.4 KiB (0%)
Language : English
Default : Yes
Forced : No

Text #2
ID : 5
Format : UTF-8
Codec ID : S_TEXT/UTF8
Codec ID/Info : UTF-8 Plain Text
Duration : 40 min 46 s
Bit rate : 1 b/s
Count of elements : 12
Stream size : 420 Bytes (0%)
Title : Forced
Language : English
Default : No
Forced : Yes

Text #3
ID : 6
Format : UTF-8
Codec ID : S_TEXT/UTF8
Codec ID/Info : UTF-8 Plain Text
Duration : 49 min 14 s
Bit rate : 40 b/s
Count of elements : 386
Stream size : 14.5 KiB (0%)
Language : Korean
Default : No
Forced : No

Text #4
ID : 7
Format : UTF-8
Codec ID : S_TEXT/UTF8
Codec ID/Info : UTF-8 Plain Text
Duration : 49 min 14 s
Bit rate : 50 b/s
Count of elements : 498
Stream size : 18.4 KiB (0%)
Title : SDH
Language : Korean
Default : No
Forced : No

Text #5
ID : 8
Format : UTF-8
Codec ID : S_TEXT/UTF8
Codec ID/Info : UTF-8 Plain Text
Duration : 49 min 14 s
Bit rate : 43 b/s
Count of elements : 385
Stream size : 15.9 KiB (0%)
Language : Arabic
Default : No
Forced : No

Text #6
ID : 9
Format : UTF-8
Codec ID : S_TEXT/UTF8
Codec ID/Info : UTF-8 Plain Text
Duration : 49 min 14 s
Bit rate : 50 b/s
Count of elements : 366
Stream size : 18.3 KiB (0%)
Language : Bulgarian
Default : No
Forced : No

Text #7
ID : 10
Format : UTF-8
Codec ID : S_TEXT/UTF8
Codec ID/Info : UTF-8 Plain Text
Duration : 49 min 14 s
Bit rate : 28 b/s
Count of elements : 387
Stream size : 10.3 KiB (0%)
Title : Simplified
Language : Chinese
Default : No
Forced : No

Text #8
ID : 11
Format : UTF-8
Codec ID : S_TEXT/UTF8
Codec ID/Info : UTF-8 Plain Text
Duration : 49 min 14 s
Bit rate : 28 b/s
Count of elements : 387
Stream size : 10.3 KiB (0%)
Title : Traditional
Language : Chinese
Default : No
Forced : No

Text #9
ID : 12
Format : UTF-8
Codec ID : S_TEXT/UTF8
Codec ID/Info : UTF-8 Plain Text
Duration : 49 min 14 s
Bit rate : 33 b/s
Count of elements : 378
Stream size : 11.9 KiB (0%)
Language : Czech
Default : No
Forced : No

Text #10
ID : 13
Format : UTF-8
Codec ID : S_TEXT/UTF8
Codec ID/Info : UTF-8 Plain Text
Duration : 49 min 14 s
Bit rate : 32 b/s
Count of elements : 351
Stream size : 11.9 KiB (0%)
Language : Danish
Default : No
Forced : No

Text #11
ID : 14
Format : UTF-8
Codec ID : S_TEXT/UTF8
Codec ID/Info : UTF-8 Plain Text
Duration : 49 min 14 s
Bit rate : 36 b/s
Count of elements : 386
Stream size : 13.0 KiB (0%)
Language : German
Default : No
Forced : No

Text #12
ID : 15
Format : UTF-8
Codec ID : S_TEXT/UTF8
Codec ID/Info : UTF-8 Plain Text
Duration : 49 min 14 s
Bit rate : 58 b/s
Count of elements : 380
Stream size : 20.9 KiB (0%)
Language : Greek
Default : No
Forced : No

Text #13
ID : 16
Format : UTF-8
Codec ID : S_TEXT/UTF8
Codec ID/Info : UTF-8 Plain Text
Duration : 49 min 14 s
Bit rate : 34 b/s
Count of elements : 383
Stream size : 12.3 KiB (0%)
Title : Latin American
Language : Spanish
Default : No
Forced : No

Text #14
ID : 17
Format : UTF-8
Codec ID : S_TEXT/UTF8
Codec ID/Info : UTF-8 Plain Text
Duration : 49 min 14 s
Bit rate : 37 b/s
Count of elements : 388
Stream size : 13.4 KiB (0%)
Language : Spanish
Default : No
Forced : No

Text #15
ID : 18
Format : UTF-8
Codec ID : S_TEXT/UTF8
Codec ID/Info : UTF-8 Plain Text
Duration : 49 min 14 s
Bit rate : 30 b/s
Count of elements : 368
Stream size : 11.1 KiB (0%)
Language : Estonian
Default : No
Forced : No

Text #16
ID : 19
Format : UTF-8
Codec ID : S_TEXT/UTF8
Codec ID/Info : UTF-8 Plain Text
Duration : 49 min 14 s
Bit rate : 31 b/s
Count of elements : 379
Stream size : 11.2 KiB (0%)
Language : Finnish
Default : No
Forced : No

Text #17
ID : 20
Format : UTF-8
Codec ID : S_TEXT/UTF8
Codec ID/Info : UTF-8 Plain Text
Duration : 48 min 1 s
Bit rate : 36 b/s
Count of elements : 427
Stream size : 12.9 KiB (0%)
Title : Canadian
Language : French
Default : No
Forced : No

Text #18
ID : 21
Format : UTF-8
Codec ID : S_TEXT/UTF8
Codec ID/Info : UTF-8 Plain Text
Duration : 48 min 1 s
Bit rate : 36 b/s
Count of elements : 427
Stream size : 12.9 KiB (0%)
Language : French
Default : No
Forced : No

Text #19
ID : 22
Format : UTF-8
Codec ID : S_TEXT/UTF8
Codec ID/Info : UTF-8 Plain Text
Duration : 49 min 14 s
Bit rate : 43 b/s
Count of elements : 388
Stream size : 15.8 KiB (0%)
Language : Hebrew
Default : No
Forced : No

Text #20
ID : 23
Format : UTF-8
Codec ID : S_TEXT/UTF8
Codec ID/Info : UTF-8 Plain Text
Duration : 49 min 14 s
Bit rate : 90 b/s
Count of elements : 388
Stream size : 32.5 KiB (0%)
Language : Hindi
Default : No
Forced : No

Text #21
ID : 24
Format : UTF-8
Codec ID : S_TEXT/UTF8
Codec ID/Info : UTF-8 Plain Text
Duration : 49 min 14 s
Bit rate : 30 b/s
Count of elements : 386
Stream size : 11.1 KiB (0%)
Language : Hungarian
Default : No
Forced : No

Text #22
ID : 25
Format : UTF-8
Codec ID : S_TEXT/UTF8
Codec ID/Info : UTF-8 Plain Text
Duration : 49 min 14 s
Bit rate : 32 b/s
Count of elements : 388
Stream size : 11.7 KiB (0%)
Language : Indonesian
Default : No
Forced : No

Text #23
ID : 26
Format : UTF-8
Codec ID : S_TEXT/UTF8
Codec ID/Info : UTF-8 Plain Text
Duration : 49 min 14 s
Bit rate : 33 b/s
Count of elements : 386
Stream size : 12.2 KiB (0%)
Language : Italian
Default : No
Forced : No

Text #24
ID : 27
Format : UTF-8
Codec ID : S_TEXT/UTF8
Codec ID/Info : UTF-8 Plain Text
Duration : 49 min 20 s
Bit rate : 30 b/s
Count of elements : 385
Stream size : 10.9 KiB (0%)
Language : Japanese
Default : No
Forced : No

Text #25
ID : 28
Format : UTF-8
Codec ID : S_TEXT/UTF8
Codec ID/Info : UTF-8 Plain Text
Duration : 49 min 14 s
Bit rate : 33 b/s
Count of elements : 388
Stream size : 12.0 KiB (0%)
Language : Lithuanian
Default : No
Forced : No

Text #26
ID : 29
Format : UTF-8
Codec ID : S_TEXT/UTF8
Codec ID/Info : UTF-8 Plain Text
Duration : 49 min 14 s
Bit rate : 34 b/s
Count of elements : 385
Stream size : 12.5 KiB (0%)
Language : Latvian
Default : No
Forced : No

Text #27
ID : 30
Format : UTF-8
Codec ID : S_TEXT/UTF8
Codec ID/Info : UTF-8 Plain Text
Duration : 49 min 14 s
Bit rate : 33 b/s
Count of elements : 388
Stream size : 12.1 KiB (0%)
Language : Malay
Default : No
Forced : No

Text #28
ID : 31
Format : UTF-8
Codec ID : S_TEXT/UTF8
Codec ID/Info : UTF-8 Plain Text
Duration : 49 min 14 s
Bit rate : 31 b/s
Count of elements : 362
Stream size : 11.5 KiB (0%)
Language : Dutch
Default : No
Forced : No

Text #29
ID : 32
Format : UTF-8
Codec ID : S_TEXT/UTF8
Codec ID/Info : UTF-8 Plain Text
Duration : 49 min 14 s
Bit rate : 32 b/s
Count of elements : 369
Stream size : 11.7 KiB (0%)
Language : Norwegian
Default : No
Forced : No

Text #30
ID : 33
Format : UTF-8
Codec ID : S_TEXT/UTF8
Codec ID/Info : UTF-8 Plain Text
Duration : 49 min 14 s
Bit rate : 32 b/s
Count of elements : 385
Stream size : 11.6 KiB (0%)
Language : Polish
Default : No
Forced : No

Text #31
ID : 34
Format : UTF-8
Codec ID : S_TEXT/UTF8
Codec ID/Info : UTF-8 Plain Text
Duration : 49 min 14 s
Bit rate : 33 b/s
Count of elements : 384
Stream size : 12.3 KiB (0%)
Language : Portuguese
Default : No
Forced : No

Text #32
ID : 35
Format : UTF-8
Codec ID : S_TEXT/UTF8
Codec ID/Info : UTF-8 Plain Text
Duration : 49 min 14 s
Bit rate : 33 b/s
Count of elements : 386
Stream size : 12.1 KiB (0%)
Title : Brazilian
Language : Portuguese
Default : No
Forced : No

Text #33
ID : 36
Format : UTF-8
Codec ID : S_TEXT/UTF8
Codec ID/Info : UTF-8 Plain Text
Duration : 49 min 13 s
Bit rate : 51 b/s
Count of elements : 388
Stream size : 18.5 KiB (0%)
Language : Russian
Default : No
Forced : No

Text #34
ID : 37
Format : UTF-8
Codec ID : S_TEXT/UTF8
Codec ID/Info : UTF-8 Plain Text
Duration : 49 min 14 s
Bit rate : 31 b/s
Count of elements : 388
Stream size : 11.4 KiB (0%)
Language : Slovak
Default : No
Forced : No

Text #35
ID : 38
Format : UTF-8
Codec ID : S_TEXT/UTF8
Codec ID/Info : UTF-8 Plain Text
Duration : 49 min 14 s
Bit rate : 28 b/s
Count of elements : 383
Stream size : 10.3 KiB (0%)
Language : Slovenian
Default : No
Forced : No

Text #36
ID : 39
Format : UTF-8
Codec ID : S_TEXT/UTF8
Codec ID/Info : UTF-8 Plain Text
Duration : 49 min 14 s
Bit rate : 32 b/s
Count of elements : 388
Stream size : 11.9 KiB (0%)
Language : Swedish
Default : No
Forced : No

Text #37
ID : 40
Format : UTF-8
Codec ID : S_TEXT/UTF8
Codec ID/Info : UTF-8 Plain Text
Duration : 49 min 14 s
Bit rate : 102 b/s
Count of elements : 388
Stream size : 36.9 KiB (0%)
Language : Tamil
Default : No
Forced : No

Text #38
ID : 41
Format : UTF-8
Codec ID : S_TEXT/UTF8
Codec ID/Info : UTF-8 Plain Text
Duration : 49 min 14 s
Bit rate : 95 b/s
Count of elements : 388
Stream size : 34.6 KiB (0%)
Language : Telugu
Default : No
Forced : No

Text #39
ID : 42
Format : UTF-8
Codec ID : S_TEXT/UTF8
Codec ID/Info : UTF-8 Plain Text
Duration : 49 min 14 s
Bit rate : 81 b/s
Count of elements : 387
Stream size : 29.3 KiB (0%)
Language : Thai
Default : No
Forced : No

Text #40
ID : 43
Format : UTF-8
Codec ID : S_TEXT/UTF8
Codec ID/Info : UTF-8 Plain Text
Duration : 49 min 14 s
Bit rate : 33 b/s
Count of elements : 386
Stream size : 12.0 KiB (0%)
Language : Turkish
Default : No
Forced : No

Text #41
ID : 44
Format : UTF-8
Codec ID : S_TEXT/UTF8
Codec ID/Info : UTF-8 Plain Text
Duration : 49 min 14 s
Bit rate : 49 b/s
Count of elements : 386
Stream size : 17.8 KiB (0%)
Language : Ukrainian
Default : No
Forced : No

Text #42
ID : 45
Format : UTF-8
Codec ID : S_TEXT/UTF8
Codec ID/Info : UTF-8 Plain Text
Duration : 49 min 14 s
Bit rate : 41 b/s
Count of elements : 388
Stream size : 15.0 KiB (0%)
Language : Vietnamese
Default : No
Forced : No

Text #43
ID : 46
Format : UTF-8
Codec ID : S_TEXT/UTF8
Codec ID/Info : UTF-8 Plain Text
Duration : 49 min 14 s
Bit rate : 28 b/s
Count of elements : 387
Stream size : 10.2 KiB (0%)
Title : Cantonese
Language : Chinese
Default : No
Forced : No

Download

Direct download files get automatically deleted after a month or so. Posted on : 11/12/2021

[collapse]
Media Info and Download Links | S01E01

General
Format : Matroska
Format version : Version 4
File size : 305 MiB
Duration : 1 h 0 min
Overall bit rate : 705 kb/s
Movie name : Dr.Brain.S01E01.DUAL-AUDIO.KOR-ENG.720p.10bit.WEBRip.2CH.x265.HEVC

Video
ID : 1
Format : HEVC
Format/Info : High Efficiency Video Coding
Format profile : Main [email protected]@Main
Codec ID : V_MPEGH/ISO/HEVC
Duration : 1 h 0 min
Bit rate : 555 kb/s
Width : 1 280 pixels
Height : 544 pixels
Display aspect ratio : 2.35:1
Frame rate mode : Constant
Frame rate : 23.976 (24000/1001) FPS
Color space : YUV
Chroma subsampling : 4:2:0
Bit depth : 10 bits
Bits/(Pixel*Frame) : 0.033
Stream size : 240 MiB (79%)
Default : Yes
Forced : No
Color range : Limited
Color primaries : BT.709
Transfer characteristics : BT.709
Matrix coefficients : BT.709

Audio #1
ID : 2
Format : AAC LC SBR
Commercial name : HE-AAC
Format settings : Explicit
Codec ID : A_AAC-2
Duration : 1 h 0 min
Bit rate : 72.0 kb/s
Channel(s) : 2 channels
Channel layout : L R
Sampling rate : 48.0 kHz
Frame rate : 23.438 FPS (2048 SPF)
Compression mode : Lossy
Delay relative to video : 23 ms
Stream size : 31.2 MiB (10%)
Language : Korean
Default : Yes
Forced : No

Audio #2
ID : 3
Format : AAC LC SBR
Commercial name : HE-AAC
Format settings : Explicit
Codec ID : A_AAC-2
Duration : 1 h 0 min
Bit rate : 72.0 kb/s
Channel(s) : 2 channels
Channel layout : L R
Sampling rate : 48.0 kHz
Frame rate : 23.438 FPS (2048 SPF)
Compression mode : Lossy
Delay relative to video : 23 ms
Stream size : 31.2 MiB (10%)
Language : English
Default : No
Forced : No

Text #1
ID : 4
Format : UTF-8
Codec ID : S_TEXT/UTF8
Codec ID/Info : UTF-8 Plain Text
Duration : 59 min 46 s
Bit rate : 36 b/s
Count of elements : 465
Stream size : 16.1 KiB (0%)
Language : English
Default : Yes
Forced : No

Text #2
ID : 5
Format : UTF-8
Codec ID : S_TEXT/UTF8
Codec ID/Info : UTF-8 Plain Text
Duration : 58 min 37 s
Bit rate : 1 b/s
Count of elements : 16
Stream size : 467 Bytes (0%)
Title : Forced
Language : English
Default : No
Forced : Yes

Text #3
ID : 6
Format : UTF-8
Codec ID : S_TEXT/UTF8
Codec ID/Info : UTF-8 Plain Text
Duration : 59 min 46 s
Bit rate : 41 b/s
Count of elements : 471
Stream size : 18.1 KiB (0%)
Language : Korean
Default : No
Forced : No

Text #4
ID : 7
Format : UTF-8
Codec ID : S_TEXT/UTF8
Codec ID/Info : UTF-8 Plain Text
Duration : 1 h 0 min
Bit rate : 51 b/s
Count of elements : 607
Stream size : 22.6 KiB (0%)
Title : SDH
Language : Korean
Default : No
Forced : No

Text #5
ID : 8
Format : UTF-8
Codec ID : S_TEXT/UTF8
Codec ID/Info : UTF-8 Plain Text
Duration : 59 min 45 s
Bit rate : 50 b/s
Count of elements : 464
Stream size : 22.2 KiB (0%)
Language : Arabic
Default : No
Forced : No

Text #6
ID : 9
Format : UTF-8
Codec ID : S_TEXT/UTF8
Codec ID/Info : UTF-8 Plain Text
Duration : 59 min 46 s
Bit rate : 54 b/s
Count of elements : 450
Stream size : 24.0 KiB (0%)
Language : Bulgarian
Default : No
Forced : No

Text #7
ID : 10
Format : UTF-8
Codec ID : S_TEXT/UTF8
Codec ID/Info : UTF-8 Plain Text
Duration : 59 min 46 s
Bit rate : 31 b/s
Count of elements : 471
Stream size : 13.7 KiB (0%)
Title : Simplified
Language : Chinese
Default : No
Forced : No

Text #8
ID : 11
Format : UTF-8
Codec ID : S_TEXT/UTF8
Codec ID/Info : UTF-8 Plain Text
Duration : 59 min 46 s
Bit rate : 30 b/s
Count of elements : 471
Stream size : 13.4 KiB (0%)
Title : Traditional
Language : Chinese
Default : No
Forced : No

Text #9
ID : 12
Format : UTF-8
Codec ID : S_TEXT/UTF8
Codec ID/Info : UTF-8 Plain Text
Duration : 59 min 46 s
Bit rate : 34 b/s
Count of elements : 450
Stream size : 15.3 KiB (0%)
Language : Czech
Default : No
Forced : No

Text #10
ID : 13
Format : UTF-8
Codec ID : S_TEXT/UTF8
Codec ID/Info : UTF-8 Plain Text
Duration : 59 min 46 s
Bit rate : 34 b/s
Count of elements : 432
Stream size : 15.1 KiB (0%)
Language : Danish
Default : No
Forced : No

Text #11
ID : 14
Format : UTF-8
Codec ID : S_TEXT/UTF8
Codec ID/Info : UTF-8 Plain Text
Duration : 59 min 48 s
Bit rate : 37 b/s
Count of elements : 465
Stream size : 16.3 KiB (0%)
Language : German
Default : No
Forced : No

Text #12
ID : 15
Format : UTF-8
Codec ID : S_TEXT/UTF8
Codec ID/Info : UTF-8 Plain Text
Duration : 59 min 46 s
Bit rate : 63 b/s
Count of elements : 465
Stream size : 27.9 KiB (0%)
Language : Greek
Default : No
Forced : No

Text #13
ID : 16
Format : UTF-8
Codec ID : S_TEXT/UTF8
Codec ID/Info : UTF-8 Plain Text
Duration : 59 min 46 s
Bit rate : 37 b/s
Count of elements : 470
Stream size : 16.3 KiB (0%)
Title : Latin American
Language : Spanish
Default : No
Forced : No

Text #14
ID : 17
Format : UTF-8
Codec ID : S_TEXT/UTF8
Codec ID/Info : UTF-8 Plain Text
Duration : 59 min 45 s
Bit rate : 38 b/s
Count of elements : 468
Stream size : 16.8 KiB (0%)
Language : Spanish
Default : No
Forced : No

Text #15
ID : 18
Format : UTF-8
Codec ID : S_TEXT/UTF8
Codec ID/Info : UTF-8 Plain Text
Duration : 59 min 46 s
Bit rate : 32 b/s
Count of elements : 440
Stream size : 14.4 KiB (0%)
Language : Estonian
Default : No
Forced : No

Text #16
ID : 19
Format : UTF-8
Codec ID : S_TEXT/UTF8
Codec ID/Info : UTF-8 Plain Text
Duration : 59 min 46 s
Bit rate : 32 b/s
Count of elements : 459
Stream size : 14.3 KiB (0%)
Language : Finnish
Default : No
Forced : No

Text #17
ID : 20
Format : UTF-8
Codec ID : S_TEXT/UTF8
Codec ID/Info : UTF-8 Plain Text
Duration : 59 min 46 s
Bit rate : 36 b/s
Count of elements : 500
Stream size : 15.8 KiB (0%)
Title : Canadian
Language : French
Default : No
Forced : No

Text #18
ID : 21
Format : UTF-8
Codec ID : S_TEXT/UTF8
Codec ID/Info : UTF-8 Plain Text
Duration : 59 min 46 s
Bit rate : 36 b/s
Count of elements : 501
Stream size : 15.8 KiB (0%)
Language : French
Default : No
Forced : No

Text #19
ID : 22
Format : UTF-8
Codec ID : S_TEXT/UTF8
Codec ID/Info : UTF-8 Plain Text
Duration : 59 min 46 s
Bit rate : 48 b/s
Count of elements : 471
Stream size : 21.2 KiB (0%)
Language : Hebrew
Default : No
Forced : No

Text #20
ID : 23
Format : UTF-8
Codec ID : S_TEXT/UTF8
Codec ID/Info : UTF-8 Plain Text
Duration : 59 min 46 s
Bit rate : 99 b/s
Count of elements : 471
Stream size : 43.7 KiB (0%)
Language : Hindi
Default : No
Forced : No

Text #21
ID : 24
Format : UTF-8
Codec ID : S_TEXT/UTF8
Codec ID/Info : UTF-8 Plain Text
Duration : 59 min 46 s
Bit rate : 34 b/s
Count of elements : 470
Stream size : 14.9 KiB (0%)
Language : Hungarian
Default : No
Forced : No

Text #22
ID : 25
Format : UTF-8
Codec ID : S_TEXT/UTF8
Codec ID/Info : UTF-8 Plain Text
Duration : 59 min 46 s
Bit rate : 34 b/s
Count of elements : 471
Stream size : 15.3 KiB (0%)
Language : Indonesian
Default : No
Forced : No

Text #23
ID : 26
Format : UTF-8
Codec ID : S_TEXT/UTF8
Codec ID/Info : UTF-8 Plain Text
Duration : 59 min 48 s
Bit rate : 37 b/s
Count of elements : 474
Stream size : 16.2 KiB (0%)
Language : Italian
Default : No
Forced : No

Text #24
ID : 27
Format : UTF-8
Codec ID : S_TEXT/UTF8
Codec ID/Info : UTF-8 Plain Text
Duration : 59 min 54 s
Bit rate : 31 b/s
Count of elements : 459
Stream size : 13.7 KiB (0%)
Language : Japanese
Default : No
Forced : No

Text #25
ID : 28
Format : UTF-8
Codec ID : S_TEXT/UTF8
Codec ID/Info : UTF-8 Plain Text
Duration : 59 min 46 s
Bit rate : 35 b/s
Count of elements : 471
Stream size : 15.8 KiB (0%)
Language : Lithuanian
Default : No
Forced : No

Text #26
ID : 29
Format : UTF-8
Codec ID : S_TEXT/UTF8
Codec ID/Info : UTF-8 Plain Text
Duration : 59 min 46 s
Bit rate : 36 b/s
Count of elements : 465
Stream size : 16.2 KiB (0%)
Language : Latvian
Default : No
Forced : No

Text #27
ID : 30
Format : UTF-8
Codec ID : S_TEXT/UTF8
Codec ID/Info : UTF-8 Plain Text
Duration : 59 min 46 s
Bit rate : 36 b/s
Count of elements : 471
Stream size : 16.0 KiB (0%)
Language : Malay
Default : No
Forced : No

Text #28
ID : 31
Format : UTF-8
Codec ID : S_TEXT/UTF8
Codec ID/Info : UTF-8 Plain Text
Duration : 59 min 46 s
Bit rate : 35 b/s
Count of elements : 453
Stream size : 15.3 KiB (0%)
Language : Norwegian Bokmal
Default : No
Forced : No

Text #29
ID : 32
Format : UTF-8
Codec ID : S_TEXT/UTF8
Codec ID/Info : UTF-8 Plain Text
Duration : 59 min 46 s
Bit rate : 34 b/s
Count of elements : 452
Stream size : 15.0 KiB (0%)
Language : Dutch
Default : No
Forced : No

Text #30
ID : 33
Format : UTF-8
Codec ID : S_TEXT/UTF8
Codec ID/Info : UTF-8 Plain Text
Duration : 59 min 46 s
Bit rate : 33 b/s
Count of elements : 461
Stream size : 14.8 KiB (0%)
Language : Polish
Default : No
Forced : No

Text #31
ID : 34
Format : UTF-8
Codec ID : S_TEXT/UTF8
Codec ID/Info : UTF-8 Plain Text
Duration : 59 min 45 s
Bit rate : 36 b/s
Count of elements : 466
Stream size : 16.1 KiB (0%)
Language : Portuguese
Default : No
Forced : No

Text #32
ID : 35
Format : UTF-8
Codec ID : S_TEXT/UTF8
Codec ID/Info : UTF-8 Plain Text
Duration : 59 min 46 s
Bit rate : 35 b/s
Count of elements : 468
Stream size : 15.6 KiB (0%)
Title : Brazilian
Language : Portuguese
Default : No
Forced : No

Text #33
ID : 36
Format : UTF-8
Codec ID : S_TEXT/UTF8
Codec ID/Info : UTF-8 Plain Text
Duration : 59 min 54 s
Bit rate : 56 b/s
Count of elements : 443
Stream size : 24.7 KiB (0%)
Language : Russian
Default : No
Forced : No

Text #34
ID : 37
Format : UTF-8
Codec ID : S_TEXT/UTF8
Codec ID/Info : UTF-8 Plain Text
Duration : 59 min 46 s
Bit rate : 31 b/s
Count of elements : 471
Stream size : 14.0 KiB (0%)
Language : Slovak
Default : No
Forced : No

Text #35
ID : 38
Format : UTF-8
Codec ID : S_TEXT/UTF8
Codec ID/Info : UTF-8 Plain Text
Duration : 59 min 46 s
Bit rate : 30 b/s
Count of elements : 443
Stream size : 13.4 KiB (0%)
Language : Slovenian
Default : No
Forced : No

Text #36
ID : 39
Format : UTF-8
Codec ID : S_TEXT/UTF8
Codec ID/Info : UTF-8 Plain Text
Duration : 59 min 46 s
Bit rate : 35 b/s
Count of elements : 471
Stream size : 15.6 KiB (0%)
Language : Swedish
Default : No
Forced : No

Text #37
ID : 40
Format : UTF-8
Codec ID : S_TEXT/UTF8
Codec ID/Info : UTF-8 Plain Text
Duration : 59 min 46 s
Bit rate : 112 b/s
Count of elements : 471
Stream size : 49.3 KiB (0%)
Language : Tamil
Default : No
Forced : No

Text #38
ID : 41
Format : UTF-8
Codec ID : S_TEXT/UTF8
Codec ID/Info : UTF-8 Plain Text
Duration : 59 min 46 s
Bit rate : 106 b/s
Count of elements : 471
Stream size : 46.6 KiB (0%)
Language : Telugu
Default : No
Forced : No

Text #39
ID : 42
Format : UTF-8
Codec ID : S_TEXT/UTF8
Codec ID/Info : UTF-8 Plain Text
Duration : 59 min 46 s
Bit rate : 92 b/s
Count of elements : 471
Stream size : 40.4 KiB (0%)
Language : Thai
Default : No
Forced : No

Text #40
ID : 43
Format : UTF-8
Codec ID : S_TEXT/UTF8
Codec ID/Info : UTF-8 Plain Text
Duration : 59 min 46 s
Bit rate : 36 b/s
Count of elements : 470
Stream size : 16.2 KiB (0%)
Language : Turkish
Default : No
Forced : No

Text #41
ID : 44
Format : UTF-8
Codec ID : S_TEXT/UTF8
Codec ID/Info : UTF-8 Plain Text
Duration : 59 min 46 s
Bit rate : 53 b/s
Count of elements : 466
Stream size : 23.6 KiB (0%)
Language : Ukrainian
Default : No
Forced : No

Text #42
ID : 45
Format : UTF-8
Codec ID : S_TEXT/UTF8
Codec ID/Info : UTF-8 Plain Text
Duration : 59 min 46 s
Bit rate : 46 b/s
Count of elements : 471
Stream size : 20.3 KiB (0%)
Language : Vietnamese
Default : No
Forced : No

Text #43
ID : 46
Format : UTF-8
Codec ID : S_TEXT/UTF8
Codec ID/Info : UTF-8 Plain Text
Duration : 59 min 46 s
Bit rate : 31 b/s
Count of elements : 471
Stream size : 13.6 KiB (0%)
Title : Cantonese
Language : Chinese
Default : No
Forced : No

Download

Direct download files get automatically deleted after a month or so. Posted on : 11/05/2021

[collapse]

You may also like...

error: nah :p~