Clarkson’s Farm

TV-PG | 45min | Documentary | TV Series (2021– )

Follow Jeremy Clarkson as he attempts to run a farm in the countryside.

Watch trailer

Media Info and Download Links | S01E08

General
Format : Matroska
Format version : Version 4
File size : 329 MiB
Duration : 53 min 31 s
Overall bit rate : 858 kb/s
Movie name : Clarkson’s.Farm.S01E08.Harvesting.720p.WEBRip.2CH.x265.HEVC

Video
ID : 1
Format : HEVC
Format/Info : High Efficiency Video Coding
Format profile : [email protected]@Main
Codec ID : V_MPEGH/ISO/HEVC
Duration : 53 min 31 s
Bit rate : 786 kb/s
Width : 1 280 pixels
Height : 576 pixels
Display aspect ratio : 2.222
Frame rate mode : Constant
Frame rate : 25.000 FPS
Color space : YUV
Chroma subsampling : 4:2:0
Bit depth : 8 bits
Bits/(Pixel*Frame) : 0.043
Stream size : 301 MiB (92%)
Default : Yes
Forced : No
Color range : Limited
Color primaries : BT.709
Transfer characteristics : BT.709
Matrix coefficients : BT.709

Audio
ID : 2
Format : AAC LC SBR
Commercial name : HE-AAC
Format settings : Explicit
Codec ID : A_AAC-2
Duration : 53 min 31 s
Bit rate : 64.0 kb/s
Channel(s) : 2 channels
Channel layout : L R
Sampling rate : 48.0 kHz
Frame rate : 23.438 FPS (2048 SPF)
Compression mode : Lossy
Delay relative to video : 23 ms
Stream size : 24.5 MiB (7%)
Language : English
Default : Yes
Forced : No

Text #1
ID : 3
Format : UTF-8
Codec ID : S_TEXT/UTF8
Codec ID/Info : UTF-8 Plain Text
Duration : 52 min 18 s
Bit rate : 88 b/s
Count of elements : 1011
Stream size : 33.8 KiB (0%)
Title : English (SDH)
Language : English
Default : Yes
Forced : No

Text #2
ID : 4
Format : UTF-8
Codec ID : S_TEXT/UTF8
Codec ID/Info : UTF-8 Plain Text
Duration : 13 min 21 s
Bit rate : 1 b/s
Count of elements : 5
Stream size : 159 Bytes (0%)
Title : English (forced)
Language : English
Default : No
Forced : Yes

Text #3
ID : 5
Format : UTF-8
Codec ID : S_TEXT/UTF8
Codec ID/Info : UTF-8 Plain Text
Duration : 53 min 15 s
Bit rate : 118 b/s
Count of elements : 816
Stream size : 46.2 KiB (0%)
Title : العربية
Language : Arabic
Default : No
Forced : No

Text #4
ID : 6
Format : UTF-8
Codec ID : S_TEXT/UTF8
Codec ID/Info : UTF-8 Plain Text
Duration : 53 min 15 s
Bit rate : 73 b/s
Count of elements : 808
Stream size : 28.6 KiB (0%)
Title : Čeština
Language : Czech
Default : No
Forced : No

Text #5
ID : 7
Format : UTF-8
Codec ID : S_TEXT/UTF8
Codec ID/Info : UTF-8 Plain Text
Duration : 53 min 10 s
Bit rate : 68 b/s
Count of elements : 802
Stream size : 26.8 KiB (0%)
Title : Dansk
Language : Danish
Default : No
Forced : No

Text #6
ID : 8
Format : UTF-8
Codec ID : S_TEXT/UTF8
Codec ID/Info : UTF-8 Plain Text
Duration : 53 min 10 s
Bit rate : 68 b/s
Count of elements : 705
Stream size : 26.8 KiB (0%)
Title : Deutsch
Language : German
Default : No
Forced : No

Text #7
ID : 9
Format : UTF-8
Codec ID : S_TEXT/UTF8
Codec ID/Info : UTF-8 Plain Text
Duration : 53 min 15 s
Bit rate : 133 b/s
Count of elements : 816
Stream size : 52.0 KiB (0%)
Title : Ελληνικά
Language : Greek
Default : No
Forced : No

Text #8
ID : 10
Format : UTF-8
Codec ID : S_TEXT/UTF8
Codec ID/Info : UTF-8 Plain Text
Duration : 53 min 15 s
Bit rate : 70 b/s
Count of elements : 805
Stream size : 27.7 KiB (0%)
Title : Español (España)
Language : Spanish
Default : No
Forced : No

Text #9
ID : 11
Format : UTF-8
Codec ID : S_TEXT/UTF8
Codec ID/Info : UTF-8 Plain Text
Duration : 53 min 15 s
Bit rate : 72 b/s
Count of elements : 804
Stream size : 28.1 KiB (0%)
Title : Español (Latinoamérica)
Language : Spanish
Default : No
Forced : No

Text #10
ID : 12
Format : UTF-8
Codec ID : S_TEXT/UTF8
Codec ID/Info : UTF-8 Plain Text
Duration : 53 min 15 s
Bit rate : 69 b/s
Count of elements : 807
Stream size : 27.2 KiB (0%)
Title : Suomi
Language : Finnish
Default : No
Forced : No

Text #11
ID : 13
Format : UTF-8
Codec ID : S_TEXT/UTF8
Codec ID/Info : UTF-8 Plain Text
Duration : 53 min 10 s
Bit rate : 73 b/s
Count of elements : 810
Stream size : 28.6 KiB (0%)
Title : Filipino
Language : fil
Default : No
Forced : No

Text #12
ID : 14
Format : UTF-8
Codec ID : S_TEXT/UTF8
Codec ID/Info : UTF-8 Plain Text
Duration : 53 min 15 s
Bit rate : 70 b/s
Count of elements : 808
Stream size : 27.5 KiB (0%)
Title : Français
Language : French
Default : No
Forced : No

Text #13
ID : 15
Format : UTF-8
Codec ID : S_TEXT/UTF8
Codec ID/Info : UTF-8 Plain Text
Duration : 53 min 15 s
Bit rate : 114 b/s
Count of elements : 816
Stream size : 44.8 KiB (0%)
Title : עברית
Language : Hebrew
Default : No
Forced : No

Text #14
ID : 16
Format : UTF-8
Codec ID : S_TEXT/UTF8
Codec ID/Info : UTF-8 Plain Text
Duration : 53 min 15 s
Bit rate : 177 b/s
Count of elements : 816
Stream size : 69.2 KiB (0%)
Title : हिन्दी
Language : Hindi
Default : No
Forced : No

Text #15
ID : 17
Format : UTF-8
Codec ID : S_TEXT/UTF8
Codec ID/Info : UTF-8 Plain Text
Duration : 53 min 15 s
Bit rate : 72 b/s
Count of elements : 808
Stream size : 28.3 KiB (0%)
Title : Magyar
Language : Hungarian
Default : No
Forced : No

Text #16
ID : 18
Format : UTF-8
Codec ID : S_TEXT/UTF8
Codec ID/Info : UTF-8 Plain Text
Duration : 53 min 15 s
Bit rate : 66 b/s
Count of elements : 808
Stream size : 26.0 KiB (0%)
Title : Indonesia
Language : Indonesian
Default : No
Forced : No

Text #17
ID : 19
Format : UTF-8
Codec ID : S_TEXT/UTF8
Codec ID/Info : UTF-8 Plain Text
Duration : 53 min 15 s
Bit rate : 71 b/s
Count of elements : 805
Stream size : 27.9 KiB (0%)
Title : Italiano
Language : Italian
Default : No
Forced : No

Text #18
ID : 20
Format : UTF-8
Codec ID : S_TEXT/UTF8
Codec ID/Info : UTF-8 Plain Text
Duration : 53 min 17 s
Bit rate : 64 b/s
Count of elements : 780
Stream size : 25.1 KiB (0%)
Title : 日本語
Language : Japanese
Default : No
Forced : No

Text #19
ID : 21
Format : UTF-8
Codec ID : S_TEXT/UTF8
Codec ID/Info : UTF-8 Plain Text
Duration : 53 min 15 s
Bit rate : 83 b/s
Count of elements : 816
Stream size : 32.7 KiB (0%)
Title : 한국어
Language : Korean
Default : No
Forced : No

Text #20
ID : 22
Format : UTF-8
Codec ID : S_TEXT/UTF8
Codec ID/Info : UTF-8 Plain Text
Duration : 53 min 15 s
Bit rate : 73 b/s
Count of elements : 808
Stream size : 28.5 KiB (0%)
Title : Bahasa Melayu
Language : Malay
Default : No
Forced : No

Text #21
ID : 23
Format : UTF-8
Codec ID : S_TEXT/UTF8
Codec ID/Info : UTF-8 Plain Text
Duration : 53 min 10 s
Bit rate : 70 b/s
Count of elements : 806
Stream size : 27.5 KiB (0%)
Title : Norsk Bokmål
Language : Norwegian Bokmal
Default : No
Forced : No

Text #22
ID : 24
Format : UTF-8
Codec ID : S_TEXT/UTF8
Codec ID/Info : UTF-8 Plain Text
Duration : 53 min 10 s
Bit rate : 69 b/s
Count of elements : 804
Stream size : 27.1 KiB (0%)
Title : Nederlands
Language : Dutch
Default : No
Forced : No

Text #23
ID : 25
Format : UTF-8
Codec ID : S_TEXT/UTF8
Codec ID/Info : UTF-8 Plain Text
Duration : 53 min 15 s
Bit rate : 70 b/s
Count of elements : 803
Stream size : 27.5 KiB (0%)
Title : Polski
Language : Polish
Default : No
Forced : No

Text #24
ID : 26
Format : UTF-8
Codec ID : S_TEXT/UTF8
Codec ID/Info : UTF-8 Plain Text
Duration : 53 min 15 s
Bit rate : 71 b/s
Count of elements : 809
Stream size : 28.0 KiB (0%)
Title : Português (Brasil)
Language : Portuguese
Default : No
Forced : No

Text #25
ID : 27
Format : UTF-8
Codec ID : S_TEXT/UTF8
Codec ID/Info : UTF-8 Plain Text
Duration : 53 min 15 s
Bit rate : 73 b/s
Count of elements : 806
Stream size : 28.7 KiB (0%)
Title : Português (Portugal)
Language : Portuguese
Default : No
Forced : No

Text #26
ID : 28
Format : UTF-8
Codec ID : S_TEXT/UTF8
Codec ID/Info : UTF-8 Plain Text
Duration : 53 min 15 s
Bit rate : 73 b/s
Count of elements : 806
Stream size : 28.5 KiB (0%)
Title : Română
Language : Romanian
Default : No
Forced : No

Text #27
ID : 29
Format : UTF-8
Codec ID : S_TEXT/UTF8
Codec ID/Info : UTF-8 Plain Text
Duration : 53 min 15 s
Bit rate : 121 b/s
Count of elements : 816
Stream size : 47.5 KiB (0%)
Title : Русский
Language : Russian
Default : No
Forced : No

Text #28
ID : 30
Format : UTF-8
Codec ID : S_TEXT/UTF8
Codec ID/Info : UTF-8 Plain Text
Duration : 53 min 15 s
Bit rate : 71 b/s
Count of elements : 804
Stream size : 27.9 KiB (0%)
Title : Svenska
Language : Swedish
Default : No
Forced : No

Text #29
ID : 31
Format : UTF-8
Codec ID : S_TEXT/UTF8
Codec ID/Info : UTF-8 Plain Text
Duration : 53 min 15 s
Bit rate : 190 b/s
Count of elements : 816
Stream size : 74.4 KiB (0%)
Title : தமிழ்
Language : Tamil
Default : No
Forced : No

Text #30
ID : 32
Format : UTF-8
Codec ID : S_TEXT/UTF8
Codec ID/Info : UTF-8 Plain Text
Duration : 53 min 15 s
Bit rate : 185 b/s
Count of elements : 816
Stream size : 72.2 KiB (0%)
Title : తెలుగు
Language : Telugu
Default : No
Forced : No

Text #31
ID : 33
Format : UTF-8
Codec ID : S_TEXT/UTF8
Codec ID/Info : UTF-8 Plain Text
Duration : 53 min 15 s
Bit rate : 170 b/s
Count of elements : 815
Stream size : 66.6 KiB (0%)
Title : ไทย
Language : Thai
Default : No
Forced : No

Text #32
ID : 34
Format : UTF-8
Codec ID : S_TEXT/UTF8
Codec ID/Info : UTF-8 Plain Text
Duration : 53 min 15 s
Bit rate : 68 b/s
Count of elements : 808
Stream size : 26.7 KiB (0%)
Title : Türkçe
Language : Turkish
Default : No
Forced : No

Text #33
ID : 35
Format : UTF-8
Codec ID : S_TEXT/UTF8
Codec ID/Info : UTF-8 Plain Text
Duration : 53 min 15 s
Bit rate : 67 b/s
Count of elements : 816
Stream size : 26.3 KiB (0%)
Title : 中文(繁體)
Language : Chinese
Default : No
Forced : No

Text #34
ID : 36
Format : UTF-8
Codec ID : S_TEXT/UTF8
Codec ID/Info : UTF-8 Plain Text
Duration : 53 min 15 s
Bit rate : 61 b/s
Count of elements : 816
Stream size : 24.1 KiB (0%)
Title : 中文(简体)
Language : Chinese
Default : No
Forced : No

Download

Direct download files get automatically deleted after a month or so. Posted on : 06/12/2021

[collapse]
Media Info and Download Links | S01E07

General
Format : Matroska
Format version : Version 4
File size : 287 MiB
Duration : 40 min 23 s
Overall bit rate : 993 kb/s
Movie name : Clarkson’s.Farm.S01E07.Fluffing.720p.WEBRip.2CH.x265.HEVC

Video
ID : 1
Format : HEVC
Format/Info : High Efficiency Video Coding
Format profile : [email protected]@Main
Codec ID : V_MPEGH/ISO/HEVC
Duration : 40 min 23 s
Bit rate : 921 kb/s
Width : 1 280 pixels
Height : 576 pixels
Display aspect ratio : 2.222
Frame rate mode : Constant
Frame rate : 25.000 FPS
Color space : YUV
Chroma subsampling : 4:2:0
Bit depth : 8 bits
Bits/(Pixel*Frame) : 0.050
Stream size : 266 MiB (93%)
Default : Yes
Forced : No
Color range : Limited
Color primaries : BT.709
Transfer characteristics : BT.709
Matrix coefficients : BT.709

Audio
ID : 2
Format : AAC LC SBR
Commercial name : HE-AAC
Format settings : Explicit
Codec ID : A_AAC-2
Duration : 40 min 23 s
Bit rate : 63.1 kb/s
Channel(s) : 2 channels
Channel layout : L R
Sampling rate : 48.0 kHz
Frame rate : 23.438 FPS (2048 SPF)
Compression mode : Lossy
Delay relative to video : 23 ms
Stream size : 18.2 MiB (6%)
Language : English
Default : Yes
Forced : No

Text #1
ID : 3
Format : UTF-8
Codec ID : S_TEXT/UTF8
Codec ID/Info : UTF-8 Plain Text
Duration : 39 min 42 s
Bit rate : 102 b/s
Count of elements : 955
Stream size : 29.9 KiB (0%)
Title : English (SDH)
Language : English
Default : Yes
Forced : No

Text #2
ID : 4
Format : UTF-8
Codec ID : S_TEXT/UTF8
Codec ID/Info : UTF-8 Plain Text
Duration : 40 min 7 s
Bit rate : 139 b/s
Count of elements : 744
Stream size : 40.9 KiB (0%)
Title : العربية
Language : Arabic
Default : No
Forced : No

Text #3
ID : 5
Format : UTF-8
Codec ID : S_TEXT/UTF8
Codec ID/Info : UTF-8 Plain Text
Duration : 40 min 7 s
Bit rate : 83 b/s
Count of elements : 739
Stream size : 24.5 KiB (0%)
Title : Čeština
Language : Czech
Default : No
Forced : No

Text #4
ID : 6
Format : UTF-8
Codec ID : S_TEXT/UTF8
Codec ID/Info : UTF-8 Plain Text
Duration : 40 min 2 s
Bit rate : 78 b/s
Count of elements : 737
Stream size : 23.0 KiB (0%)
Title : Dansk
Language : Danish
Default : No
Forced : No

Text #5
ID : 7
Format : UTF-8
Codec ID : S_TEXT/UTF8
Codec ID/Info : UTF-8 Plain Text
Duration : 40 min 5 s
Bit rate : 78 b/s
Count of elements : 606
Stream size : 23.0 KiB (0%)
Title : Deutsch
Language : German
Default : No
Forced : No

Text #6
ID : 8
Format : UTF-8
Codec ID : S_TEXT/UTF8
Codec ID/Info : UTF-8 Plain Text
Duration : 40 min 7 s
Bit rate : 153 b/s
Count of elements : 741
Stream size : 45.1 KiB (0%)
Title : Ελληνικά
Language : Greek
Default : No
Forced : No

Text #7
ID : 9
Format : UTF-8
Codec ID : S_TEXT/UTF8
Codec ID/Info : UTF-8 Plain Text
Duration : 40 min 7 s
Bit rate : 82 b/s
Count of elements : 737
Stream size : 24.2 KiB (0%)
Title : Español (Latinoamérica)
Language : Spanish
Default : No
Forced : No

Text #8
ID : 10
Format : UTF-8
Codec ID : S_TEXT/UTF8
Codec ID/Info : UTF-8 Plain Text
Duration : 40 min 7 s
Bit rate : 81 b/s
Count of elements : 740
Stream size : 23.9 KiB (0%)
Title : Español (España)
Language : Spanish
Default : No
Forced : No

Text #9
ID : 11
Format : UTF-8
Codec ID : S_TEXT/UTF8
Codec ID/Info : UTF-8 Plain Text
Duration : 40 min 7 s
Bit rate : 79 b/s
Count of elements : 727
Stream size : 23.5 KiB (0%)
Title : Suomi
Language : Finnish
Default : No
Forced : No

Text #10
ID : 12
Format : UTF-8
Codec ID : S_TEXT/UTF8
Codec ID/Info : UTF-8 Plain Text
Duration : 40 min 2 s
Bit rate : 82 b/s
Count of elements : 730
Stream size : 24.2 KiB (0%)
Title : Filipino
Language : fil
Default : No
Forced : No

Text #11
ID : 13
Format : UTF-8
Codec ID : S_TEXT/UTF8
Codec ID/Info : UTF-8 Plain Text
Duration : 40 min 7 s
Bit rate : 81 b/s
Count of elements : 741
Stream size : 23.8 KiB (0%)
Title : Français
Language : French
Default : No
Forced : No

Text #12
ID : 14
Format : UTF-8
Codec ID : S_TEXT/UTF8
Codec ID/Info : UTF-8 Plain Text
Duration : 40 min 7 s
Bit rate : 133 b/s
Count of elements : 744
Stream size : 39.2 KiB (0%)
Title : עברית
Language : Hebrew
Default : No
Forced : No

Text #13
ID : 15
Format : UTF-8
Codec ID : S_TEXT/UTF8
Codec ID/Info : UTF-8 Plain Text
Duration : 40 min 7 s
Bit rate : 205 b/s
Count of elements : 743
Stream size : 60.4 KiB (0%)
Title : हिन्दी
Language : Hindi
Default : No
Forced : No

Text #14
ID : 16
Format : UTF-8
Codec ID : S_TEXT/UTF8
Codec ID/Info : UTF-8 Plain Text
Duration : 40 min 7 s
Bit rate : 82 b/s
Count of elements : 739
Stream size : 24.3 KiB (0%)
Title : Magyar
Language : Hungarian
Default : No
Forced : No

Text #15
ID : 17
Format : UTF-8
Codec ID : S_TEXT/UTF8
Codec ID/Info : UTF-8 Plain Text
Duration : 40 min 7 s
Bit rate : 76 b/s
Count of elements : 739
Stream size : 22.4 KiB (0%)
Title : Indonesia
Language : Indonesian
Default : No
Forced : No

Text #16
ID : 18
Format : UTF-8
Codec ID : S_TEXT/UTF8
Codec ID/Info : UTF-8 Plain Text
Duration : 40 min 7 s
Bit rate : 80 b/s
Count of elements : 741
Stream size : 23.8 KiB (0%)
Title : Italiano
Language : Italian
Default : No
Forced : No

Text #17
ID : 19
Format : UTF-8
Codec ID : S_TEXT/UTF8
Codec ID/Info : UTF-8 Plain Text
Duration : 40 min 8 s
Bit rate : 77 b/s
Count of elements : 746
Stream size : 22.8 KiB (0%)
Title : 日本語
Language : Japanese
Default : No
Forced : No

Text #18
ID : 20
Format : UTF-8
Codec ID : S_TEXT/UTF8
Codec ID/Info : UTF-8 Plain Text
Duration : 40 min 7 s
Bit rate : 94 b/s
Count of elements : 744
Stream size : 27.9 KiB (0%)
Title : 한국어
Language : Korean
Default : No
Forced : No

Text #19
ID : 21
Format : UTF-8
Codec ID : S_TEXT/UTF8
Codec ID/Info : UTF-8 Plain Text
Duration : 40 min 7 s
Bit rate : 81 b/s
Count of elements : 739
Stream size : 24.1 KiB (0%)
Title : Bahasa Melayu
Language : Malay
Default : No
Forced : No

Text #20
ID : 22
Format : UTF-8
Codec ID : S_TEXT/UTF8
Codec ID/Info : UTF-8 Plain Text
Duration : 40 min 2 s
Bit rate : 78 b/s
Count of elements : 738
Stream size : 23.0 KiB (0%)
Title : Norsk Bokmål
Language : Norwegian Bokmal
Default : No
Forced : No

Text #21
ID : 23
Format : UTF-8
Codec ID : S_TEXT/UTF8
Codec ID/Info : UTF-8 Plain Text
Duration : 40 min 2 s
Bit rate : 77 b/s
Count of elements : 731
Stream size : 22.7 KiB (0%)
Title : Nederlands
Language : Dutch
Default : No
Forced : No

Text #22
ID : 24
Format : UTF-8
Codec ID : S_TEXT/UTF8
Codec ID/Info : UTF-8 Plain Text
Duration : 40 min 7 s
Bit rate : 81 b/s
Count of elements : 739
Stream size : 24.0 KiB (0%)
Title : Polski
Language : Polish
Default : No
Forced : No

Text #23
ID : 25
Format : UTF-8
Codec ID : S_TEXT/UTF8
Codec ID/Info : UTF-8 Plain Text
Duration : 40 min 7 s
Bit rate : 83 b/s
Count of elements : 739
Stream size : 24.4 KiB (0%)
Title : Português (Portugal)
Language : Portuguese
Default : No
Forced : No

Text #24
ID : 26
Format : UTF-8
Codec ID : S_TEXT/UTF8
Codec ID/Info : UTF-8 Plain Text
Duration : 40 min 7 s
Bit rate : 82 b/s
Count of elements : 741
Stream size : 24.1 KiB (0%)
Title : Português (Brasil)
Language : Portuguese
Default : No
Forced : No

Text #25
ID : 27
Format : UTF-8
Codec ID : S_TEXT/UTF8
Codec ID/Info : UTF-8 Plain Text
Duration : 40 min 7 s
Bit rate : 83 b/s
Count of elements : 740
Stream size : 24.6 KiB (0%)
Title : Română
Language : Romanian
Default : No
Forced : No

Text #26
ID : 28
Format : UTF-8
Codec ID : S_TEXT/UTF8
Codec ID/Info : UTF-8 Plain Text
Duration : 40 min 7 s
Bit rate : 138 b/s
Count of elements : 744
Stream size : 40.7 KiB (0%)
Title : Русский
Language : Russian
Default : No
Forced : No

Text #27
ID : 29
Format : UTF-8
Codec ID : S_TEXT/UTF8
Codec ID/Info : UTF-8 Plain Text
Duration : 40 min 7 s
Bit rate : 80 b/s
Count of elements : 739
Stream size : 23.6 KiB (0%)
Title : Svenska
Language : Swedish
Default : No
Forced : No

Text #28
ID : 30
Format : UTF-8
Codec ID : S_TEXT/UTF8
Codec ID/Info : UTF-8 Plain Text
Duration : 40 min 7 s
Bit rate : 211 b/s
Count of elements : 744
Stream size : 62.3 KiB (0%)
Title : தமிழ்
Language : Tamil
Default : No
Forced : No

Text #29
ID : 31
Format : UTF-8
Codec ID : S_TEXT/UTF8
Codec ID/Info : UTF-8 Plain Text
Duration : 40 min 8 s
Bit rate : 213 b/s
Count of elements : 744
Stream size : 62.6 KiB (0%)
Title : తెలుగు
Language : Telugu
Default : No
Forced : No

Text #30
ID : 32
Format : UTF-8
Codec ID : S_TEXT/UTF8
Codec ID/Info : UTF-8 Plain Text
Duration : 40 min 7 s
Bit rate : 197 b/s
Count of elements : 743
Stream size : 58.0 KiB (0%)
Title : ไทย
Language : Thai
Default : No
Forced : No

Text #31
ID : 33
Format : UTF-8
Codec ID : S_TEXT/UTF8
Codec ID/Info : UTF-8 Plain Text
Duration : 40 min 7 s
Bit rate : 79 b/s
Count of elements : 742
Stream size : 23.4 KiB (0%)
Title : Türkçe
Language : Turkish
Default : No
Forced : No

Text #32
ID : 34
Format : UTF-8
Codec ID : S_TEXT/UTF8
Codec ID/Info : UTF-8 Plain Text
Duration : 40 min 7 s
Bit rate : 71 b/s
Count of elements : 744
Stream size : 20.9 KiB (0%)
Title : 中文(简体)
Language : Chinese
Default : No
Forced : No

Text #33
ID : 35
Format : UTF-8
Codec ID : S_TEXT/UTF8
Codec ID/Info : UTF-8 Plain Text
Duration : 40 min 7 s
Bit rate : 74 b/s
Count of elements : 744
Stream size : 22.0 KiB (0%)
Title : 中文(繁體)
Language : Chinese
Default : No
Forced : No

Download

Direct download files get automatically deleted after a month or so. Posted on : 06/12/2021

[collapse]
Media Info and Download Links | S01E06

General
Format : Matroska
Format version : Version 4
File size : 349 MiB
Duration : 40 min 59 s
Overall bit rate : 1 192 kb/s
Movie name : Clarksons.Farm.S01E06.Melting.720p.WEBRip.2CH.x265.HEVC

Video
ID : 1
Format : HEVC
Format/Info : High Efficiency Video Coding
Format profile : [email protected]@Main
Codec ID : V_MPEGH/ISO/HEVC
Duration : 40 min 59 s
Bit rate : 1 120 kb/s
Width : 1 280 pixels
Height : 576 pixels
Display aspect ratio : 2.222
Frame rate mode : Constant
Frame rate : 25.000 FPS
Color space : YUV
Chroma subsampling : 4:2:0
Bit depth : 8 bits
Bits/(Pixel*Frame) : 0.061
Stream size : 328 MiB (94%)
Default : Yes
Forced : No
Color range : Limited
Color primaries : BT.709
Transfer characteristics : BT.709
Matrix coefficients : BT.709

Audio
ID : 2
Format : AAC LC SBR
Commercial name : HE-AAC
Format settings : Explicit
Codec ID : A_AAC-2
Duration : 40 min 59 s
Bit rate : 63.0 kb/s
Channel(s) : 2 channels
Channel layout : L R
Sampling rate : 48.0 kHz
Frame rate : 23.438 FPS (2048 SPF)
Compression mode : Lossy
Delay relative to video : 23 ms
Stream size : 18.5 MiB (5%)
Language : English
Default : Yes
Forced : No

Text #1
ID : 3
Format : UTF-8
Codec ID : S_TEXT/UTF8
Codec ID/Info : UTF-8 Plain Text
Duration : 40 min 14 s
Bit rate : 98 b/s
Count of elements : 807
Stream size : 29.0 KiB (0%)
Title : English (SDH)
Language : English
Default : Yes
Forced : No

Text #2
ID : 4
Format : UTF-8
Codec ID : S_TEXT/UTF8
Codec ID/Info : UTF-8 Plain Text
Duration : 40 min 44 s
Bit rate : 130 b/s
Count of elements : 668
Stream size : 39.0 KiB (0%)
Title : العربية
Language : Arabic
Default : No
Forced : No

Text #3
ID : 5
Format : UTF-8
Codec ID : S_TEXT/UTF8
Codec ID/Info : UTF-8 Plain Text
Duration : 40 min 44 s
Bit rate : 81 b/s
Count of elements : 668
Stream size : 24.4 KiB (0%)
Title : Čeština
Language : Czech
Default : No
Forced : No

Text #4
ID : 6
Format : UTF-8
Codec ID : S_TEXT/UTF8
Codec ID/Info : UTF-8 Plain Text
Duration : 40 min 39 s
Bit rate : 76 b/s
Count of elements : 667
Stream size : 22.9 KiB (0%)
Title : Dansk
Language : Danish
Default : No
Forced : No

Text #5
ID : 7
Format : UTF-8
Codec ID : S_TEXT/UTF8
Codec ID/Info : UTF-8 Plain Text
Duration : 40 min 40 s
Bit rate : 78 b/s
Count of elements : 631
Stream size : 23.2 KiB (0%)
Title : Deutsch
Language : German
Default : No
Forced : No

Text #6
ID : 8
Format : UTF-8
Codec ID : S_TEXT/UTF8
Codec ID/Info : UTF-8 Plain Text
Duration : 40 min 44 s
Bit rate : 147 b/s
Count of elements : 668
Stream size : 44.0 KiB (0%)
Title : Ελληνικά
Language : Greek
Default : No
Forced : No

Text #7
ID : 9
Format : UTF-8
Codec ID : S_TEXT/UTF8
Codec ID/Info : UTF-8 Plain Text
Duration : 40 min 44 s
Bit rate : 79 b/s
Count of elements : 668
Stream size : 23.7 KiB (0%)
Title : Español (España)
Language : Spanish
Default : No
Forced : No

Text #8
ID : 10
Format : UTF-8
Codec ID : S_TEXT/UTF8
Codec ID/Info : UTF-8 Plain Text
Duration : 40 min 44 s
Bit rate : 81 b/s
Count of elements : 668
Stream size : 24.2 KiB (0%)
Title : Español (Latinoamérica)
Language : Spanish
Default : No
Forced : No

Text #9
ID : 11
Format : UTF-8
Codec ID : S_TEXT/UTF8
Codec ID/Info : UTF-8 Plain Text
Duration : 40 min 44 s
Bit rate : 78 b/s
Count of elements : 668
Stream size : 23.4 KiB (0%)
Title : Suomi
Language : Finnish
Default : No
Forced : No

Text #10
ID : 12
Format : UTF-8
Codec ID : S_TEXT/UTF8
Codec ID/Info : UTF-8 Plain Text
Duration : 40 min 39 s
Bit rate : 81 b/s
Count of elements : 666
Stream size : 24.3 KiB (0%)
Title : Filipino
Language : fil
Default : No
Forced : No

Text #11
ID : 13
Format : UTF-8
Codec ID : S_TEXT/UTF8
Codec ID/Info : UTF-8 Plain Text
Duration : 40 min 44 s
Bit rate : 79 b/s
Count of elements : 668
Stream size : 23.7 KiB (0%)
Title : Français
Language : French
Default : No
Forced : No

Text #12
ID : 14
Format : UTF-8
Codec ID : S_TEXT/UTF8
Codec ID/Info : UTF-8 Plain Text
Duration : 40 min 44 s
Bit rate : 129 b/s
Count of elements : 668
Stream size : 38.5 KiB (0%)
Title : עברית
Language : Hebrew
Default : No
Forced : No

Text #13
ID : 15
Format : UTF-8
Codec ID : S_TEXT/UTF8
Codec ID/Info : UTF-8 Plain Text
Duration : 40 min 44 s
Bit rate : 199 b/s
Count of elements : 668
Stream size : 59.6 KiB (0%)
Title : हिन्दी
Language : Hindi
Default : No
Forced : No

Text #14
ID : 16
Format : UTF-8
Codec ID : S_TEXT/UTF8
Codec ID/Info : UTF-8 Plain Text
Duration : 40 min 44 s
Bit rate : 80 b/s
Count of elements : 668
Stream size : 24.0 KiB (0%)
Title : Magyar
Language : Hungarian
Default : No
Forced : No

Text #15
ID : 17
Format : UTF-8
Codec ID : S_TEXT/UTF8
Codec ID/Info : UTF-8 Plain Text
Duration : 40 min 44 s
Bit rate : 72 b/s
Count of elements : 668
Stream size : 21.8 KiB (0%)
Title : Indonesia
Language : Indonesian
Default : No
Forced : No

Text #16
ID : 18
Format : UTF-8
Codec ID : S_TEXT/UTF8
Codec ID/Info : UTF-8 Plain Text
Duration : 40 min 44 s
Bit rate : 79 b/s
Count of elements : 668
Stream size : 23.9 KiB (0%)
Title : Italiano
Language : Italian
Default : No
Forced : No

Text #17
ID : 19
Format : UTF-8
Codec ID : S_TEXT/UTF8
Codec ID/Info : UTF-8 Plain Text
Duration : 40 min 44 s
Bit rate : 72 b/s
Count of elements : 686
Stream size : 21.6 KiB (0%)
Title : 日本語
Language : Japanese
Default : No
Forced : No

Text #18
ID : 20
Format : UTF-8
Codec ID : S_TEXT/UTF8
Codec ID/Info : UTF-8 Plain Text
Duration : 40 min 44 s
Bit rate : 94 b/s
Count of elements : 668
Stream size : 28.1 KiB (0%)
Title : 한국어
Language : Korean
Default : No
Forced : No

Text #19
ID : 21
Format : UTF-8
Codec ID : S_TEXT/UTF8
Codec ID/Info : UTF-8 Plain Text
Duration : 40 min 44 s
Bit rate : 79 b/s
Count of elements : 668
Stream size : 23.6 KiB (0%)
Title : Bahasa Melayu
Language : Malay
Default : No
Forced : No

Text #20
ID : 22
Format : UTF-8
Codec ID : S_TEXT/UTF8
Codec ID/Info : UTF-8 Plain Text
Duration : 40 min 39 s
Bit rate : 77 b/s
Count of elements : 667
Stream size : 23.0 KiB (0%)
Title : Norsk Bokmål
Language : Norwegian Bokmal
Default : No
Forced : No

Text #21
ID : 23
Format : UTF-8
Codec ID : S_TEXT/UTF8
Codec ID/Info : UTF-8 Plain Text
Duration : 40 min 39 s
Bit rate : 77 b/s
Count of elements : 665
Stream size : 23.1 KiB (0%)
Title : Nederlands
Language : Dutch
Default : No
Forced : No

Text #22
ID : 24
Format : UTF-8
Codec ID : S_TEXT/UTF8
Codec ID/Info : UTF-8 Plain Text
Duration : 40 min 44 s
Bit rate : 78 b/s
Count of elements : 668
Stream size : 23.4 KiB (0%)
Title : Polski
Language : Polish
Default : No
Forced : No

Text #23
ID : 25
Format : UTF-8
Codec ID : S_TEXT/UTF8
Codec ID/Info : UTF-8 Plain Text
Duration : 40 min 44 s
Bit rate : 81 b/s
Count of elements : 668
Stream size : 24.4 KiB (0%)
Title : Português (Portugal)
Language : Portuguese
Default : No
Forced : No

Text #24
ID : 26
Format : UTF-8
Codec ID : S_TEXT/UTF8
Codec ID/Info : UTF-8 Plain Text
Duration : 40 min 44 s
Bit rate : 81 b/s
Count of elements : 668
Stream size : 24.3 KiB (0%)
Title : Português (Brasil)
Language : Portuguese
Default : No
Forced : No

Text #25
ID : 27
Format : UTF-8
Codec ID : S_TEXT/UTF8
Codec ID/Info : UTF-8 Plain Text
Duration : 40 min 44 s
Bit rate : 81 b/s
Count of elements : 668
Stream size : 24.4 KiB (0%)
Title : Română
Language : Romanian
Default : No
Forced : No

Text #26
ID : 28
Format : UTF-8
Codec ID : S_TEXT/UTF8
Codec ID/Info : UTF-8 Plain Text
Duration : 40 min 44 s
Bit rate : 134 b/s
Count of elements : 668
Stream size : 40.2 KiB (0%)
Title : Русский
Language : Russian
Default : No
Forced : No

Text #27
ID : 29
Format : UTF-8
Codec ID : S_TEXT/UTF8
Codec ID/Info : UTF-8 Plain Text
Duration : 40 min 44 s
Bit rate : 79 b/s
Count of elements : 667
Stream size : 23.9 KiB (0%)
Title : Svenska
Language : Swedish
Default : No
Forced : No

Text #28
ID : 30
Format : UTF-8
Codec ID : S_TEXT/UTF8
Codec ID/Info : UTF-8 Plain Text
Duration : 40 min 44 s
Bit rate : 212 b/s
Count of elements : 668
Stream size : 63.5 KiB (0%)
Title : தமிழ்
Language : Tamil
Default : No
Forced : No

Text #29
ID : 31
Format : UTF-8
Codec ID : S_TEXT/UTF8
Codec ID/Info : UTF-8 Plain Text
Duration : 40 min 44 s
Bit rate : 209 b/s
Count of elements : 668
Stream size : 62.7 KiB (0%)
Title : తెలుగు
Language : Telugu
Default : No
Forced : No

Text #30
ID : 32
Format : UTF-8
Codec ID : S_TEXT/UTF8
Codec ID/Info : UTF-8 Plain Text
Duration : 40 min 44 s
Bit rate : 189 b/s
Count of elements : 668
Stream size : 56.5 KiB (0%)
Title : ไทย
Language : Thai
Default : No
Forced : No

Text #31
ID : 33
Format : UTF-8
Codec ID : S_TEXT/UTF8
Codec ID/Info : UTF-8 Plain Text
Duration : 40 min 44 s
Bit rate : 78 b/s
Count of elements : 668
Stream size : 23.3 KiB (0%)
Title : Türkçe
Language : Turkish
Default : No
Forced : No

Text #32
ID : 34
Format : UTF-8
Codec ID : S_TEXT/UTF8
Codec ID/Info : UTF-8 Plain Text
Duration : 40 min 44 s
Bit rate : 71 b/s
Count of elements : 668
Stream size : 21.4 KiB (0%)
Title : 中文(简体)
Language : Chinese
Default : No
Forced : No

Text #33
ID : 35
Format : UTF-8
Codec ID : S_TEXT/UTF8
Codec ID/Info : UTF-8 Plain Text
Duration : 40 min 44 s
Bit rate : 75 b/s
Count of elements : 668
Stream size : 22.5 KiB (0%)
Title : 中文(繁體)
Language : Chinese
Default : No
Forced : No

Download

Direct download files get automatically deleted after a month or so. Posted on : 06/12/2021

[collapse]
Media Info and Download Links | S01E05

General
Format : Matroska
Format version : Version 4
File size : 327 MiB
Duration : 45 min 48 s
Overall bit rate : 998 kb/s
Movie name : Clarksons.Farm.S01E05.Pan.dem.icking.720p.WEBRip.2CH.x265.HEVC

Video
ID : 1
Format : HEVC
Format/Info : High Efficiency Video Coding
Format profile : [email protected]@Main
Codec ID : V_MPEGH/ISO/HEVC
Duration : 45 min 48 s
Bit rate : 925 kb/s
Width : 1 280 pixels
Height : 576 pixels
Display aspect ratio : 2.222
Frame rate mode : Constant
Frame rate : 25.000 FPS
Color space : YUV
Chroma subsampling : 4:2:0
Bit depth : 8 bits
Bits/(Pixel*Frame) : 0.050
Stream size : 303 MiB (93%)
Default : Yes
Forced : No
Color range : Limited
Color primaries : BT.709
Transfer characteristics : BT.709
Matrix coefficients : BT.709

Audio
ID : 2
Format : AAC LC SBR
Commercial name : HE-AAC
Format settings : Explicit
Codec ID : A_AAC-2
Duration : 45 min 48 s
Bit rate : 66.2 kb/s
Channel(s) : 2 channels
Channel layout : L R
Sampling rate : 48.0 kHz
Frame rate : 23.438 FPS (2048 SPF)
Compression mode : Lossy
Delay relative to video : 23 ms
Stream size : 21.3 MiB (7%)
Language : English
Default : Yes
Forced : No

Text #1
ID : 3
Format : UTF-8
Codec ID : S_TEXT/UTF8
Codec ID/Info : UTF-8 Plain Text
Duration : 45 min 6 s
Bit rate : 94 b/s
Count of elements : 1023
Stream size : 31.2 KiB (0%)
Title : English (SDH)
Language : English
Default : Yes
Forced : No

Text #2
ID : 4
Format : UTF-8
Codec ID : S_TEXT/UTF8
Codec ID/Info : UTF-8 Plain Text
Duration : 13 min 12 s
Bit rate : 2 b/s
Count of elements : 8
Stream size : 222 Bytes (0%)
Title : English (forced)
Language : English
Default : No
Forced : Yes

Text #3
ID : 5
Format : UTF-8
Codec ID : S_TEXT/UTF8
Codec ID/Info : UTF-8 Plain Text
Duration : 45 min 31 s
Bit rate : 128 b/s
Count of elements : 808
Stream size : 43.0 KiB (0%)
Title : العربية
Language : Arabic
Default : No
Forced : No

Text #4
ID : 6
Format : UTF-8
Codec ID : S_TEXT/UTF8
Codec ID/Info : UTF-8 Plain Text
Duration : 45 min 31 s
Bit rate : 77 b/s
Count of elements : 807
Stream size : 26.0 KiB (0%)
Title : Čeština
Language : Czech
Default : No
Forced : No

Text #5
ID : 7
Format : UTF-8
Codec ID : S_TEXT/UTF8
Codec ID/Info : UTF-8 Plain Text
Duration : 45 min 27 s
Bit rate : 73 b/s
Count of elements : 806
Stream size : 24.4 KiB (0%)
Title : Dansk
Language : Danish
Default : No
Forced : No

Text #6
ID : 8
Format : UTF-8
Codec ID : S_TEXT/UTF8
Codec ID/Info : UTF-8 Plain Text
Duration : 45 min 29 s
Bit rate : 74 b/s
Count of elements : 632
Stream size : 25.0 KiB (0%)
Title : Deutsch
Language : German
Default : No
Forced : No

Text #7
ID : 9
Format : UTF-8
Codec ID : S_TEXT/UTF8
Codec ID/Info : UTF-8 Plain Text
Duration : 45 min 31 s
Bit rate : 141 b/s
Count of elements : 808
Stream size : 47.2 KiB (0%)
Title : Ελληνικά
Language : Greek
Default : No
Forced : No

Text #8
ID : 10
Format : UTF-8
Codec ID : S_TEXT/UTF8
Codec ID/Info : UTF-8 Plain Text
Duration : 45 min 31 s
Bit rate : 75 b/s
Count of elements : 808
Stream size : 25.3 KiB (0%)
Title : Español (España)
Language : Spanish
Default : No
Forced : No

Text #9
ID : 11
Format : UTF-8
Codec ID : S_TEXT/UTF8
Codec ID/Info : UTF-8 Plain Text
Duration : 45 min 31 s
Bit rate : 77 b/s
Count of elements : 808
Stream size : 25.9 KiB (0%)
Title : Español (Latinoamérica)
Language : Spanish
Default : No
Forced : No

Text #10
ID : 12
Format : UTF-8
Codec ID : S_TEXT/UTF8
Codec ID/Info : UTF-8 Plain Text
Duration : 45 min 31 s
Bit rate : 74 b/s
Count of elements : 796
Stream size : 24.9 KiB (0%)
Title : Suomi
Language : Finnish
Default : No
Forced : No

Text #11
ID : 13
Format : UTF-8
Codec ID : S_TEXT/UTF8
Codec ID/Info : UTF-8 Plain Text
Duration : 45 min 27 s
Bit rate : 77 b/s
Count of elements : 804
Stream size : 25.8 KiB (0%)
Title : Filipino
Language : fil
Default : No
Forced : No

Text #12
ID : 14
Format : UTF-8
Codec ID : S_TEXT/UTF8
Codec ID/Info : UTF-8 Plain Text
Duration : 45 min 31 s
Bit rate : 76 b/s
Count of elements : 807
Stream size : 25.5 KiB (0%)
Title : Français
Language : French
Default : No
Forced : No

Text #13
ID : 15
Format : UTF-8
Codec ID : S_TEXT/UTF8
Codec ID/Info : UTF-8 Plain Text
Duration : 45 min 31 s
Bit rate : 123 b/s
Count of elements : 808
Stream size : 41.3 KiB (0%)
Title : עברית
Language : Hebrew
Default : No
Forced : No

Text #14
ID : 16
Format : UTF-8
Codec ID : S_TEXT/UTF8
Codec ID/Info : UTF-8 Plain Text
Duration : 45 min 31 s
Bit rate : 189 b/s
Count of elements : 808
Stream size : 63.3 KiB (0%)
Title : हिन्दी
Language : Hindi
Default : No
Forced : No

Text #15
ID : 17
Format : UTF-8
Codec ID : S_TEXT/UTF8
Codec ID/Info : UTF-8 Plain Text
Duration : 45 min 31 s
Bit rate : 78 b/s
Count of elements : 805
Stream size : 26.1 KiB (0%)
Title : Magyar
Language : Hungarian
Default : No
Forced : No

Text #16
ID : 18
Format : UTF-8
Codec ID : S_TEXT/UTF8
Codec ID/Info : UTF-8 Plain Text
Duration : 45 min 31 s
Bit rate : 71 b/s
Count of elements : 808
Stream size : 24.0 KiB (0%)
Title : Indonesia
Language : Indonesian
Default : No
Forced : No

Text #17
ID : 19
Format : UTF-8
Codec ID : S_TEXT/UTF8
Codec ID/Info : UTF-8 Plain Text
Duration : 45 min 31 s
Bit rate : 75 b/s
Count of elements : 807
Stream size : 25.1 KiB (0%)
Title : Italiano
Language : Italian
Default : No
Forced : No

Text #18
ID : 20
Format : UTF-8
Codec ID : S_TEXT/UTF8
Codec ID/Info : UTF-8 Plain Text
Duration : 45 min 33 s
Bit rate : 70 b/s
Count of elements : 697
Stream size : 23.5 KiB (0%)
Title : 日本語
Language : Japanese
Default : No
Forced : No

Text #19
ID : 21
Format : UTF-8
Codec ID : S_TEXT/UTF8
Codec ID/Info : UTF-8 Plain Text
Duration : 45 min 31 s
Bit rate : 89 b/s
Count of elements : 808
Stream size : 29.9 KiB (0%)
Title : 한국어
Language : Korean
Default : No
Forced : No

Text #20
ID : 22
Format : UTF-8
Codec ID : S_TEXT/UTF8
Codec ID/Info : UTF-8 Plain Text
Duration : 45 min 31 s
Bit rate : 76 b/s
Count of elements : 807
Stream size : 25.4 KiB (0%)
Title : Bahasa Melayu
Language : Malay
Default : No
Forced : No

Text #21
ID : 23
Format : UTF-8
Codec ID : S_TEXT/UTF8
Codec ID/Info : UTF-8 Plain Text
Duration : 45 min 27 s
Bit rate : 74 b/s
Count of elements : 806
Stream size : 24.9 KiB (0%)
Title : Norsk Bokmål
Language : Norwegian Bokmal
Default : No
Forced : No

Text #22
ID : 24
Format : UTF-8
Codec ID : S_TEXT/UTF8
Codec ID/Info : UTF-8 Plain Text
Duration : 45 min 27 s
Bit rate : 75 b/s
Count of elements : 805
Stream size : 25.0 KiB (0%)
Title : Nederlands
Language : Dutch
Default : No
Forced : No

Text #23
ID : 25
Format : UTF-8
Codec ID : S_TEXT/UTF8
Codec ID/Info : UTF-8 Plain Text
Duration : 45 min 31 s
Bit rate : 76 b/s
Count of elements : 805
Stream size : 25.6 KiB (0%)
Title : Polski
Language : Polish
Default : No
Forced : No

Text #24
ID : 26
Format : UTF-8
Codec ID : S_TEXT/UTF8
Codec ID/Info : UTF-8 Plain Text
Duration : 45 min 31 s
Bit rate : 78 b/s
Count of elements : 807
Stream size : 26.3 KiB (0%)
Title : Português (Portugal)
Language : Portuguese
Default : No
Forced : No

Text #25
ID : 27
Format : UTF-8
Codec ID : S_TEXT/UTF8
Codec ID/Info : UTF-8 Plain Text
Duration : 45 min 31 s
Bit rate : 75 b/s
Count of elements : 807
Stream size : 25.3 KiB (0%)
Title : Português (Brasil)
Language : Portuguese
Default : No
Forced : No

Text #26
ID : 28
Format : UTF-8
Codec ID : S_TEXT/UTF8
Codec ID/Info : UTF-8 Plain Text
Duration : 45 min 31 s
Bit rate : 78 b/s
Count of elements : 807
Stream size : 26.3 KiB (0%)
Title : Română
Language : Romanian
Default : No
Forced : No

Text #27
ID : 29
Format : UTF-8
Codec ID : S_TEXT/UTF8
Codec ID/Info : UTF-8 Plain Text
Duration : 45 min 31 s
Bit rate : 130 b/s
Count of elements : 808
Stream size : 43.6 KiB (0%)
Title : Русский
Language : Russian
Default : No
Forced : No

Text #28
ID : 30
Format : UTF-8
Codec ID : S_TEXT/UTF8
Codec ID/Info : UTF-8 Plain Text
Duration : 45 min 31 s
Bit rate : 76 b/s
Count of elements : 806
Stream size : 25.5 KiB (0%)
Title : Svenska
Language : Swedish
Default : No
Forced : No

Text #29
ID : 31
Format : UTF-8
Codec ID : S_TEXT/UTF8
Codec ID/Info : UTF-8 Plain Text
Duration : 45 min 31 s
Bit rate : 202 b/s
Count of elements : 808
Stream size : 67.5 KiB (0%)
Title : தமிழ்
Language : Tamil
Default : No
Forced : No

Text #30
ID : 32
Format : UTF-8
Codec ID : S_TEXT/UTF8
Codec ID/Info : UTF-8 Plain Text
Duration : 45 min 31 s
Bit rate : 202 b/s
Count of elements : 808
Stream size : 67.7 KiB (0%)
Title : తెలుగు
Language : Telugu
Default : No
Forced : No

Text #31
ID : 33
Format : UTF-8
Codec ID : S_TEXT/UTF8
Codec ID/Info : UTF-8 Plain Text
Duration : 45 min 31 s
Bit rate : 186 b/s
Count of elements : 808
Stream size : 62.2 KiB (0%)
Title : ไทย
Language : Thai
Default : No
Forced : No

Text #32
ID : 34
Format : UTF-8
Codec ID : S_TEXT/UTF8
Codec ID/Info : UTF-8 Plain Text
Duration : 45 min 31 s
Bit rate : 75 b/s
Count of elements : 808
Stream size : 25.0 KiB (0%)
Title : Türkçe
Language : Turkish
Default : No
Forced : No

Text #33
ID : 35
Format : UTF-8
Codec ID : S_TEXT/UTF8
Codec ID/Info : UTF-8 Plain Text
Duration : 45 min 31 s
Bit rate : 71 b/s
Count of elements : 808
Stream size : 23.9 KiB (0%)
Title : 中文(繁體)
Language : Chinese
Default : No
Forced : No

Text #34
ID : 36
Format : UTF-8
Codec ID : S_TEXT/UTF8
Codec ID/Info : UTF-8 Plain Text
Duration : 45 min 31 s
Bit rate : 66 b/s
Count of elements : 808
Stream size : 22.1 KiB (0%)
Title : 中文(简体)
Language : Chinese
Default : No
Forced : No

Download

Direct download files get automatically deleted after a month or so. Posted on : 06/12/2021

[collapse]
Media Info and Download Links | S01E04

General
Format : Matroska
Format version : Version 4
File size : 389 MiB
Duration : 48 min 1 s
Overall bit rate : 1 133 kb/s
Movie name : Clarksons.Farm.S01E04.Wilding.720p.WEBRip.2CH.x265.HEVC

Video
ID : 1
Format : HEVC
Format/Info : High Efficiency Video Coding
Format profile : [email protected]@Main
Codec ID : V_MPEGH/ISO/HEVC
Duration : 48 min 1 s
Bit rate : 1 061 kb/s
Width : 1 280 pixels
Height : 576 pixels
Display aspect ratio : 2.222
Frame rate mode : Constant
Frame rate : 25.000 FPS
Color space : YUV
Chroma subsampling : 4:2:0
Bit depth : 8 bits
Bits/(Pixel*Frame) : 0.058
Stream size : 365 MiB (94%)
Default : Yes
Forced : No
Color range : Limited
Color primaries : BT.709
Transfer characteristics : BT.709
Matrix coefficients : BT.709

Audio
ID : 2
Format : AAC LC SBR
Commercial name : HE-AAC
Format settings : Explicit
Codec ID : A_AAC-2
Duration : 48 min 1 s
Bit rate : 63.4 kb/s
Channel(s) : 2 channels
Channel layout : L R
Sampling rate : 48.0 kHz
Frame rate : 23.438 FPS (2048 SPF)
Compression mode : Lossy
Delay relative to video : 23 ms
Stream size : 21.8 MiB (6%)
Language : English
Default : Yes
Forced : No

Text #1
ID : 3
Format : UTF-8
Codec ID : S_TEXT/UTF8
Codec ID/Info : UTF-8 Plain Text
Duration : 47 min 18 s
Bit rate : 94 b/s
Count of elements : 783
Stream size : 32.7 KiB (0%)
Title : English (SDH)
Language : English
Default : Yes
Forced : No

Text #2
ID : 4
Format : UTF-8
Codec ID : S_TEXT/UTF8
Codec ID/Info : UTF-8 Plain Text
Duration : 47 min 47 s
Bit rate : 128 b/s
Count of elements : 778
Stream size : 45.1 KiB (0%)
Title : العربية
Language : Arabic
Default : No
Forced : No

Text #3
ID : 5
Format : UTF-8
Codec ID : S_TEXT/UTF8
Codec ID/Info : UTF-8 Plain Text
Duration : 47 min 47 s
Bit rate : 79 b/s
Count of elements : 778
Stream size : 27.9 KiB (0%)
Title : Čeština
Language : Czech
Default : No
Forced : No

Text #4
ID : 6
Format : UTF-8
Codec ID : S_TEXT/UTF8
Codec ID/Info : UTF-8 Plain Text
Duration : 47 min 42 s
Bit rate : 74 b/s
Count of elements : 777
Stream size : 26.1 KiB (0%)
Title : Dansk
Language : Danish
Default : No
Forced : No

Text #5
ID : 7
Format : UTF-8
Codec ID : S_TEXT/UTF8
Codec ID/Info : UTF-8 Plain Text
Duration : 47 min 43 s
Bit rate : 77 b/s
Count of elements : 666
Stream size : 27.1 KiB (0%)
Title : Deutsch
Language : German
Default : No
Forced : No

Text #6
ID : 8
Format : UTF-8
Codec ID : S_TEXT/UTF8
Codec ID/Info : UTF-8 Plain Text
Duration : 47 min 47 s
Bit rate : 147 b/s
Count of elements : 778
Stream size : 51.6 KiB (0%)
Title : Ελληνικά
Language : Greek
Default : No
Forced : No

Text #7
ID : 9
Format : UTF-8
Codec ID : S_TEXT/UTF8
Codec ID/Info : UTF-8 Plain Text
Duration : 47 min 47 s
Bit rate : 77 b/s
Count of elements : 778
Stream size : 27.2 KiB (0%)
Title : Español (España)
Language : Spanish
Default : No
Forced : No

Text #8
ID : 10
Format : UTF-8
Codec ID : S_TEXT/UTF8
Codec ID/Info : UTF-8 Plain Text
Duration : 47 min 47 s
Bit rate : 79 b/s
Count of elements : 778
Stream size : 27.7 KiB (0%)
Title : Español (Latinoamérica)
Language : Spanish
Default : No
Forced : No

Text #9
ID : 11
Format : UTF-8
Codec ID : S_TEXT/UTF8
Codec ID/Info : UTF-8 Plain Text
Duration : 47 min 47 s
Bit rate : 77 b/s
Count of elements : 768
Stream size : 27.1 KiB (0%)
Title : Suomi
Language : Finnish
Default : No
Forced : No

Text #10
ID : 12
Format : UTF-8
Codec ID : S_TEXT/UTF8
Codec ID/Info : UTF-8 Plain Text
Duration : 47 min 42 s
Bit rate : 81 b/s
Count of elements : 776
Stream size : 28.4 KiB (0%)
Title : Filipino
Language : fil
Default : No
Forced : No

Text #11
ID : 13
Format : UTF-8
Codec ID : S_TEXT/UTF8
Codec ID/Info : UTF-8 Plain Text
Duration : 47 min 47 s
Bit rate : 77 b/s
Count of elements : 778
Stream size : 27.1 KiB (0%)
Title : Français
Language : French
Default : No
Forced : No

Text #12
ID : 14
Format : UTF-8
Codec ID : S_TEXT/UTF8
Codec ID/Info : UTF-8 Plain Text
Duration : 47 min 47 s
Bit rate : 126 b/s
Count of elements : 778
Stream size : 44.2 KiB (0%)
Title : עברית
Language : Hebrew
Default : No
Forced : No

Text #13
ID : 15
Format : UTF-8
Codec ID : S_TEXT/UTF8
Codec ID/Info : UTF-8 Plain Text
Duration : 47 min 47 s
Bit rate : 196 b/s
Count of elements : 778
Stream size : 68.9 KiB (0%)
Title : हिन्दी
Language : Hindi
Default : No
Forced : No

Text #14
ID : 16
Format : UTF-8
Codec ID : S_TEXT/UTF8
Codec ID/Info : UTF-8 Plain Text
Duration : 47 min 47 s
Bit rate : 79 b/s
Count of elements : 775
Stream size : 27.8 KiB (0%)
Title : Magyar
Language : Hungarian
Default : No
Forced : No

Text #15
ID : 17
Format : UTF-8
Codec ID : S_TEXT/UTF8
Codec ID/Info : UTF-8 Plain Text
Duration : 47 min 47 s
Bit rate : 73 b/s
Count of elements : 778
Stream size : 25.8 KiB (0%)
Title : Indonesia
Language : Indonesian
Default : No
Forced : No

Text #16
ID : 18
Format : UTF-8
Codec ID : S_TEXT/UTF8
Codec ID/Info : UTF-8 Plain Text
Duration : 47 min 47 s
Bit rate : 79 b/s
Count of elements : 777
Stream size : 27.8 KiB (0%)
Title : Italiano
Language : Italian
Default : No
Forced : No

Text #17
ID : 19
Format : UTF-8
Codec ID : S_TEXT/UTF8
Codec ID/Info : UTF-8 Plain Text
Duration : 47 min 47 s
Bit rate : 71 b/s
Count of elements : 716
Stream size : 24.9 KiB (0%)
Title : 日本語
Language : Japanese
Default : No
Forced : No

Text #18
ID : 20
Format : UTF-8
Codec ID : S_TEXT/UTF8
Codec ID/Info : UTF-8 Plain Text
Duration : 47 min 47 s
Bit rate : 94 b/s
Count of elements : 778
Stream size : 33.1 KiB (0%)
Title : 한국어
Language : Korean
Default : No
Forced : No

Text #19
ID : 21
Format : UTF-8
Codec ID : S_TEXT/UTF8
Codec ID/Info : UTF-8 Plain Text
Duration : 47 min 47 s
Bit rate : 79 b/s
Count of elements : 778
Stream size : 28.0 KiB (0%)
Title : Bahasa Melayu
Language : Malay
Default : No
Forced : No

Text #20
ID : 22
Format : UTF-8
Codec ID : S_TEXT/UTF8
Codec ID/Info : UTF-8 Plain Text
Duration : 47 min 42 s
Bit rate : 77 b/s
Count of elements : 777
Stream size : 27.0 KiB (0%)
Title : Norsk Bokmål
Language : Norwegian Bokmal
Default : No
Forced : No

Text #21
ID : 23
Format : UTF-8
Codec ID : S_TEXT/UTF8
Codec ID/Info : UTF-8 Plain Text
Duration : 47 min 42 s
Bit rate : 76 b/s
Count of elements : 776
Stream size : 26.8 KiB (0%)
Title : Nederlands
Language : Dutch
Default : No
Forced : No

Text #22
ID : 24
Format : UTF-8
Codec ID : S_TEXT/UTF8
Codec ID/Info : UTF-8 Plain Text
Duration : 47 min 47 s
Bit rate : 77 b/s
Count of elements : 777
Stream size : 27.1 KiB (0%)
Title : Polski
Language : Polish
Default : No
Forced : No

Text #23
ID : 25
Format : UTF-8
Codec ID : S_TEXT/UTF8
Codec ID/Info : UTF-8 Plain Text
Duration : 47 min 47 s
Bit rate : 79 b/s
Count of elements : 778
Stream size : 27.7 KiB (0%)
Title : Português (Brasil)
Language : Portuguese
Default : No
Forced : No

Text #24
ID : 26
Format : UTF-8
Codec ID : S_TEXT/UTF8
Codec ID/Info : UTF-8 Plain Text
Duration : 47 min 47 s
Bit rate : 80 b/s
Count of elements : 778
Stream size : 28.1 KiB (0%)
Title : Português (Portugal)
Language : Portuguese
Default : No
Forced : No

Text #25
ID : 27
Format : UTF-8
Codec ID : S_TEXT/UTF8
Codec ID/Info : UTF-8 Plain Text
Duration : 47 min 47 s
Bit rate : 80 b/s
Count of elements : 778
Stream size : 28.1 KiB (0%)
Title : Română
Language : Romanian
Default : No
Forced : No

Text #26
ID : 28
Format : UTF-8
Codec ID : S_TEXT/UTF8
Codec ID/Info : UTF-8 Plain Text
Duration : 47 min 47 s
Bit rate : 136 b/s
Count of elements : 778
Stream size : 47.6 KiB (0%)
Title : Русский
Language : Russian
Default : No
Forced : No

Text #27
ID : 29
Format : UTF-8
Codec ID : S_TEXT/UTF8
Codec ID/Info : UTF-8 Plain Text
Duration : 47 min 47 s
Bit rate : 77 b/s
Count of elements : 778
Stream size : 27.2 KiB (0%)
Title : Svenska
Language : Swedish
Default : No
Forced : No

Text #28
ID : 30
Format : UTF-8
Codec ID : S_TEXT/UTF8
Codec ID/Info : UTF-8 Plain Text
Duration : 47 min 47 s
Bit rate : 210 b/s
Count of elements : 778
Stream size : 73.7 KiB (0%)
Title : தமிழ்
Language : Tamil
Default : No
Forced : No

Text #29
ID : 31
Format : UTF-8
Codec ID : S_TEXT/UTF8
Codec ID/Info : UTF-8 Plain Text
Duration : 47 min 47 s
Bit rate : 206 b/s
Count of elements : 778
Stream size : 72.2 KiB (0%)
Title : తెలుగు
Language : Telugu
Default : No
Forced : No

Text #30
ID : 32
Format : UTF-8
Codec ID : S_TEXT/UTF8
Codec ID/Info : UTF-8 Plain Text
Duration : 47 min 47 s
Bit rate : 190 b/s
Count of elements : 778
Stream size : 66.6 KiB (0%)
Title : ไทย
Language : Thai
Default : No
Forced : No

Text #31
ID : 33
Format : UTF-8
Codec ID : S_TEXT/UTF8
Codec ID/Info : UTF-8 Plain Text
Duration : 47 min 47 s
Bit rate : 77 b/s
Count of elements : 778
Stream size : 27.0 KiB (0%)
Title : Türkçe
Language : Turkish
Default : No
Forced : No

Text #32
ID : 34
Format : UTF-8
Codec ID : S_TEXT/UTF8
Codec ID/Info : UTF-8 Plain Text
Duration : 47 min 47 s
Bit rate : 69 b/s
Count of elements : 778
Stream size : 24.3 KiB (0%)
Title : 中文(简体)
Language : Chinese
Default : No
Forced : No

Text #33
ID : 35
Format : UTF-8
Codec ID : S_TEXT/UTF8
Codec ID/Info : UTF-8 Plain Text
Duration : 47 min 47 s
Bit rate : 72 b/s
Count of elements : 778
Stream size : 25.2 KiB (0%)
Title : 中文(繁體)
Language : Chinese
Default : No
Forced : No

Download

Direct download files get automatically deleted after a month or so. Posted on : 06/11/2021

[collapse]
Media Info and Download Links | S01E03

General
Format : Matroska
Format version : Version 4
File size : 305 MiB
Duration : 51 min 32 s
Overall bit rate : 826 kb/s
Movie name : Clarksons.Farm.S01E03.Shopping.720p.WEBRip.2CH.x265.HEVC

Video
ID : 1
Format : HEVC
Format/Info : High Efficiency Video Coding
Format profile : [email protected]@Main
Codec ID : V_MPEGH/ISO/HEVC
Duration : 51 min 32 s
Bit rate : 754 kb/s
Width : 1 280 pixels
Height : 576 pixels
Display aspect ratio : 2.222
Frame rate mode : Constant
Frame rate : 25.000 FPS
Color space : YUV
Chroma subsampling : 4:2:0
Bit depth : 8 bits
Bits/(Pixel*Frame) : 0.041
Stream size : 278 MiB (91%)
Default : Yes
Forced : No
Color range : Limited
Color primaries : BT.709
Transfer characteristics : BT.709
Matrix coefficients : BT.709

Audio
ID : 2
Format : AAC LC SBR
Commercial name : HE-AAC
Format settings : Explicit
Codec ID : A_AAC-2
Duration : 51 min 32 s
Bit rate : 64.6 kb/s
Channel(s) : 2 channels
Channel layout : L R
Sampling rate : 48.0 kHz
Frame rate : 23.438 FPS (2048 SPF)
Compression mode : Lossy
Delay relative to video : 23 ms
Stream size : 23.8 MiB (8%)
Language : English
Default : Yes
Forced : No

Text #1
ID : 3
Format : UTF-8
Codec ID : S_TEXT/UTF8
Codec ID/Info : UTF-8 Plain Text
Duration : 50 min 48 s
Bit rate : 91 b/s
Count of elements : 836
Stream size : 33.9 KiB (0%)
Title : English (SDH)
Language : English
Default : Yes
Forced : No

Text #2
ID : 4
Format : UTF-8
Codec ID : S_TEXT/UTF8
Codec ID/Info : UTF-8 Plain Text
Duration : 1 s 721 ms
Bit rate : 111 b/s
Count of elements : 1
Stream size : 24.0 Bytes (0%)
Title : English (forced)
Language : English
Default : No
Forced : Yes

Text #3
ID : 5
Format : UTF-8
Codec ID : S_TEXT/UTF8
Codec ID/Info : UTF-8 Plain Text
Duration : 51 min 18 s
Bit rate : 126 b/s
Count of elements : 817
Stream size : 47.6 KiB (0%)
Title : العربية
Language : Arabic
Default : No
Forced : No

Text #4
ID : 6
Format : UTF-8
Codec ID : S_TEXT/UTF8
Codec ID/Info : UTF-8 Plain Text
Duration : 51 min 18 s
Bit rate : 78 b/s
Count of elements : 816
Stream size : 29.7 KiB (0%)
Title : Čeština
Language : Czech
Default : No
Forced : No

Text #5
ID : 7
Format : UTF-8
Codec ID : S_TEXT/UTF8
Codec ID/Info : UTF-8 Plain Text
Duration : 51 min 15 s
Bit rate : 73 b/s
Count of elements : 814
Stream size : 27.7 KiB (0%)
Title : Dansk
Language : Danish
Default : No
Forced : No

Text #6
ID : 8
Format : UTF-8
Codec ID : S_TEXT/UTF8
Codec ID/Info : UTF-8 Plain Text
Duration : 51 min 14 s
Bit rate : 73 b/s
Count of elements : 713
Stream size : 27.6 KiB (0%)
Title : Deutsch
Language : German
Default : No
Forced : No

Text #7
ID : 9
Format : UTF-8
Codec ID : S_TEXT/UTF8
Codec ID/Info : UTF-8 Plain Text
Duration : 51 min 18 s
Bit rate : 146 b/s
Count of elements : 817
Stream size : 54.9 KiB (0%)
Title : Ελληνικά
Language : Greek
Default : No
Forced : No

Text #8
ID : 10
Format : UTF-8
Codec ID : S_TEXT/UTF8
Codec ID/Info : UTF-8 Plain Text
Duration : 51 min 18 s
Bit rate : 78 b/s
Count of elements : 815
Stream size : 29.3 KiB (0%)
Title : Español (Latinoamérica)
Language : Spanish
Default : No
Forced : No

Text #9
ID : 11
Format : UTF-8
Codec ID : S_TEXT/UTF8
Codec ID/Info : UTF-8 Plain Text
Duration : 51 min 18 s
Bit rate : 75 b/s
Count of elements : 816
Stream size : 28.5 KiB (0%)
Title : Español (España)
Language : Spanish
Default : No
Forced : No

Text #10
ID : 12
Format : UTF-8
Codec ID : S_TEXT/UTF8
Codec ID/Info : UTF-8 Plain Text
Duration : 51 min 18 s
Bit rate : 72 b/s
Count of elements : 811
Stream size : 27.4 KiB (0%)
Title : Suomi
Language : Finnish
Default : No
Forced : No

Text #11
ID : 13
Format : UTF-8
Codec ID : S_TEXT/UTF8
Codec ID/Info : UTF-8 Plain Text
Duration : 51 min 15 s
Bit rate : 72 b/s
Count of elements : 811
Stream size : 27.1 KiB (0%)
Title : Filipino
Language : fil
Default : No
Forced : No

Text #12
ID : 14
Format : UTF-8
Codec ID : S_TEXT/UTF8
Codec ID/Info : UTF-8 Plain Text
Duration : 51 min 18 s
Bit rate : 76 b/s
Count of elements : 813
Stream size : 28.9 KiB (0%)
Title : Français
Language : French
Default : No
Forced : No

Text #13
ID : 15
Format : UTF-8
Codec ID : S_TEXT/UTF8
Codec ID/Info : UTF-8 Plain Text
Duration : 51 min 18 s
Bit rate : 124 b/s
Count of elements : 817
Stream size : 46.6 KiB (0%)
Title : עברית
Language : Hebrew
Default : No
Forced : No

Text #14
ID : 16
Format : UTF-8
Codec ID : S_TEXT/UTF8
Codec ID/Info : UTF-8 Plain Text
Duration : 51 min 18 s
Bit rate : 190 b/s
Count of elements : 817
Stream size : 71.8 KiB (0%)
Title : हिन्दी
Language : Hindi
Default : No
Forced : No

Text #15
ID : 17
Format : UTF-8
Codec ID : S_TEXT/UTF8
Codec ID/Info : UTF-8 Plain Text
Duration : 51 min 18 s
Bit rate : 76 b/s
Count of elements : 814
Stream size : 28.6 KiB (0%)
Title : Magyar
Language : Hungarian
Default : No
Forced : No

Text #16
ID : 18
Format : UTF-8
Codec ID : S_TEXT/UTF8
Codec ID/Info : UTF-8 Plain Text
Duration : 51 min 18 s
Bit rate : 69 b/s
Count of elements : 816
Stream size : 26.1 KiB (0%)
Title : Indonesia
Language : Indonesian
Default : No
Forced : No

Text #17
ID : 19
Format : UTF-8
Codec ID : S_TEXT/UTF8
Codec ID/Info : UTF-8 Plain Text
Duration : 51 min 18 s
Bit rate : 77 b/s
Count of elements : 815
Stream size : 29.2 KiB (0%)
Title : Italiano
Language : Italian
Default : No
Forced : No

Text #18
ID : 20
Format : UTF-8
Codec ID : S_TEXT/UTF8
Codec ID/Info : UTF-8 Plain Text
Duration : 51 min 18 s
Bit rate : 70 b/s
Count of elements : 824
Stream size : 26.6 KiB (0%)
Title : 日本語
Language : Japanese
Default : No
Forced : No

Text #19
ID : 21
Format : UTF-8
Codec ID : S_TEXT/UTF8
Codec ID/Info : UTF-8 Plain Text
Duration : 51 min 18 s
Bit rate : 90 b/s
Count of elements : 817
Stream size : 34.0 KiB (0%)
Title : 한국어
Language : Korean
Default : No
Forced : No

Text #20
ID : 22
Format : UTF-8
Codec ID : S_TEXT/UTF8
Codec ID/Info : UTF-8 Plain Text
Duration : 51 min 18 s
Bit rate : 74 b/s
Count of elements : 814
Stream size : 28.1 KiB (0%)
Title : Bahasa Melayu
Language : Malay
Default : No
Forced : No

Text #21
ID : 23
Format : UTF-8
Codec ID : S_TEXT/UTF8
Codec ID/Info : UTF-8 Plain Text
Duration : 51 min 15 s
Bit rate : 75 b/s
Count of elements : 815
Stream size : 28.4 KiB (0%)
Title : Norsk Bokmål
Language : Norwegian Bokmal
Default : No
Forced : No

Text #22
ID : 24
Format : UTF-8
Codec ID : S_TEXT/UTF8
Codec ID/Info : UTF-8 Plain Text
Duration : 51 min 15 s
Bit rate : 75 b/s
Count of elements : 814
Stream size : 28.4 KiB (0%)
Title : Nederlands
Language : Dutch
Default : No
Forced : No

Text #23
ID : 25
Format : UTF-8
Codec ID : S_TEXT/UTF8
Codec ID/Info : UTF-8 Plain Text
Duration : 51 min 18 s
Bit rate : 76 b/s
Count of elements : 816
Stream size : 28.6 KiB (0%)
Title : Polski
Language : Polish
Default : No
Forced : No

Text #24
ID : 26
Format : UTF-8
Codec ID : S_TEXT/UTF8
Codec ID/Info : UTF-8 Plain Text
Duration : 51 min 18 s
Bit rate : 76 b/s
Count of elements : 816
Stream size : 28.9 KiB (0%)
Title : Português (Brasil)
Language : Portuguese
Default : No
Forced : No

Text #25
ID : 27
Format : UTF-8
Codec ID : S_TEXT/UTF8
Codec ID/Info : UTF-8 Plain Text
Duration : 51 min 18 s
Bit rate : 79 b/s
Count of elements : 816
Stream size : 29.7 KiB (0%)
Title : Português (Portugal)
Language : Portuguese
Default : No
Forced : No

Text #26
ID : 28
Format : UTF-8
Codec ID : S_TEXT/UTF8
Codec ID/Info : UTF-8 Plain Text
Duration : 51 min 18 s
Bit rate : 79 b/s
Count of elements : 816
Stream size : 30.0 KiB (0%)
Title : Română
Language : Romanian
Default : No
Forced : No

Text #27
ID : 29
Format : UTF-8
Codec ID : S_TEXT/UTF8
Codec ID/Info : UTF-8 Plain Text
Duration : 51 min 18 s
Bit rate : 132 b/s
Count of elements : 817
Stream size : 49.9 KiB (0%)
Title : Русский
Language : Russian
Default : No
Forced : No

Text #28
ID : 30
Format : UTF-8
Codec ID : S_TEXT/UTF8
Codec ID/Info : UTF-8 Plain Text
Duration : 51 min 18 s
Bit rate : 75 b/s
Count of elements : 816
Stream size : 28.2 KiB (0%)
Title : Svenska
Language : Swedish
Default : No
Forced : No

Text #29
ID : 31
Format : UTF-8
Codec ID : S_TEXT/UTF8
Codec ID/Info : UTF-8 Plain Text
Duration : 51 min 18 s
Bit rate : 206 b/s
Count of elements : 817
Stream size : 77.5 KiB (0%)
Title : தமிழ்
Language : Tamil
Default : No
Forced : No

Text #30
ID : 32
Format : UTF-8
Codec ID : S_TEXT/UTF8
Codec ID/Info : UTF-8 Plain Text
Duration : 51 min 18 s
Bit rate : 203 b/s
Count of elements : 817
Stream size : 76.5 KiB (0%)
Title : తెలుగు
Language : Telugu
Default : No
Forced : No

Text #31
ID : 33
Format : UTF-8
Codec ID : S_TEXT/UTF8
Codec ID/Info : UTF-8 Plain Text
Duration : 51 min 18 s
Bit rate : 185 b/s
Count of elements : 817
Stream size : 69.6 KiB (0%)
Title : ไทย
Language : Thai
Default : No
Forced : No

Text #32
ID : 34
Format : UTF-8
Codec ID : S_TEXT/UTF8
Codec ID/Info : UTF-8 Plain Text
Duration : 51 min 18 s
Bit rate : 75 b/s
Count of elements : 816
Stream size : 28.3 KiB (0%)
Title : Türkçe
Language : Turkish
Default : No
Forced : No

Text #33
ID : 35
Format : UTF-8
Codec ID : S_TEXT/UTF8
Codec ID/Info : UTF-8 Plain Text
Duration : 51 min 18 s
Bit rate : 66 b/s
Count of elements : 817
Stream size : 25.1 KiB (0%)
Title : 中文(简体)
Language : Chinese
Default : No
Forced : No

Text #34
ID : 36
Format : UTF-8
Codec ID : S_TEXT/UTF8
Codec ID/Info : UTF-8 Plain Text
Duration : 51 min 18 s
Bit rate : 71 b/s
Count of elements : 817
Stream size : 26.9 KiB (0%)
Title : 中文(繁體)
Language : Chinese
Default : No
Forced : No

Download

Direct download files get automatically deleted after a month or so. Posted on : 06/11/2021

[collapse]
Media Info and Download Links | S01E02

General
Format : Matroska
Format version : Version 4
File size : 319 MiB
Duration : 49 min 50 s
Overall bit rate : 894 kb/s
Movie name : Clarkson’s.Farm.S01E02.Sheeping.720p.WEBRip.2CH.x265.HEVC

Video
ID : 1
Format : HEVC
Format/Info : High Efficiency Video Coding
Format profile : [email protected]@Main
Codec ID : V_MPEGH/ISO/HEVC
Duration : 49 min 50 s
Bit rate : 820 kb/s
Width : 1 280 pixels
Height : 576 pixels
Display aspect ratio : 2.222
Frame rate mode : Constant
Frame rate : 25.000 FPS
Color space : YUV
Chroma subsampling : 4:2:0
Bit depth : 8 bits
Bits/(Pixel*Frame) : 0.044
Stream size : 292 MiB (92%)
Default : Yes
Forced : No
Color range : Limited
Color primaries : BT.709
Transfer characteristics : BT.709
Matrix coefficients : BT.709

Audio
ID : 2
Format : AAC LC SBR
Commercial name : HE-AAC
Format settings : Explicit
Codec ID : A_AAC-2
Duration : 49 min 50 s
Bit rate : 66.2 kb/s
Channel(s) : 2 channels
Channel layout : L R
Sampling rate : 48.0 kHz
Frame rate : 23.438 FPS (2048 SPF)
Compression mode : Lossy
Delay relative to video : 23 ms
Stream size : 23.7 MiB (7%)
Language : English
Default : Yes
Forced : No

Text #1
ID : 3
Format : UTF-8
Codec ID : S_TEXT/UTF8
Codec ID/Info : UTF-8 Plain Text
Duration : 49 min 8 s
Bit rate : 94 b/s
Count of elements : 935
Stream size : 34.1 KiB (0%)
Title : English (SDH)
Language : English
Default : Yes
Forced : No

Text #2
ID : 4
Format : UTF-8
Codec ID : S_TEXT/UTF8
Codec ID/Info : UTF-8 Plain Text
Duration : 49 min 35 s
Bit rate : 123 b/s
Count of elements : 836
Stream size : 44.8 KiB (0%)
Title : العربية
Language : Arabic
Default : No
Forced : No

Text #3
ID : 5
Format : UTF-8
Codec ID : S_TEXT/UTF8
Codec ID/Info : UTF-8 Plain Text
Duration : 49 min 35 s
Bit rate : 74 b/s
Count of elements : 836
Stream size : 27.2 KiB (0%)
Title : Čeština
Language : Czech
Default : No
Forced : No

Text #4
ID : 6
Format : UTF-8
Codec ID : S_TEXT/UTF8
Codec ID/Info : UTF-8 Plain Text
Duration : 49 min 32 s
Bit rate : 68 b/s
Count of elements : 835
Stream size : 25.0 KiB (0%)
Title : Dansk
Language : Danish
Default : No
Forced : No

Text #5
ID : 7
Format : UTF-8
Codec ID : S_TEXT/UTF8
Codec ID/Info : UTF-8 Plain Text
Duration : 49 min 32 s
Bit rate : 72 b/s
Count of elements : 699
Stream size : 26.3 KiB (0%)
Title : Deutsch
Language : German
Default : No
Forced : No

Text #6
ID : 8
Format : UTF-8
Codec ID : S_TEXT/UTF8
Codec ID/Info : UTF-8 Plain Text
Duration : 49 min 35 s
Bit rate : 139 b/s
Count of elements : 834
Stream size : 50.7 KiB (0%)
Title : Ελληνικά
Language : Greek
Default : No
Forced : No

Text #7
ID : 9
Format : UTF-8
Codec ID : S_TEXT/UTF8
Codec ID/Info : UTF-8 Plain Text
Duration : 49 min 35 s
Bit rate : 73 b/s
Count of elements : 836
Stream size : 26.7 KiB (0%)
Title : Español (España)
Language : Spanish
Default : No
Forced : No

Text #8
ID : 10
Format : UTF-8
Codec ID : S_TEXT/UTF8
Codec ID/Info : UTF-8 Plain Text
Duration : 49 min 35 s
Bit rate : 75 b/s
Count of elements : 836
Stream size : 27.4 KiB (0%)
Title : Español (Latinoamérica)
Language : Spanish
Default : No
Forced : No

Text #9
ID : 11
Format : UTF-8
Codec ID : S_TEXT/UTF8
Codec ID/Info : UTF-8 Plain Text
Duration : 49 min 35 s
Bit rate : 71 b/s
Count of elements : 826
Stream size : 25.9 KiB (0%)
Title : Suomi
Language : Finnish
Default : No
Forced : No

Text #10
ID : 12
Format : UTF-8
Codec ID : S_TEXT/UTF8
Codec ID/Info : UTF-8 Plain Text
Duration : 49 min 32 s
Bit rate : 78 b/s
Count of elements : 835
Stream size : 28.3 KiB (0%)
Title : Filipino
Language : fil
Default : No
Forced : No

Text #11
ID : 13
Format : UTF-8
Codec ID : S_TEXT/UTF8
Codec ID/Info : UTF-8 Plain Text
Duration : 49 min 32 s
Bit rate : 76 b/s
Count of elements : 835
Stream size : 27.6 KiB (0%)
Title : Français
Language : French
Default : No
Forced : No

Text #12
ID : 14
Format : UTF-8
Codec ID : S_TEXT/UTF8
Codec ID/Info : UTF-8 Plain Text
Duration : 49 min 35 s
Bit rate : 120 b/s
Count of elements : 836
Stream size : 43.9 KiB (0%)
Title : עברית
Language : Hebrew
Default : No
Forced : No

Text #13
ID : 15
Format : UTF-8
Codec ID : S_TEXT/UTF8
Codec ID/Info : UTF-8 Plain Text
Duration : 49 min 35 s
Bit rate : 187 b/s
Count of elements : 836
Stream size : 68.2 KiB (0%)
Title : हिन्दी
Language : Hindi
Default : No
Forced : No

Text #14
ID : 16
Format : UTF-8
Codec ID : S_TEXT/UTF8
Codec ID/Info : UTF-8 Plain Text
Duration : 49 min 35 s
Bit rate : 75 b/s
Count of elements : 835
Stream size : 27.4 KiB (0%)
Title : Magyar
Language : Hungarian
Default : No
Forced : No

Text #15
ID : 17
Format : UTF-8
Codec ID : S_TEXT/UTF8
Codec ID/Info : UTF-8 Plain Text
Duration : 49 min 35 s
Bit rate : 67 b/s
Count of elements : 836
Stream size : 24.4 KiB (0%)
Title : Indonesia
Language : Indonesian
Default : No
Forced : No

Text #16
ID : 18
Format : UTF-8
Codec ID : S_TEXT/UTF8
Codec ID/Info : UTF-8 Plain Text
Duration : 49 min 35 s
Bit rate : 73 b/s
Count of elements : 836
Stream size : 26.8 KiB (0%)
Title : Italiano
Language : Italian
Default : No
Forced : No

Text #17
ID : 19
Format : UTF-8
Codec ID : S_TEXT/UTF8
Codec ID/Info : UTF-8 Plain Text
Duration : 49 min 35 s
Bit rate : 66 b/s
Count of elements : 775
Stream size : 24.1 KiB (0%)
Title : 日本語
Language : Japanese
Default : No
Forced : No

Text #18
ID : 20
Format : UTF-8
Codec ID : S_TEXT/UTF8
Codec ID/Info : UTF-8 Plain Text
Duration : 49 min 35 s
Bit rate : 86 b/s
Count of elements : 836
Stream size : 31.4 KiB (0%)
Title : 한국어
Language : Korean
Default : No
Forced : No

Text #19
ID : 21
Format : UTF-8
Codec ID : S_TEXT/UTF8
Codec ID/Info : UTF-8 Plain Text
Duration : 49 min 35 s
Bit rate : 73 b/s
Count of elements : 836
Stream size : 26.7 KiB (0%)
Title : Bahasa Melayu
Language : Malay
Default : No
Forced : No

Text #20
ID : 22
Format : UTF-8
Codec ID : S_TEXT/UTF8
Codec ID/Info : UTF-8 Plain Text
Duration : 49 min 32 s
Bit rate : 72 b/s
Count of elements : 834
Stream size : 26.1 KiB (0%)
Title : Norsk Bokmål
Language : Norwegian Bokmal
Default : No
Forced : No

Text #21
ID : 23
Format : UTF-8
Codec ID : S_TEXT/UTF8
Codec ID/Info : UTF-8 Plain Text
Duration : 49 min 32 s
Bit rate : 72 b/s
Count of elements : 835
Stream size : 26.4 KiB (0%)
Title : Nederlands
Language : Dutch
Default : No
Forced : No

Text #22
ID : 24
Format : UTF-8
Codec ID : S_TEXT/UTF8
Codec ID/Info : UTF-8 Plain Text
Duration : 49 min 35 s
Bit rate : 73 b/s
Count of elements : 835
Stream size : 26.7 KiB (0%)
Title : Polski
Language : Polish
Default : No
Forced : No

Text #23
ID : 25
Format : UTF-8
Codec ID : S_TEXT/UTF8
Codec ID/Info : UTF-8 Plain Text
Duration : 49 min 35 s
Bit rate : 74 b/s
Count of elements : 836
Stream size : 27.2 KiB (0%)
Title : Português (Brasil)
Language : Portuguese
Default : No
Forced : No

Text #24
ID : 26
Format : UTF-8
Codec ID : S_TEXT/UTF8
Codec ID/Info : UTF-8 Plain Text
Duration : 49 min 35 s
Bit rate : 76 b/s
Count of elements : 834
Stream size : 27.9 KiB (0%)
Title : Português (Portugal)
Language : Portuguese
Default : No
Forced : No

Text #25
ID : 27
Format : UTF-8
Codec ID : S_TEXT/UTF8
Codec ID/Info : UTF-8 Plain Text
Duration : 49 min 35 s
Bit rate : 75 b/s
Count of elements : 836
Stream size : 27.3 KiB (0%)
Title : Română
Language : Romanian
Default : No
Forced : No

Text #26
ID : 28
Format : UTF-8
Codec ID : S_TEXT/UTF8
Codec ID/Info : UTF-8 Plain Text
Duration : 49 min 35 s
Bit rate : 127 b/s
Count of elements : 836
Stream size : 46.4 KiB (0%)
Title : Русский
Language : Russian
Default : No
Forced : No

Text #27
ID : 29
Format : UTF-8
Codec ID : S_TEXT/UTF8
Codec ID/Info : UTF-8 Plain Text
Duration : 49 min 35 s
Bit rate : 71 b/s
Count of elements : 836
Stream size : 25.8 KiB (0%)
Title : Svenska
Language : Swedish
Default : No
Forced : No

Text #28
ID : 30
Format : UTF-8
Codec ID : S_TEXT/UTF8
Codec ID/Info : UTF-8 Plain Text
Duration : 49 min 35 s
Bit rate : 204 b/s
Count of elements : 836
Stream size : 74.2 KiB (0%)
Title : தமிழ்
Language : Tamil
Default : No
Forced : No

Text #29
ID : 31
Format : UTF-8
Codec ID : S_TEXT/UTF8
Codec ID/Info : UTF-8 Plain Text
Duration : 49 min 35 s
Bit rate : 196 b/s
Count of elements : 836
Stream size : 71.4 KiB (0%)
Title : తెలుగు
Language : Telugu
Default : No
Forced : No

Text #30
ID : 32
Format : UTF-8
Codec ID : S_TEXT/UTF8
Codec ID/Info : UTF-8 Plain Text
Duration : 49 min 35 s
Bit rate : 179 b/s
Count of elements : 836
Stream size : 65.1 KiB (0%)
Title : ไทย
Language : Thai
Default : No
Forced : No

Text #31
ID : 33
Format : UTF-8
Codec ID : S_TEXT/UTF8
Codec ID/Info : UTF-8 Plain Text
Duration : 49 min 35 s
Bit rate : 73 b/s
Count of elements : 836
Stream size : 26.8 KiB (0%)
Title : Türkçe
Language : Turkish
Default : No
Forced : No

Text #32
ID : 34
Format : UTF-8
Codec ID : S_TEXT/UTF8
Codec ID/Info : UTF-8 Plain Text
Duration : 49 min 35 s
Bit rate : 65 b/s
Count of elements : 836
Stream size : 23.8 KiB (0%)
Title : 中文(简体)
Language : Chinese
Default : No
Forced : No

Text #33
ID : 35
Format : UTF-8
Codec ID : S_TEXT/UTF8
Codec ID/Info : UTF-8 Plain Text
Duration : 49 min 35 s
Bit rate : 71 b/s
Count of elements : 836
Stream size : 25.8 KiB (0%)
Title : 中文(繁體)
Language : Chinese
Default : No
Forced : No

Download

Direct download files get automatically deleted after a month or so. Posted on : 06/11/2021

[collapse]
Media Info and Download Links | S01E01

General
Format : Matroska
Format version : Version 4
File size : 338 MiB
Duration : 53 min 30 s
Overall bit rate : 883 kb/s
Movie name : Clarkson’s.Farm.S01E01.Tractoring.720p.WEBRip.2CH.x265.HEVC

Video
ID : 1
Format : HEVC
Format/Info : High Efficiency Video Coding
Format profile : [email protected]@Main
Codec ID : V_MPEGH/ISO/HEVC
Duration : 53 min 30 s
Bit rate : 810 kb/s
Width : 1 280 pixels
Height : 576 pixels
Display aspect ratio : 2.222
Frame rate mode : Constant
Frame rate : 25.000 FPS
Color space : YUV
Chroma subsampling : 4:2:0
Bit depth : 8 bits
Bits/(Pixel*Frame) : 0.044
Stream size : 310 MiB (92%)
Default : Yes
Forced : No
Color range : Limited
Color primaries : BT.709
Transfer characteristics : BT.709
Matrix coefficients : BT.709

Audio
ID : 2
Format : AAC LC SBR
Commercial name : HE-AAC
Format settings : Explicit
Codec ID : A_AAC-2
Duration : 53 min 30 s
Bit rate : 66.2 kb/s
Channel(s) : 2 channels
Channel layout : L R
Sampling rate : 48.0 kHz
Frame rate : 23.438 FPS (2048 SPF)
Compression mode : Lossy
Delay relative to video : 23 ms
Stream size : 25.0 MiB (7%)
Language : English
Default : Yes
Forced : No

Text #1
ID : 3
Format : UTF-8
Codec ID : S_TEXT/UTF8
Codec ID/Info : UTF-8 Plain Text
Duration : 52 min 45 s
Bit rate : 92 b/s
Count of elements : 1001
Stream size : 35.7 KiB (0%)
Title : English (SDH)
Language : English
Default : Yes
Forced : No

Text #2
ID : 4
Format : UTF-8
Codec ID : S_TEXT/UTF8
Codec ID/Info : UTF-8 Plain Text
Duration : 9 s 81 ms
Bit rate : 96 b/s
Count of elements : 2
Stream size : 110 Bytes (0%)
Title : English (forced)
Language : English
Default : No
Forced : Yes

Text #3
ID : 5
Format : UTF-8
Codec ID : S_TEXT/UTF8
Codec ID/Info : UTF-8 Plain Text
Duration : 53 min 15 s
Bit rate : 128 b/s
Count of elements : 938
Stream size : 50.1 KiB (0%)
Title : العربية
Language : Arabic
Default : No
Forced : No

Text #4
ID : 6
Format : UTF-8
Codec ID : S_TEXT/UTF8
Codec ID/Info : UTF-8 Plain Text
Duration : 53 min 15 s
Bit rate : 76 b/s
Count of elements : 934
Stream size : 29.9 KiB (0%)
Title : Čeština
Language : Czech
Default : No
Forced : No

Text #5
ID : 7
Format : UTF-8
Codec ID : S_TEXT/UTF8
Codec ID/Info : UTF-8 Plain Text
Duration : 53 min 15 s
Bit rate : 72 b/s
Count of elements : 924
Stream size : 28.2 KiB (0%)
Title : Dansk
Language : Danish
Default : No
Forced : No

Text #6
ID : 8
Format : UTF-8
Codec ID : S_TEXT/UTF8
Codec ID/Info : UTF-8 Plain Text
Duration : 53 min 15 s
Bit rate : 74 b/s
Count of elements : 766
Stream size : 29.0 KiB (0%)
Title : Deutsch
Language : German
Default : No
Forced : No

Text #7
ID : 9
Format : UTF-8
Codec ID : S_TEXT/UTF8
Codec ID/Info : UTF-8 Plain Text
Duration : 53 min 15 s
Bit rate : 142 b/s
Count of elements : 927
Stream size : 55.6 KiB (0%)
Title : Ελληνικά
Language : Greek
Default : No
Forced : No

Text #8
ID : 10
Format : UTF-8
Codec ID : S_TEXT/UTF8
Codec ID/Info : UTF-8 Plain Text
Duration : 53 min 15 s
Bit rate : 73 b/s
Count of elements : 923
Stream size : 28.6 KiB (0%)
Title : Español (España)
Language : Spanish
Default : No
Forced : No

Text #9
ID : 11
Format : UTF-8
Codec ID : S_TEXT/UTF8
Codec ID/Info : UTF-8 Plain Text
Duration : 53 min 15 s
Bit rate : 76 b/s
Count of elements : 926
Stream size : 30.0 KiB (0%)
Title : Español (Latinoamérica)
Language : Spanish
Default : No
Forced : No

Text #10
ID : 12
Format : UTF-8
Codec ID : S_TEXT/UTF8
Codec ID/Info : UTF-8 Plain Text
Duration : 53 min 15 s
Bit rate : 73 b/s
Count of elements : 918
Stream size : 28.5 KiB (0%)
Title : Suomi
Language : Finnish
Default : No
Forced : No

Text #11
ID : 13
Format : UTF-8
Codec ID : S_TEXT/UTF8
Codec ID/Info : UTF-8 Plain Text
Duration : 53 min 15 s
Bit rate : 75 b/s
Count of elements : 931
Stream size : 29.3 KiB (0%)
Title : Filipino
Language : fil
Default : No
Forced : No

Text #12
ID : 14
Format : UTF-8
Codec ID : S_TEXT/UTF8
Codec ID/Info : UTF-8 Plain Text
Duration : 53 min 13 s
Bit rate : 77 b/s
Count of elements : 930
Stream size : 30.1 KiB (0%)
Title : Français
Language : French
Default : No
Forced : No

Text #13
ID : 15
Format : UTF-8
Codec ID : S_TEXT/UTF8
Codec ID/Info : UTF-8 Plain Text
Duration : 53 min 15 s
Bit rate : 122 b/s
Count of elements : 938
Stream size : 47.8 KiB (0%)
Title : עברית
Language : Hebrew
Default : No
Forced : No

Text #14
ID : 16
Format : UTF-8
Codec ID : S_TEXT/UTF8
Codec ID/Info : UTF-8 Plain Text
Duration : 53 min 15 s
Bit rate : 187 b/s
Count of elements : 938
Stream size : 73.1 KiB (0%)
Title : हिन्दी
Language : Hindi
Default : No
Forced : No

Text #15
ID : 17
Format : UTF-8
Codec ID : S_TEXT/UTF8
Codec ID/Info : UTF-8 Plain Text
Duration : 53 min 15 s
Bit rate : 77 b/s
Count of elements : 935
Stream size : 30.3 KiB (0%)
Title : Magyar
Language : Hungarian
Default : No
Forced : No

Text #16
ID : 18
Format : UTF-8
Codec ID : S_TEXT/UTF8
Codec ID/Info : UTF-8 Plain Text
Duration : 53 min 15 s
Bit rate : 69 b/s
Count of elements : 934
Stream size : 27.2 KiB (0%)
Title : Indonesia
Language : Indonesian
Default : No
Forced : No

Text #17
ID : 19
Format : UTF-8
Codec ID : S_TEXT/UTF8
Codec ID/Info : UTF-8 Plain Text
Duration : 53 min 15 s
Bit rate : 75 b/s
Count of elements : 926
Stream size : 29.5 KiB (0%)
Title : Italiano
Language : Italian
Default : No
Forced : No

Text #18
ID : 20
Format : UTF-8
Codec ID : S_TEXT/UTF8
Codec ID/Info : UTF-8 Plain Text
Duration : 53 min 16 s
Bit rate : 68 b/s
Count of elements : 843
Stream size : 26.6 KiB (0%)
Title : 日本語
Language : Japanese
Default : No
Forced : No

Text #19
ID : 21
Format : UTF-8
Codec ID : S_TEXT/UTF8
Codec ID/Info : UTF-8 Plain Text
Duration : 53 min 15 s
Bit rate : 90 b/s
Count of elements : 938
Stream size : 35.3 KiB (0%)
Title : 한국어
Language : Korean
Default : No
Forced : No

Text #20
ID : 22
Format : UTF-8
Codec ID : S_TEXT/UTF8
Codec ID/Info : UTF-8 Plain Text
Duration : 53 min 15 s
Bit rate : 71 b/s
Count of elements : 933
Stream size : 27.9 KiB (0%)
Title : Bahasa Melayu
Language : Malay
Default : No
Forced : No

Text #21
ID : 23
Format : UTF-8
Codec ID : S_TEXT/UTF8
Codec ID/Info : UTF-8 Plain Text
Duration : 53 min 15 s
Bit rate : 71 b/s
Count of elements : 923
Stream size : 27.8 KiB (0%)
Title : Norsk Bokmål
Language : Norwegian Bokmal
Default : No
Forced : No

Text #22
ID : 24
Format : UTF-8
Codec ID : S_TEXT/UTF8
Codec ID/Info : UTF-8 Plain Text
Duration : 53 min 15 s
Bit rate : 73 b/s
Count of elements : 920
Stream size : 28.7 KiB (0%)
Title : Nederlands
Language : Dutch
Default : No
Forced : No

Text #23
ID : 25
Format : UTF-8
Codec ID : S_TEXT/UTF8
Codec ID/Info : UTF-8 Plain Text
Duration : 53 min 15 s
Bit rate : 74 b/s
Count of elements : 925
Stream size : 28.9 KiB (0%)
Title : Polski
Language : Polish
Default : No
Forced : No

Text #24
ID : 26
Format : UTF-8
Codec ID : S_TEXT/UTF8
Codec ID/Info : UTF-8 Plain Text
Duration : 53 min 15 s
Bit rate : 76 b/s
Count of elements : 935
Stream size : 30.0 KiB (0%)
Title : Português (Portugal)
Language : Portuguese
Default : No
Forced : No

Text #25
ID : 27
Format : UTF-8
Codec ID : S_TEXT/UTF8
Codec ID/Info : UTF-8 Plain Text
Duration : 53 min 15 s
Bit rate : 75 b/s
Count of elements : 935
Stream size : 29.6 KiB (0%)
Title : Português (Brasil)
Language : Portuguese
Default : No
Forced : No

Text #26
ID : 28
Format : UTF-8
Codec ID : S_TEXT/UTF8
Codec ID/Info : UTF-8 Plain Text
Duration : 53 min 15 s
Bit rate : 78 b/s
Count of elements : 926
Stream size : 30.7 KiB (0%)
Title : Română
Language : Romanian
Default : No
Forced : No

Text #27
ID : 29
Format : UTF-8
Codec ID : S_TEXT/UTF8
Codec ID/Info : UTF-8 Plain Text
Duration : 53 min 15 s
Bit rate : 131 b/s
Count of elements : 937
Stream size : 51.5 KiB (0%)
Title : Русский
Language : Russian
Default : No
Forced : No

Text #28
ID : 30
Format : UTF-8
Codec ID : S_TEXT/UTF8
Codec ID/Info : UTF-8 Plain Text
Duration : 53 min 15 s
Bit rate : 74 b/s
Count of elements : 924
Stream size : 29.1 KiB (0%)
Title : Svenska
Language : Swedish
Default : No
Forced : No

Text #29
ID : 31
Format : UTF-8
Codec ID : S_TEXT/UTF8
Codec ID/Info : UTF-8 Plain Text
Duration : 53 min 15 s
Bit rate : 206 b/s
Count of elements : 938
Stream size : 80.4 KiB (0%)
Title : தமிழ்
Language : Tamil
Default : No
Forced : No

Text #30
ID : 32
Format : UTF-8
Codec ID : S_TEXT/UTF8
Codec ID/Info : UTF-8 Plain Text
Duration : 53 min 15 s
Bit rate : 196 b/s
Count of elements : 938
Stream size : 76.6 KiB (0%)
Title : తెలుగు
Language : Telugu
Default : No
Forced : No

Text #31
ID : 33
Format : UTF-8
Codec ID : S_TEXT/UTF8
Codec ID/Info : UTF-8 Plain Text
Duration : 53 min 15 s
Bit rate : 185 b/s
Count of elements : 938
Stream size : 72.5 KiB (0%)
Title : ไทย
Language : Thai
Default : No
Forced : No

Text #32
ID : 34
Format : UTF-8
Codec ID : S_TEXT/UTF8
Codec ID/Info : UTF-8 Plain Text
Duration : 53 min 15 s
Bit rate : 72 b/s
Count of elements : 935
Stream size : 28.3 KiB (0%)
Title : Türkçe
Language : Turkish
Default : No
Forced : No

Text #33
ID : 35
Format : UTF-8
Codec ID : S_TEXT/UTF8
Codec ID/Info : UTF-8 Plain Text
Duration : 53 min 15 s
Bit rate : 66 b/s
Count of elements : 938
Stream size : 25.8 KiB (0%)
Title : 中文(简体)
Language : Chinese
Default : No
Forced : No

Text #34
ID : 36
Format : UTF-8
Codec ID : S_TEXT/UTF8
Codec ID/Info : UTF-8 Plain Text
Duration : 53 min 15 s
Bit rate : 71 b/s
Count of elements : 938
Stream size : 28.0 KiB (0%)
Title : 中文(繁體)
Language : Chinese
Default : No
Forced : No

Download

Direct download files get automatically deleted after a month or so. Posted on : 06/11/2021

[collapse]

You may also like...

error: nah :p~