Big Sky

Crime, Drama, Thriller | TV Series (2020– )

A private detective teams up with an ex-cop to solve a kidnapping case in Montana.

Watch trailer

Media Info and Download Links | S02E06

General
Format : Matroska
Format version : Version 4
File size : 205 MiB
Duration : 43 min 4 s
Overall bit rate : 666 kb/s
Movie name : Big.Sky.2020.S02E06.Heart-Shaped.Charm.720p.10bit.WEBRip.2CH.x265.HEVC

Video
ID : 1
Format : HEVC
Format/Info : High Efficiency Video Coding
Format profile : Main [email protected]@Main
Codec ID : V_MPEGH/ISO/HEVC
Duration : 43 min 4 s
Bit rate : 598 kb/s
Width : 1 280 pixels
Height : 720 pixels
Display aspect ratio : 16:9
Frame rate mode : Constant
Frame rate : 23.976 (24000/1001) FPS
Color space : YUV
Chroma subsampling : 4:2:0
Bit depth : 10 bits
Bits/(Pixel*Frame) : 0.027
Stream size : 184 MiB (90%)
Default : Yes
Forced : No
Color range : Limited
Color primaries : BT.709
Transfer characteristics : BT.709
Matrix coefficients : BT.709

Audio
ID : 2
Format : AAC LC SBR
Commercial name : HE-AAC
Format settings : Explicit
Codec ID : A_AAC-2
Duration : 43 min 4 s
Bit rate : 66.2 kb/s
Channel(s) : 2 channels
Channel layout : L R
Sampling rate : 48.0 kHz
Frame rate : 23.438 FPS (2048 SPF)
Compression mode : Lossy
Delay relative to video : 23 ms
Stream size : 20.5 MiB (10%)
Language : English
Default : Yes
Forced : No

Text
ID : 3
Format : UTF-8
Codec ID : S_TEXT/UTF8
Codec ID/Info : UTF-8 Plain Text
Duration : 42 min 51 s
Bit rate : 66 b/s
Count of elements : 870
Stream size : 20.8 KiB (0%)
Language : English
Default : Yes
Forced : No

Download

Direct download files get automatically deleted after a month or so. Posted on : 11/19/2021

[collapse]
Media Info and Download Links | S02E05

General
Format : Matroska
Format version : Version 4
File size : 225 MiB
Duration : 43 min 4 s
Overall bit rate : 730 kb/s
Movie name : Big.Sky.2020.S02E05.Mother.Nurture.720p.10bit.WEBRip.2CH.x265.HEVC

Video
ID : 1
Format : HEVC
Format/Info : High Efficiency Video Coding
Format profile : Main [email protected]@Main
Codec ID : V_MPEGH/ISO/HEVC
Duration : 43 min 4 s
Bit rate : 663 kb/s
Width : 1 280 pixels
Height : 720 pixels
Display aspect ratio : 16:9
Frame rate mode : Constant
Frame rate : 23.976 (24000/1001) FPS
Color space : YUV
Chroma subsampling : 4:2:0
Bit depth : 10 bits
Bits/(Pixel*Frame) : 0.030
Stream size : 204 MiB (91%)
Default : Yes
Forced : No
Color range : Limited
Color primaries : BT.709
Transfer characteristics : BT.709
Matrix coefficients : BT.709

Audio
ID : 2
Format : AAC LC SBR
Commercial name : HE-AAC
Format settings : Explicit
Codec ID : A_AAC-2
Duration : 43 min 4 s
Bit rate : 66.2 kb/s
Channel(s) : 2 channels
Channel layout : L R
Sampling rate : 48.0 kHz
Frame rate : 23.438 FPS (2048 SPF)
Compression mode : Lossy
Delay relative to video : 23 ms
Stream size : 20.1 MiB (9%)
Language : English
Default : Yes
Forced : No

Text
ID : 3
Format : UTF-8
Codec ID : S_TEXT/UTF8
Codec ID/Info : UTF-8 Plain Text
Duration : 42 min 52 s
Bit rate : 84 b/s
Count of elements : 1088
Stream size : 26.6 KiB (0%)
Language : English
Default : Yes
Forced : No

Download

Direct download files get automatically deleted after a month or so. Posted on : 11/12/2021

[collapse]
Media Info and Download Links | S02E04

General
Format : Matroska
Format version : Version 4
File size : 243 MiB
Duration : 43 min 4 s
Overall bit rate : 790 kb/s
Movie name : Big.Sky.2020.S02E04.Gettin’.Right.to.It.720p.10bit.WEBRip.2CH.x265.HEVC

Video
ID : 1
Format : HEVC
Format/Info : High Efficiency Video Coding
Format profile : Main [email protected]@Main
Codec ID : V_MPEGH/ISO/HEVC
Duration : 43 min 4 s
Bit rate : 722 kb/s
Width : 1 280 pixels
Height : 720 pixels
Display aspect ratio : 16:9
Frame rate mode : Constant
Frame rate : 23.976 (24000/1001) FPS
Color space : YUV
Chroma subsampling : 4:2:0
Bit depth : 10 bits
Bits/(Pixel*Frame) : 0.033
Stream size : 223 MiB (91%)
Default : Yes
Forced : No
Color range : Limited
Color primaries : BT.709
Transfer characteristics : BT.709
Matrix coefficients : BT.709

Audio
ID : 2
Format : AAC LC SBR
Commercial name : HE-AAC
Format settings : Explicit
Codec ID : A_AAC-2
Duration : 43 min 4 s
Bit rate : 66.2 kb/s
Channel(s) : 2 channels
Channel layout : L R
Sampling rate : 48.0 kHz
Frame rate : 23.438 FPS (2048 SPF)
Compression mode : Lossy
Delay relative to video : 23 ms
Stream size : 20.1 MiB (8%)
Language : English
Default : Yes
Forced : No

Text
ID : 3
Format : UTF-8
Codec ID : S_TEXT/UTF8
Codec ID/Info : UTF-8 Plain Text
Duration : 42 min 52 s
Bit rate : 73 b/s
Count of elements : 889
Stream size : 23.1 KiB (0%)
Language : English
Default : Yes
Forced : No

Download

Direct download files get automatically deleted after a month or so. Posted on : 10/22/2021

[collapse]
Media Info and Download Links | S02E03

General
Format : Matroska
Format version : Version 4
File size : 222 MiB
Duration : 42 min 56 s
Overall bit rate : 723 kb/s
Movie name : Big.Sky.2020.S02E03.You.Have.to.Play.Along.720p.10bit.WEBRip.2CH.x265.HEVC

Video
ID : 1
Format : HEVC
Format/Info : High Efficiency Video Coding
Format profile : Main [email protected]@Main
Codec ID : V_MPEGH/ISO/HEVC
Duration : 42 min 56 s
Bit rate : 655 kb/s
Width : 1 280 pixels
Height : 720 pixels
Display aspect ratio : 16:9
Frame rate mode : Constant
Frame rate : 23.976 (24000/1001) FPS
Color space : YUV
Chroma subsampling : 4:2:0
Bit depth : 10 bits
Bits/(Pixel*Frame) : 0.030
Stream size : 201 MiB (91%)
Default : Yes
Forced : No
Color range : Limited
Color primaries : BT.709
Transfer characteristics : BT.709
Matrix coefficients : BT.709

Audio
ID : 2
Format : AAC LC SBR
Commercial name : HE-AAC
Format settings : Explicit
Codec ID : A_AAC-2
Duration : 42 min 56 s
Bit rate : 66.2 kb/s
Channel(s) : 2 channels
Channel layout : L R
Sampling rate : 48.0 kHz
Frame rate : 23.438 FPS (2048 SPF)
Compression mode : Lossy
Delay relative to video : 23 ms
Stream size : 20.3 MiB (9%)
Language : English
Default : Yes
Forced : No

Text #1
ID : 3
Format : UTF-8
Codec ID : S_TEXT/UTF8
Codec ID/Info : UTF-8 Plain Text
Duration : 41 min 57 s
Bit rate : 73 b/s
Count of elements : 775
Stream size : 22.6 KiB (0%)
Language : English
Default : No
Forced : No

Text #2
ID : 4
Format : UTF-8
Codec ID : S_TEXT/UTF8
Codec ID/Info : UTF-8 Plain Text
Duration : 42 min 45 s
Bit rate : 78 b/s
Count of elements : 932
Stream size : 24.4 KiB (0%)
Title : SDH
Language : English
Default : Yes
Forced : No

Download

Direct download files get automatically deleted after a month or so. Posted on : 10/15/2021

[collapse]
Media Info and Download Links | S02E02

General
Format : Matroska
Format version : Version 4
File size : 206 MiB
Duration : 43 min 3 s
Overall bit rate : 669 kb/s
Movie name : Big.Sky.2020.S02E02.Huckleberry.720p.10bit.WEBRip.2CH.x265.HEVC

Video
ID : 1
Format : HEVC
Format/Info : High Efficiency Video Coding
Format profile : Main [email protected]@Main
Codec ID : V_MPEGH/ISO/HEVC
Duration : 43 min 3 s
Bit rate : 602 kb/s
Width : 1 280 pixels
Height : 720 pixels
Display aspect ratio : 16:9
Frame rate mode : Constant
Frame rate : 23.976 (24000/1001) FPS
Color space : YUV
Chroma subsampling : 4:2:0
Bit depth : 10 bits
Bits/(Pixel*Frame) : 0.027
Stream size : 185 MiB (90%)
Default : Yes
Forced : No
Color range : Limited
Color primaries : BT.709
Transfer characteristics : BT.709
Matrix coefficients : BT.709

Audio
ID : 2
Format : AAC LC SBR
Commercial name : HE-AAC
Format settings : Explicit
Codec ID : A_AAC-2
Duration : 43 min 3 s
Bit rate : 66.2 kb/s
Channel(s) : 2 channels
Channel layout : L R
Sampling rate : 48.0 kHz
Frame rate : 23.438 FPS (2048 SPF)
Compression mode : Lossy
Delay relative to video : 23 ms
Stream size : 20.0 MiB (10%)
Language : English
Default : Yes
Forced : No

Text #1
ID : 3
Format : UTF-8
Codec ID : S_TEXT/UTF8
Codec ID/Info : UTF-8 Plain Text
Duration : 42 min 16 s
Bit rate : 70 b/s
Count of elements : 758
Stream size : 21.7 KiB (0%)
Language : English
Default : No
Forced : No

Text #2
ID : 4
Format : UTF-8
Codec ID : S_TEXT/UTF8
Codec ID/Info : UTF-8 Plain Text
Duration : 42 min 49 s
Bit rate : 76 b/s
Count of elements : 895
Stream size : 24.1 KiB (0%)
Title : SDH
Language : English
Default : Yes
Forced : No

Download

Direct download files get automatically deleted after a month or so. Posted on : 10/08/2021

[collapse]

Media Info and Download Links | S02E01

General
Format : Matroska
Format version : Version 4
File size : 224 MiB
Duration : 43 min 1 s
Overall bit rate : 727 kb/s
Movie name : Big.Sky.2020.S02E01.Wakey.Wakey.720p.10bit.WEBRip.2CH.x265.HEVC

Video
ID : 1
Format : HEVC
Format/Info : High Efficiency Video Coding
Format profile : Main [email protected]@Main
Codec ID : V_MPEGH/ISO/HEVC
Duration : 43 min 1 s
Bit rate : 661 kb/s
Width : 1 280 pixels
Height : 720 pixels
Display aspect ratio : 16:9
Frame rate mode : Constant
Frame rate : 23.976 (24000/1001) FPS
Color space : YUV
Chroma subsampling : 4:2:0
Bit depth : 10 bits
Bits/(Pixel*Frame) : 0.030
Stream size : 203 MiB (91%)
Default : Yes
Forced : No
Color range : Limited
Color primaries : BT.709
Transfer characteristics : BT.709
Matrix coefficients : BT.709

Audio
ID : 2
Format : AAC LC SBR
Commercial name : HE-AAC
Format settings : Explicit
Codec ID : A_AAC-2
Duration : 43 min 1 s
Bit rate : 64.2 kb/s
Channel(s) : 2 channels
Channel layout : L R
Sampling rate : 48.0 kHz
Frame rate : 23.438 FPS (2048 SPF)
Compression mode : Lossy
Delay relative to video : 23 ms
Stream size : 19.7 MiB (9%)
Language : English
Default : Yes
Forced : No

Text #1
ID : 3
Format : UTF-8
Codec ID : S_TEXT/UTF8
Codec ID/Info : UTF-8 Plain Text
Duration : 42 min 20 s
Bit rate : 68 b/s
Count of elements : 776
Stream size : 21.2 KiB (0%)
Language : English
Default : No
Forced : No

Text #2
ID : 4
Format : UTF-8
Codec ID : S_TEXT/UTF8
Codec ID/Info : UTF-8 Plain Text
Duration : 42 min 36 s
Bit rate : 74 b/s
Count of elements : 887
Stream size : 23.2 KiB (0%)
Title : SDH
Language : English
Default : Yes
Forced : No

Download

Direct download files get automatically deleted after a month or so. Posted on : 10/08/2021

[collapse]
Media Info and Download Links | S02E01

General
Format : Matroska
Format version : Version 4
File size : 209 MiB
Duration : 42 min 59 s
Overall bit rate : 680 kb/s
Movie name : Big.Sky.2020.S02E01.Wakey.Wakey.720p.WEBRip.2CH.x265.HEVC

Video
ID : 1
Format : HEVC
Format/Info : High Efficiency Video Coding
Format profile : [email protected]@Main
Codec ID : V_MPEGH/ISO/HEVC
Duration : 42 min 59 s
Bit rate : 614 kb/s
Width : 1 280 pixels
Height : 720 pixels
Display aspect ratio : 16:9
Frame rate mode : Constant
Frame rate : 23.976 (24000/1001) FPS
Color space : YUV
Chroma subsampling : 4:2:0
Bit depth : 8 bits
Bits/(Pixel*Frame) : 0.028
Stream size : 189 MiB (90%)
Default : Yes
Forced : No

Audio
ID : 2
Format : AAC LC SBR
Commercial name : HE-AAC
Format settings : Explicit
Codec ID : A_AAC-2
Duration : 42 min 59 s
Bit rate : 63.4 kb/s
Channel(s) : 2 channels
Channel layout : L R
Sampling rate : 48.0 kHz
Frame rate : 23.438 FPS (2048 SPF)
Compression mode : Lossy
Delay relative to video : 23 ms
Stream size : 19.5 MiB (9%)
Language : English
Default : Yes
Forced : No

Text
ID : 3
Format : UTF-8
Codec ID : S_TEXT/UTF8
Codec ID/Info : UTF-8 Plain Text
Duration : 42 min 51 s
Bit rate : 74 b/s
Count of elements : 914
Stream size : 23.5 KiB (0%)
Language : English
Default : Yes
Forced : No

Download

Direct download files get automatically deleted after a month or so. Posted on : 10/02/2021

[collapse]

Media Info and Download Links | S01E16

General
Format : Matroska
Format version : Version 4
File size : 210 MiB
Duration : 41 min 57 s
Overall bit rate : 701 kb/s
Movie name : Big.Sky.2020.S01E16.Love.is.a.Strange.and.Dangerous.Thing.720p.WEBRip.2CH.x265.HEVC

Video
ID : 1
Format : HEVC
Format/Info : High Efficiency Video Coding
Format profile : [email protected]@Main
Codec ID : V_MPEGH/ISO/HEVC
Duration : 41 min 57 s
Bit rate : 634 kb/s
Width : 1 280 pixels
Height : 720 pixels
Display aspect ratio : 16:9
Frame rate mode : Constant
Frame rate : 23.976 (24000/1001) FPS
Color space : YUV
Chroma subsampling : 4:2:0
Bit depth : 8 bits
Bits/(Pixel*Frame) : 0.029
Stream size : 190 MiB (90%)
Default : Yes
Forced : No
Color range : Limited
Color primaries : BT.709
Transfer characteristics : BT.709
Matrix coefficients : BT.709

Audio
ID : 2
Format : AAC LC SBR
Commercial name : HE-AAC
Format settings : Explicit
Codec ID : A_AAC-2
Duration : 41 min 57 s
Bit rate : 64.2 kb/s
Channel(s) : 2 channels
Channel layout : L R
Sampling rate : 48.0 kHz
Frame rate : 23.438 FPS (2048 SPF)
Compression mode : Lossy
Delay relative to video : 23 ms
Stream size : 19.3 MiB (9%)
Language : English
Default : Yes
Forced : No

Text
ID : 3
Format : UTF-8
Codec ID : S_TEXT/UTF8
Codec ID/Info : UTF-8 Plain Text
Duration : 41 min 47 s
Bit rate : 77 b/s
Count of elements : 901
Stream size : 23.9 KiB (0%)
Language : English
Default : Yes
Forced : No

Download

Direct download files get automatically deleted after a month or so. Posted on : 05/19/2021

[collapse]
Media Info and Download Links | S01E15

General
Format : Matroska
Format version : Version 4
File size : 188 MiB
Duration : 41 min 21 s
Overall bit rate : 635 kb/s
Movie name : Big.Sky.2020.S01E15.Bitter.Roots.720p.WEBRip.2CH.x265.HEVC

Video
ID : 1
Format : HEVC
Format/Info : High Efficiency Video Coding
Format profile : [email protected]@Main
Codec ID : V_MPEGH/ISO/HEVC
Duration : 41 min 21 s
Bit rate : 567 kb/s
Width : 1 280 pixels
Height : 720 pixels
Display aspect ratio : 16:9
Frame rate mode : Constant
Frame rate : 23.976 (24000/1001) FPS
Color space : YUV
Chroma subsampling : 4:2:0
Bit depth : 8 bits
Bits/(Pixel*Frame) : 0.026
Stream size : 168 MiB (89%)
Default : Yes
Forced : No
Color range : Limited
Color primaries : BT.709
Transfer characteristics : BT.709
Matrix coefficients : BT.709

Audio
ID : 2
Format : AAC LC SBR
Commercial name : HE-AAC
Format settings : Explicit
Codec ID : A_AAC-2
Duration : 41 min 21 s
Bit rate : 66.2 kb/s
Channel(s) : 2 channels
Channel layout : L R
Sampling rate : 48.0 kHz
Frame rate : 23.438 FPS (2048 SPF)
Compression mode : Lossy
Delay relative to video : 23 ms
Stream size : 19.3 MiB (10%)
Language : English
Default : Yes
Forced : No

Text #1
ID : 3
Format : UTF-8
Codec ID : S_TEXT/UTF8
Codec ID/Info : UTF-8 Plain Text
Duration : 40 min 38 s
Bit rate : 63 b/s
Count of elements : 712
Stream size : 18.9 KiB (0%)
Language : English
Default : No
Forced : No

Text #2
ID : 4
Format : UTF-8
Codec ID : S_TEXT/UTF8
Codec ID/Info : UTF-8 Plain Text
Duration : 41 min 11 s
Bit rate : 71 b/s
Count of elements : 962
Stream size : 21.6 KiB (0%)
Title : SDH
Language : English
Default : Yes
Forced : No

Download

Direct download files get automatically deleted after a month or so. Posted on : 05/12/2021

[collapse]
Media Info and Download Links | S01E14

General
Format : Matroska
Format version : Version 4
File size : 177 MiB
Duration : 42 min 25 s
Overall bit rate : 582 kb/s
Movie name : Big.Sky.2020.S01E14.Nice.Animals.720p.WEBRip.2CH.x265.HEVC

Video
ID : 1
Format : HEVC
Format/Info : High Efficiency Video Coding
Format profile : [email protected]@Main
Codec ID : V_MPEGH/ISO/HEVC
Duration : 42 min 25 s
Bit rate : 515 kb/s
Width : 1 280 pixels
Height : 720 pixels
Display aspect ratio : 16:9
Frame rate mode : Constant
Frame rate : 23.976 (24000/1001) FPS
Color space : YUV
Chroma subsampling : 4:2:0
Bit depth : 8 bits
Bits/(Pixel*Frame) : 0.023
Stream size : 156 MiB (89%)
Default : Yes
Forced : No
Color range : Limited
Color primaries : BT.709
Transfer characteristics : BT.709
Matrix coefficients : BT.709

Audio
ID : 2
Format : AAC LC SBR
Commercial name : HE-AAC
Format settings : Explicit
Codec ID : A_AAC-2
Duration : 42 min 25 s
Bit rate : 64.3 kb/s
Channel(s) : 2 channels
Channel layout : L R
Sampling rate : 48.0 kHz
Frame rate : 23.438 FPS (2048 SPF)
Compression mode : Lossy
Delay relative to video : 23 ms
Stream size : 19.5 MiB (11%)
Language : English
Default : Yes
Forced : No

Text
ID : 3
Format : UTF-8
Codec ID : S_TEXT/UTF8
Codec ID/Info : UTF-8 Plain Text
Duration : 42 min 15 s
Bit rate : 87 b/s
Count of elements : 948
Stream size : 27.1 KiB (0%)
Language : English
Default : Yes
Forced : No

Download

Direct download files get automatically deleted after a month or so. Posted on : 05/05/2021

[collapse]
Media Info and Download Links | S01E13

General
Format : Matroska
Format version : Version 4
File size : 192 MiB
Duration : 43 min 1 s
Overall bit rate : 623 kb/s
Movie name : Big.Sky.2020.S01E13.White.Lion.720p.WEBRip.2CH.x265.HEVC

Video
ID : 1
Format : HEVC
Format/Info : High Efficiency Video Coding
Format profile : [email protected]@Main
Codec ID : V_MPEGH/ISO/HEVC
Duration : 43 min 1 s
Bit rate : 555 kb/s
Width : 1 280 pixels
Height : 720 pixels
Display aspect ratio : 16:9
Frame rate mode : Constant
Frame rate : 23.976 (24000/1001) FPS
Color space : YUV
Chroma subsampling : 4:2:0
Bit depth : 8 bits
Bits/(Pixel*Frame) : 0.025
Stream size : 171 MiB (89%)
Default : Yes
Forced : No
Color range : Limited
Color primaries : BT.709
Transfer characteristics : BT.709
Matrix coefficients : BT.709

Audio
ID : 2
Format : AAC LC SBR
Commercial name : HE-AAC
Format settings : Explicit
Codec ID : A_AAC-2
Duration : 43 min 1 s
Bit rate : 66.2 kb/s
Channel(s) : 2 channels
Channel layout : L R
Sampling rate : 48.0 kHz
Frame rate : 23.438 FPS (2048 SPF)
Compression mode : Lossy
Delay relative to video : 23 ms
Stream size : 20.1 MiB (10%)
Language : English
Default : Yes
Forced : No

Text #1
ID : 3
Format : UTF-8
Codec ID : S_TEXT/UTF8
Codec ID/Info : UTF-8 Plain Text
Duration : 42 min 15 s
Bit rate : 69 b/s
Count of elements : 755
Stream size : 21.5 KiB (0%)
Language : English
Default : No
Forced : No

Text #2
ID : 4
Format : UTF-8
Codec ID : S_TEXT/UTF8
Codec ID/Info : UTF-8 Plain Text
Duration : 42 min 51 s
Bit rate : 75 b/s
Count of elements : 912
Stream size : 23.6 KiB (0%)
Title : SDH
Language : English
Default : Yes
Forced : No

Download

Direct download files get automatically deleted after a month or so. Posted on : 05/01/2021

[collapse]
Media Info and Download Links | S01E12

General
Format : Matroska
Format version : Version 4
File size : 199 MiB
Duration : 42 min 53 s
Overall bit rate : 650 kb/s
Movie name : Big.Sky.2020.S01E12.No.Better.Than.Dogs.720p.WEBRip.2CH.x265.HEVC

Video
ID : 1
Format : HEVC
Format/Info : High Efficiency Video Coding
Format profile : [email protected]@Main
Codec ID : V_MPEGH/ISO/HEVC
Duration : 42 min 53 s
Bit rate : 582 kb/s
Width : 1 280 pixels
Height : 720 pixels
Display aspect ratio : 16:9
Frame rate mode : Constant
Frame rate : 23.976 (24000/1001) FPS
Color space : YUV
Chroma subsampling : 4:2:0
Bit depth : 8 bits
Bits/(Pixel*Frame) : 0.026
Stream size : 179 MiB (90%)
Default : Yes
Forced : No
Color range : Limited
Color primaries : BT.709
Transfer characteristics : BT.709
Matrix coefficients : BT.709

Audio
ID : 2
Format : AAC LC SBR
Commercial name : HE-AAC
Format settings : Explicit
Codec ID : A_AAC-2
Duration : 42 min 53 s
Bit rate : 64.7 kb/s
Channel(s) : 2 channels
Channel layout : L R
Sampling rate : 48.0 kHz
Frame rate : 23.438 FPS (2048 SPF)
Compression mode : Lossy
Delay relative to video : 23 ms
Stream size : 19.8 MiB (10%)
Language : English
Default : Yes
Forced : No

Text #1
ID : 3
Format : UTF-8
Codec ID : S_TEXT/UTF8
Codec ID/Info : UTF-8 Plain Text
Duration : 42 min 5 s
Bit rate : 65 b/s
Count of elements : 740
Stream size : 20.1 KiB (0%)
Language : English
Default : No
Forced : No

Text #2
ID : 4
Format : UTF-8
Codec ID : S_TEXT/UTF8
Codec ID/Info : UTF-8 Plain Text
Duration : 42 min 44 s
Bit rate : 70 b/s
Count of elements : 895
Stream size : 22.0 KiB (0%)
Title : SDH
Language : English
Default : Yes
Forced : No

Download

Direct download files get automatically deleted after a month or so. Posted on : 04/21/2021

[collapse]
Media Info and Download Links | S01E11

General
Format : Matroska
Format version : Version 4
File size : 207 MiB
Duration : 43 min 4 s
Overall bit rate : 673 kb/s
Movie name : Big.Sky.2020.S01E11.All.Kinds.of.Snakes.720p.WEBRip.2CH.x265.HEVC

Video
ID : 2
Format : HEVC
Format/Info : High Efficiency Video Coding
Format profile : [email protected]@Main
Codec ID : V_MPEGH/ISO/HEVC
Duration : 43 min 4 s
Bit rate : 604 kb/s
Width : 1 280 pixels
Height : 720 pixels
Display aspect ratio : 16:9
Frame rate mode : Constant
Frame rate : 23.976 (24000/1001) FPS
Color space : YUV
Chroma subsampling : 4:2:0
Bit depth : 8 bits
Bits/(Pixel*Frame) : 0.027
Stream size : 186 MiB (90%)
Default : Yes
Forced : No
Color range : Limited
Color primaries : BT.709
Transfer characteristics : BT.709
Matrix coefficients : BT.709

Audio
ID : 1
Format : AAC LC SBR
Commercial name : HE-AAC
Format settings : Explicit
Codec ID : A_AAC-2
Duration : 43 min 4 s
Bit rate : 66.2 kb/s
Channel(s) : 2 channels
Channel layout : L R
Sampling rate : 48.0 kHz
Frame rate : 23.438 FPS (2048 SPF)
Compression mode : Lossy
Delay relative to video : 23 ms
Stream size : 20.4 MiB (10%)
Language : English
Default : Yes
Forced : No

Text #1
ID : 3
Format : UTF-8
Codec ID : S_TEXT/UTF8
Codec ID/Info : UTF-8 Plain Text
Duration : 42 min 23 s
Bit rate : 67 b/s
Count of elements : 767
Stream size : 21.0 KiB (0%)
Language : English
Default : No
Forced : No

Text #2
ID : 4
Format : UTF-8
Codec ID : S_TEXT/UTF8
Codec ID/Info : UTF-8 Plain Text
Duration : 42 min 23 s
Bit rate : 78 b/s
Count of elements : 996
Stream size : 24.3 KiB (0%)
Title : SDH
Language : English
Default : Yes
Forced : No

Download

Direct download files get automatically deleted after a month or so. Posted on : 04/14/2021

[collapse]
Media Info and Download Links | S01E10

General
Format : Matroska
Format version : Version 4
File size : 207 MiB
Duration : 42 min 40 s
Overall bit rate : 678 kb/s
Movie name : Big.Sky.2020.S01E10.Catastrophic.Thinking.720p.WEBRip.2CH.x265.HEVC

Video
ID : 1
Format : HEVC
Format/Info : High Efficiency Video Coding
Format profile : [email protected]@Main
Codec ID : V_MPEGH/ISO/HEVC
Duration : 42 min 40 s
Bit rate : 610 kb/s
Width : 1 280 pixels
Height : 720 pixels
Display aspect ratio : 16:9
Frame rate mode : Constant
Frame rate : 23.976 (24000/1001) FPS
Color space : YUV
Chroma subsampling : 4:2:0
Bit depth : 8 bits
Bits/(Pixel*Frame) : 0.028
Stream size : 186 MiB (90%)
Default : Yes
Forced : No
Color range : Limited
Color primaries : BT.709
Transfer characteristics : BT.709
Matrix coefficients : BT.709

Audio
ID : 2
Format : AAC LC SBR
Commercial name : HE-AAC
Format settings : Explicit
Codec ID : A_AAC-2
Duration : 42 min 40 s
Bit rate : 66.2 kb/s
Channel(s) : 2 channels
Channel layout : L R
Sampling rate : 48.0 kHz
Frame rate : 23.438 FPS (2048 SPF)
Compression mode : Lossy
Delay relative to video : 23 ms
Stream size : 19.9 MiB (10%)
Language : English
Default : Yes
Forced : No

Text #1
ID : 3
Format : UTF-8
Codec ID : S_TEXT/UTF8
Codec ID/Info : UTF-8 Plain Text
Duration : 42 min 1 s
Bit rate : 72 b/s
Count of elements : 769
Stream size : 22.3 KiB (0%)
Language : English
Default : No
Forced : No

Text #2
ID : 4
Format : UTF-8
Codec ID : S_TEXT/UTF8
Codec ID/Info : UTF-8 Plain Text
Duration : 42 min 1 s
Bit rate : 80 b/s
Count of elements : 920
Stream size : 24.8 KiB (0%)
Title : SDH
Language : English
Default : Yes
Forced : No

Download

Direct download files get automatically deleted after a month or so. Posted on : 04/14/2021

[collapse]
Media Info and Download Links | S01E09

General
Format : Matroska
Format version : Version 4
File size : 218 MiB
Duration : 42 min 0 s
Overall bit rate : 725 kb/s
Movie name : Big.Sky.2020.S01E09.Let.It.Be.Him.720p.WEBRip.2CH.x265.HEVC

Video
ID : 1
Format : HEVC
Format/Info : High Efficiency Video Coding
Format profile : [email protected]@Main
Codec ID : V_MPEGH/ISO/HEVC
Duration : 42 min 0 s
Bit rate : 658 kb/s
Width : 1 280 pixels
Height : 720 pixels
Display aspect ratio : 16:9
Frame rate mode : Constant
Frame rate : 23.976 (24000/1001) FPS
Color space : YUV
Chroma subsampling : 4:2:0
Bit depth : 8 bits
Bits/(Pixel*Frame) : 0.030
Stream size : 198 MiB (91%)
Default : Yes
Forced : No
Color range : Limited
Color primaries : BT.709
Transfer characteristics : BT.709
Matrix coefficients : BT.709

Audio
ID : 2
Format : AAC LC SBR
Commercial name : HE-AAC
Format settings : Explicit
Codec ID : A_AAC-2
Duration : 42 min 0 s
Bit rate : 66.2 kb/s
Channel(s) : 2 channels
Channel layout : L R
Sampling rate : 48.0 kHz
Frame rate : 23.438 FPS (2048 SPF)
Compression mode : Lossy
Delay relative to video : 23 ms
Stream size : 19.6 MiB (9%)
Language : English
Default : Yes
Forced : No

Text
ID : 3
Format : UTF-8
Codec ID : S_TEXT/UTF8
Codec ID/Info : UTF-8 Plain Text
Duration : 41 min 49 s
Bit rate : 73 b/s
Count of elements : 898
Stream size : 22.4 KiB (0%)
Language : English
Default : Yes
Forced : No

Download

Direct download files get automatically deleted after a month or so. Posted on : 02/17/2021

[collapse]
Media Info and Download Links | S01E08

General
Format : Matroska
Format version : Version 4
File size : 212 MiB
Duration : 42 min 13 s
Overall bit rate : 703 kb/s
Movie name : Big.Sky.2020.S01E08.The.End.is.Near.720p.WEBRip.2CH.x265.HEVC

Video
ID : 1
Format : HEVC
Format/Info : High Efficiency Video Coding
Format profile : [email protected]@Main
Codec ID : V_MPEGH/ISO/HEVC
Duration : 42 min 13 s
Bit rate : 634 kb/s
Width : 1 280 pixels
Height : 720 pixels
Display aspect ratio : 16:9
Frame rate mode : Constant
Frame rate : 23.976 (24000/1001) FPS
Color space : YUV
Chroma subsampling : 4:2:0
Bit depth : 8 bits
Bits/(Pixel*Frame) : 0.029
Stream size : 192 MiB (90%)
Default : Yes
Forced : No
Color range : Limited
Color primaries : BT.709
Transfer characteristics : BT.709
Matrix coefficients : BT.709

Audio
ID : 2
Format : AAC LC SBR
Commercial name : HE-AAC
Format settings : Explicit
Codec ID : A_AAC-2
Duration : 42 min 13 s
Bit rate : 66.2 kb/s
Channel(s) : 2 channels
Channel layout : L R
Sampling rate : 48.0 kHz
Frame rate : 23.438 FPS (2048 SPF)
Compression mode : Lossy
Delay relative to video : 23 ms
Stream size : 20.0 MiB (9%)
Language : English
Default : Yes
Forced : No

Text
ID : 3
Format : UTF-8
Codec ID : S_TEXT/UTF8
Codec ID/Info : UTF-8 Plain Text
Duration : 42 min 4 s
Bit rate : 75 b/s
Count of elements : 819
Stream size : 23.2 KiB (0%)
Language : English
Default : Yes
Forced : No

Download

Direct download files get automatically deleted after a month or so. Posted on : 02/10/2021

[collapse]
Media Info and Download Links | S01E07

General
Format : Matroska
Format version : Version 4
File size : 227 MiB
Duration : 43 min 4 s
Overall bit rate : 736 kb/s
Movie name : Big.Sky.2020.S01E07.I.Fall.to.Pieces.720p.WEBRip.2CH.x265.HEVC

Video
ID : 1
Format : HEVC
Format/Info : High Efficiency Video Coding
Format profile : [email protected]@Main
Codec ID : V_MPEGH/ISO/HEVC
Duration : 43 min 4 s
Bit rate : 668 kb/s
Width : 1 280 pixels
Height : 720 pixels
Display aspect ratio : 16:9
Frame rate mode : Constant
Frame rate : 23.976 (24000/1001) FPS
Color space : YUV
Chroma subsampling : 4:2:0
Bit depth : 8 bits
Bits/(Pixel*Frame) : 0.030
Stream size : 206 MiB (91%)
Default : Yes
Forced : No
Color range : Limited
Color primaries : BT.709
Transfer characteristics : BT.709
Matrix coefficients : BT.709

Audio
ID : 2
Format : AAC LC SBR
Commercial name : HE-AAC
Format settings : Explicit
Codec ID : A_AAC-2
Duration : 43 min 4 s
Bit rate : 66.2 kb/s
Channel(s) : 2 channels
Channel layout : L R
Sampling rate : 48.0 kHz
Frame rate : 23.438 FPS (2048 SPF)
Compression mode : Lossy
Delay relative to video : 23 ms
Stream size : 20.2 MiB (9%)
Language : English
Default : Yes
Forced : No

Text #1
ID : 3
Format : UTF-8
Codec ID : S_TEXT/UTF8
Codec ID/Info : UTF-8 Plain Text
Duration : 42 min 19 s
Bit rate : 67 b/s
Count of elements : 728
Stream size : 20.9 KiB (0%)
Language : English
Default : No
Forced : No

Text #2
ID : 4
Format : UTF-8
Codec ID : S_TEXT/UTF8
Codec ID/Info : UTF-8 Plain Text
Duration : 42 min 53 s
Bit rate : 72 b/s
Count of elements : 873
Stream size : 22.9 KiB (0%)
Title : SDH
Language : English
Default : Yes
Forced : No

Download

Direct download files get automatically deleted after a month or so. Posted on : 02/05/2021

[collapse]
Media Info and Download Links | S01E06

General
Format : Matroska
Format version : Version 4
File size : 204 MiB
Duration : 42 min 25 s
Overall bit rate : 673 kb/s
Movie name : Big.Sky.2020.S01E06.The.Wolves.Are.Always.Out.for.Blood.720p.WEBRip.2CH.x265.HEVC

Video
ID : 1
Format : HEVC
Format/Info : High Efficiency Video Coding
Format profile : [email protected]@Main
Codec ID : V_MPEGH/ISO/HEVC
Duration : 42 min 25 s
Bit rate : 606 kb/s
Width : 1 280 pixels
Height : 720 pixels
Display aspect ratio : 16:9
Frame rate mode : Constant
Frame rate : 23.976 (24000/1001) FPS
Color space : YUV
Chroma subsampling : 4:2:0
Bit depth : 8 bits
Bits/(Pixel*Frame) : 0.027
Stream size : 184 MiB (90%)
Default : Yes
Forced : No
Color range : Limited
Color primaries : BT.709
Transfer characteristics : BT.709
Matrix coefficients : BT.709

Audio
ID : 2
Format : AAC LC SBR
Commercial name : HE-AAC
Format settings : Explicit
Codec ID : A_AAC-2
Duration : 42 min 25 s
Bit rate : 66.2 kb/s
Channel(s) : 2 channels
Channel layout : L R
Sampling rate : 48.0 kHz
Frame rate : 23.438 FPS (2048 SPF)
Compression mode : Lossy
Delay relative to video : 23 ms
Stream size : 19.7 MiB (10%)
Language : English
Default : Yes
Forced : No

Text #1
ID : 3
Format : UTF-8
Codec ID : S_TEXT/UTF8
Codec ID/Info : UTF-8 Plain Text
Duration : 41 min 6 s
Bit rate : 52 b/s
Count of elements : 533
Stream size : 15.9 KiB (0%)
Language : English
Default : No
Forced : No

Text #2
ID : 4
Format : UTF-8
Codec ID : S_TEXT/UTF8
Codec ID/Info : UTF-8 Plain Text
Duration : 42 min 16 s
Bit rate : 60 b/s
Count of elements : 704
Stream size : 18.6 KiB (0%)
Title : SDH
Language : English
Default : Yes
Forced : No

Download

Direct download files get automatically deleted after a month or so. Posted on : 01/27/2021

[collapse]
Media Info and Download Links | S01E05

General
Format : Matroska
Format version : Version 4
File size : 186 MiB
Duration : 43 min 0 s
Overall bit rate : 606 kb/s
Movie name : Big.Sky.2020.S01E05.A.Good.Day.to.Die.720p.WEBRip.2CH.x265.HEVC

Video
ID : 1
Format : HEVC
Format/Info : High Efficiency Video Coding
Format profile : [email protected]@Main
Codec ID : V_MPEGH/ISO/HEVC
Duration : 43 min 0 s
Bit rate : 539 kb/s
Width : 1 280 pixels
Height : 720 pixels
Display aspect ratio : 16:9
Frame rate mode : Constant
Frame rate : 23.976 (24000/1001) FPS
Color space : YUV
Chroma subsampling : 4:2:0
Bit depth : 8 bits
Bits/(Pixel*Frame) : 0.024
Stream size : 166 MiB (89%)
Default : Yes
Forced : No
Color range : Limited
Color primaries : BT.709
Transfer characteristics : BT.709
Matrix coefficients : BT.709

Audio
ID : 2
Format : AAC LC SBR
Commercial name : HE-AAC
Format settings : Explicit
Codec ID : A_AAC-2
Duration : 43 min 0 s
Bit rate : 64.6 kb/s
Channel(s) : 2 channels
Channel layout : L R
Sampling rate : 48.0 kHz
Frame rate : 23.438 FPS (2048 SPF)
Compression mode : Lossy
Delay relative to video : 23 ms
Stream size : 19.9 MiB (11%)
Language : English
Default : Yes
Forced : No

Text
ID : 3
Format : UTF-8
Codec ID : S_TEXT/UTF8
Codec ID/Info : UTF-8 Plain Text
Duration : 42 min 52 s
Bit rate : 73 b/s
Count of elements : 837
Stream size : 23.1 KiB (0%)
Language : English
Default : Yes
Forced : No

Download

Direct download files get automatically deleted after a month or so. Posted on : 12/16/2020

[collapse]
Media Info and Download Links | S01E04

General
Format : Matroska
Format version : Version 4
File size : 209 MiB
Duration : 43 min 4 s
Overall bit rate : 678 kb/s
Movie name : Big.Sky.2020.S01E04.Unfinished.Business.720p.WEBRip.2CH.x265.HEVC

Video
ID : 1
Format : HEVC
Format/Info : High Efficiency Video Coding
Format profile : [email protected]@Main
Codec ID : V_MPEGH/ISO/HEVC
Duration : 43 min 4 s
Bit rate : 612 kb/s
Width : 1 280 pixels
Height : 720 pixels
Display aspect ratio : 16:9
Frame rate mode : Constant
Frame rate : 23.976 (24000/1001) FPS
Color space : YUV
Chroma subsampling : 4:2:0
Bit depth : 8 bits
Bits/(Pixel*Frame) : 0.028
Stream size : 189 MiB (90%)
Default : Yes
Forced : No
Color range : Limited
Color primaries : BT.709
Transfer characteristics : BT.709
Matrix coefficients : BT.709

Audio
ID : 2
Format : AAC LC SBR
Commercial name : HE-AAC
Format settings : Explicit
Codec ID : A_AAC-2
Duration : 43 min 4 s
Bit rate : 64.4 kb/s
Channel(s) : 2 channels
Channel layout : L R
Sampling rate : 48.0 kHz
Frame rate : 23.438 FPS (2048 SPF)
Compression mode : Lossy
Delay relative to video : 23 ms
Stream size : 19.8 MiB (9%)
Language : English
Default : Yes
Forced : No

Text
ID : 3
Format : UTF-8
Codec ID : S_TEXT/UTF8
Codec ID/Info : UTF-8 Plain Text
Duration : 42 min 54 s
Bit rate : 82 b/s
Count of elements : 964
Stream size : 26.0 KiB (0%)
Language : English
Default : Yes
Forced : No

Download

Direct download files get automatically deleted after a month or so. Posted on : 12/09/2020

[collapse]
Media Info and Download Links | S01E03

General
Format : Matroska
Format version : Version 4
File size : 230 MiB
Duration : 42 min 28 s
Overall bit rate : 756 kb/s
Movie name : Big.Sky.2020.S01E03.The.Big.Rick.720p.WEBRip.2CH.x265.HEVC

Video
ID : 1
Format : HEVC
Format/Info : High Efficiency Video Coding
Format profile : [email protected]@Main
Codec ID : V_MPEGH/ISO/HEVC
Duration : 42 min 28 s
Bit rate : 688 kb/s
Width : 1 280 pixels
Height : 720 pixels
Display aspect ratio : 16:9
Frame rate mode : Constant
Frame rate : 23.976 (24000/1001) FPS
Color space : YUV
Chroma subsampling : 4:2:0
Bit depth : 8 bits
Bits/(Pixel*Frame) : 0.031
Stream size : 209 MiB (91%)
Default : Yes
Forced : No
Color range : Limited
Color primaries : BT.709
Transfer characteristics : BT.709
Matrix coefficients : BT.709

Audio
ID : 2
Format : AAC LC SBR
Commercial name : HE-AAC
Format settings : Explicit
Codec ID : A_AAC-2
Duration : 42 min 28 s
Bit rate : 66.2 kb/s
Channel(s) : 2 channels
Channel layout : L R
Sampling rate : 48.0 kHz
Frame rate : 23.438 FPS (2048 SPF)
Compression mode : Lossy
Delay relative to video : 23 ms
Stream size : 20.1 MiB (9%)
Language : English
Default : Yes
Forced : No

Text
ID : 3
Format : UTF-8
Codec ID : S_TEXT/UTF8
Codec ID/Info : UTF-8 Plain Text
Duration : 42 min 20 s
Bit rate : 59 b/s
Count of elements : 770
Stream size : 18.6 KiB (0%)
Language : English
Default : Yes
Forced : No

Download

Direct download files get automatically deleted after a month or so. Posted on : 12/02/2020

[collapse]
Media Info and Download Links | S01E02

General
Format : Matroska
Format version : Version 4
File size : 206 MiB
Duration : 42 min 58 s
Overall bit rate : 670 kb/s
Movie name : Big.Sky.2020.S01E02.Nowhere.to.Run.720p.WEBRip.2CH.x265.HEVC

Video
ID : 1
Format : HEVC
Format/Info : High Efficiency Video Coding
Format profile : [email protected]@Main
Codec ID : V_MPEGH/ISO/HEVC
Duration : 42 min 58 s
Bit rate : 602 kb/s
Width : 1 280 pixels
Height : 720 pixels
Display aspect ratio : 16:9
Frame rate mode : Constant
Frame rate : 23.976 (24000/1001) FPS
Color space : YUV
Chroma subsampling : 4:2:0
Bit depth : 8 bits
Bits/(Pixel*Frame) : 0.027
Stream size : 185 MiB (90%)
Default : Yes
Forced : No
Color range : Limited
Color primaries : BT.709
Transfer characteristics : BT.709
Matrix coefficients : BT.709

Audio
ID : 2
Format : AAC LC SBR
Commercial name : HE-AAC
Format settings : Explicit
Codec ID : A_AAC-2
Duration : 42 min 58 s
Bit rate : 66.2 kb/s
Channel(s) : 2 channels
Channel layout : L R
Sampling rate : 48.0 kHz
Frame rate : 23.438 FPS (2048 SPF)
Compression mode : Lossy
Delay relative to video : 23 ms
Stream size : 20.2 MiB (10%)
Language : English
Default : Yes
Forced : No

Text
ID : 3
Format : UTF-8
Codec ID : S_TEXT/UTF8
Codec ID/Info : UTF-8 Plain Text
Duration : 42 min 49 s
Bit rate : 76 b/s
Count of elements : 849
Stream size : 24.1 KiB (0%)
Language : English
Default : Yes
Forced : No

Download

Direct download files get automatically deleted after a month or so. Posted on : 11/26/2020

[collapse]
Media Info and Download Links | S01E01

General
Format : Matroska
Format version : Version 4
File size : 208 MiB
Duration : 44 min 39 s
Overall bit rate : 651 kb/s
Movie name : Big.Sky.2020.S01E01.Pilot.720p.WEBRip.2CH.x265.HEVC

Video
ID : 1
Format : HEVC
Format/Info : High Efficiency Video Coding
Format profile : [email protected]@Main
Codec ID : V_MPEGH/ISO/HEVC
Duration : 44 min 39 s
Bit rate : 587 kb/s
Width : 1 280 pixels
Height : 720 pixels
Display aspect ratio : 16:9
Frame rate mode : Constant
Frame rate : 23.976 (24000/1001) FPS
Color space : YUV
Chroma subsampling : 4:2:0
Bit depth : 8 bits
Bits/(Pixel*Frame) : 0.027
Stream size : 187 MiB (90%)
Default : Yes
Forced : No
Color range : Limited
Color primaries : BT.709
Transfer characteristics : BT.709
Matrix coefficients : BT.709

Audio
ID : 2
Format : AAC LC SBR
Commercial name : HE-AAC
Format settings : Explicit
Codec ID : A_AAC-2
Duration : 44 min 39 s
Bit rate : 62.6 kb/s
Channel(s) : 2 channels
Channel layout : L R
Sampling rate : 48.0 kHz
Frame rate : 23.438 FPS (2048 SPF)
Compression mode : Lossy
Delay relative to video : 23 ms
Stream size : 20.0 MiB (10%)
Language : English
Default : Yes
Forced : No

Text
ID : 3
Format : UTF-8
Codec ID : S_TEXT/UTF8
Codec ID/Info : UTF-8 Plain Text
Duration : 44 min 30 s
Bit rate : 80 b/s
Count of elements : 1002
Stream size : 26.4 KiB (0%)
Language : English
Default : Yes
Forced : No

Download

Direct download files get automatically deleted after a month or so. Posted on : 11/18/2020

[collapse]

You may also like...

error: nah :p~