And Just Like That… (2021)

Comedy, Drama, Romance

The series will follow Carrie, Miranda and Charlotte as they navigate the journey from the complicated reality of life and friendship in their 30s to the even more complicated reality of life and friendship in their 50s.

Watch trailer

Media Info and Download Links | S01E08

General
Format : Matroska
Format version : Version 4
File size : 178 MiB
Duration : 37 min 15 s
Overall bit rate : 668 kb/s
Movie name : And.Just.Like.That.S01E08.Bewitched.Bothered.and.Bewildered.720p.WEBRip.2CH.x265.HEVC

Video
ID : 1
Format : HEVC
Format/Info : High Efficiency Video Coding
Format profile : [email protected]@Main
Codec ID : V_MPEGH/ISO/HEVC
Duration : 37 min 15 s
Bit rate : 601 kb/s
Width : 1 280 pixels
Height : 640 pixels
Display aspect ratio : 2.000
Frame rate mode : Constant
Frame rate : 23.976 (24000/1001) FPS
Color space : YUV
Chroma subsampling : 4:2:0
Bit depth : 8 bits
Bits/(Pixel*Frame) : 0.031
Stream size : 160 MiB (90%)
Default : Yes
Forced : No
Color range : Limited
Color primaries : BT.709
Transfer characteristics : BT.709
Matrix coefficients : BT.709

Audio
ID : 2
Format : AAC LC SBR
Commercial name : HE-AAC
Format settings : Explicit
Codec ID : A_AAC-2
Duration : 37 min 15 s
Bit rate : 64.0 kb/s
Channel(s) : 2 channels
Channel layout : L R
Sampling rate : 48.0 kHz
Frame rate : 23.438 FPS (2048 SPF)
Compression mode : Lossy
Delay relative to video : 23 ms
Stream size : 17.0 MiB (10%)
Language : English
Default : Yes
Forced : No

Text #1
ID : 3
Format : UTF-8
Codec ID : S_TEXT/UTF8
Codec ID/Info : UTF-8 Plain Text
Duration : 37 min 4 s
Bit rate : 90 b/s
Count of elements : 732
Stream size : 24.4 KiB (0%)
Title : English
Language : English
Default : Yes
Forced : No

Text #2
ID : 4
Format : UTF-8
Codec ID : S_TEXT/UTF8
Codec ID/Info : UTF-8 Plain Text
Duration : 37 min 2 s
Bit rate : 76 b/s
Count of elements : 577
Stream size : 20.7 KiB (0%)
Title : Latin America Spanish
Language : Spanish
Default : No
Forced : No

Text #3
ID : 5
Format : UTF-8
Codec ID : S_TEXT/UTF8
Codec ID/Info : UTF-8 Plain Text
Duration : 37 min 2 s
Bit rate : 72 b/s
Count of elements : 576
Stream size : 19.8 KiB (0%)
Title : Portuguese Brazilian
Language : Portuguese
Default : No
Forced : No

Download

Direct download files get automatically deleted after a month or so. Posted on : 01/20/2022

[collapse]
Media Info and Download Links | S01E07

General
Format : Matroska
Format version : Version 4
File size : 201 MiB
Duration : 37 min 52 s
Overall bit rate : 742 kb/s
Movie name : And.Just.Like.That.S01E07.Sex.and.the.Widow.720p.WEBRip.2CH.x265.HEVC

Video
ID : 1
Format : HEVC
Format/Info : High Efficiency Video Coding
Format profile : [email protected]@Main
Codec ID : V_MPEGH/ISO/HEVC
Duration : 37 min 52 s
Bit rate : 675 kb/s
Width : 1 280 pixels
Height : 640 pixels
Display aspect ratio : 2.000
Frame rate mode : Constant
Frame rate : 23.976 (24000/1001) FPS
Color space : YUV
Chroma subsampling : 4:2:0
Bit depth : 8 bits
Bits/(Pixel*Frame) : 0.034
Stream size : 183 MiB (91%)
Default : Yes
Forced : No
Color range : Limited
Color primaries : BT.709
Transfer characteristics : BT.709
Matrix coefficients : BT.709

Audio
ID : 2
Format : AAC LC SBR
Commercial name : HE-AAC
Format settings : Explicit
Codec ID : A_AAC-2
Duration : 37 min 51 s
Bit rate : 64.7 kb/s
Channel(s) : 2 channels
Channel layout : L R
Sampling rate : 48.0 kHz
Frame rate : 23.438 FPS (2048 SPF)
Compression mode : Lossy
Delay relative to video : 23 ms
Stream size : 17.5 MiB (9%)
Language : English
Default : Yes
Forced : No

Text #1
ID : 3
Format : UTF-8
Codec ID : S_TEXT/UTF8
Codec ID/Info : UTF-8 Plain Text
Duration : 37 min 25 s
Bit rate : 95 b/s
Count of elements : 730
Stream size : 26.2 KiB (0%)
Title : English [CC]
Language : English
Default : Yes
Forced : No

Text #2
ID : 4
Format : UTF-8
Codec ID : S_TEXT/UTF8
Codec ID/Info : UTF-8 Plain Text
Duration : 34 min 23 s
Bit rate : 85 b/s
Count of elements : 664
Stream size : 21.6 KiB (0%)
Title : Latin American Spanish
Language : Spanish
Default : No
Forced : No

Text #3
ID : 5
Format : UTF-8
Codec ID : S_TEXT/UTF8
Codec ID/Info : UTF-8 Plain Text
Duration : 34 min 23 s
Bit rate : 80 b/s
Count of elements : 668
Stream size : 20.3 KiB (0%)
Title : Brazilian Portuguese
Language : Portuguese
Default : No
Forced : No

Download

Direct download files get automatically deleted after a month or so. Posted on : 01/13/2022

[collapse]
Media Info and Download Links | S01E06

General
Format : Matroska
Format version : Version 4
File size : 191 MiB
Duration : 38 min 0 s
Overall bit rate : 702 kb/s
Movie name : And.Just.Like.That.S01E06.Diwali.720p.WEBRip.2CH.x265.HEVC

Video
ID : 1
Format : HEVC
Format/Info : High Efficiency Video Coding
Format profile : [email protected]@Main
Codec ID : V_MPEGH/ISO/HEVC
Duration : 38 min 0 s
Bit rate : 634 kb/s
Width : 1 280 pixels
Height : 640 pixels
Display aspect ratio : 2.000
Frame rate mode : Constant
Frame rate : 23.976 (24000/1001) FPS
Color space : YUV
Chroma subsampling : 4:2:0
Bit depth : 8 bits
Bits/(Pixel*Frame) : 0.032
Stream size : 172 MiB (90%)
Default : Yes
Forced : No
Color range : Limited
Color primaries : BT.709
Transfer characteristics : BT.709
Matrix coefficients : BT.709

Audio
ID : 2
Format : AAC LC SBR
Commercial name : HE-AAC
Format settings : Explicit
Codec ID : A_AAC-2
Duration : 38 min 0 s
Bit rate : 66.2 kb/s
Channel(s) : 2 channels
Channel layout : L R
Sampling rate : 48.0 kHz
Frame rate : 23.438 FPS (2048 SPF)
Compression mode : Lossy
Delay relative to video : 23 ms
Stream size : 17.9 MiB (9%)
Language : English
Default : Yes
Forced : No

Text #1
ID : 3
Format : UTF-8
Codec ID : S_TEXT/UTF8
Codec ID/Info : UTF-8 Plain Text
Duration : 37 min 41 s
Bit rate : 89 b/s
Count of elements : 698
Stream size : 24.8 KiB (0%)
Title : English [CC]
Language : English
Default : Yes
Forced : No

Text #2
ID : 4
Format : UTF-8
Codec ID : S_TEXT/UTF8
Codec ID/Info : UTF-8 Plain Text
Duration : 35 min 17 s
Bit rate : 81 b/s
Count of elements : 626
Stream size : 21.2 KiB (0%)
Title : Latin American Spanish
Language : Spanish
Default : No
Forced : No

Text #3
ID : 5
Format : UTF-8
Codec ID : S_TEXT/UTF8
Codec ID/Info : UTF-8 Plain Text
Duration : 35 min 18 s
Bit rate : 87 b/s
Count of elements : 627
Stream size : 22.7 KiB (0%)
Title : Brazilian Portuguese
Language : Portuguese
Default : No
Forced : No

Download

Direct download files get automatically deleted after a month or so. Posted on : 01/06/2022

[collapse]
Media Info and Download Links | S01E05

General
Format : Matroska
Format version : Version 4
File size : 176 MiB
Duration : 38 min 43 s
Overall bit rate : 634 kb/s
Movie name : And.Just.Like.That.S01E05.Tragically.Hip.720p.WEBRip.2CH.x265.HEVC

Video
ID : 1
Format : HEVC
Format/Info : High Efficiency Video Coding
Format profile : [email protected]@Main
Codec ID : V_MPEGH/ISO/HEVC
Duration : 38 min 43 s
Bit rate : 568 kb/s
Width : 1 280 pixels
Height : 640 pixels
Display aspect ratio : 2.000
Frame rate mode : Constant
Frame rate : 23.976 (24000/1001) FPS
Color space : YUV
Chroma subsampling : 4:2:0
Bit depth : 8 bits
Bits/(Pixel*Frame) : 0.029
Stream size : 157 MiB (90%)
Default : Yes
Forced : No
Color range : Limited
Color primaries : BT.709
Transfer characteristics : BT.709
Matrix coefficients : BT.709

Audio
ID : 2
Format : AAC LC SBR
Commercial name : HE-AAC
Format settings : Explicit
Codec ID : A_AAC-2
Duration : 38 min 43 s
Bit rate : 63.6 kb/s
Channel(s) : 2 channels
Channel layout : L R
Sampling rate : 48.0 kHz
Frame rate : 23.438 FPS (2048 SPF)
Compression mode : Lossy
Delay relative to video : 23 ms
Stream size : 17.6 MiB (10%)
Language : English
Default : Yes
Forced : No

Text #1
ID : 3
Format : UTF-8
Codec ID : S_TEXT/UTF8
Codec ID/Info : UTF-8 Plain Text
Duration : 38 min 25 s
Bit rate : 89 b/s
Count of elements : 760
Stream size : 25.1 KiB (0%)
Title : English
Language : English
Default : Yes
Forced : No

Text #2
ID : 4
Format : UTF-8
Codec ID : S_TEXT/UTF8
Codec ID/Info : UTF-8 Plain Text
Duration : 38 min 23 s
Bit rate : 74 b/s
Count of elements : 601
Stream size : 21.0 KiB (0%)
Title : Latin America Spanish
Language : Spanish
Default : No
Forced : No

Text #3
ID : 5
Format : UTF-8
Codec ID : S_TEXT/UTF8
Codec ID/Info : UTF-8 Plain Text
Duration : 38 min 23 s
Bit rate : 76 b/s
Count of elements : 602
Stream size : 21.6 KiB (0%)
Title : Portuguese Brazilian
Language : Portuguese
Default : No
Forced : No

Download

Direct download files get automatically deleted after a month or so. Posted on : 12/30/2021

[collapse]
Media Info and Download Links | S01E04

General
Format : Matroska
Format version : Version 4
File size : 197 MiB
Duration : 38 min 18 s
Overall bit rate : 720 kb/s
Movie name : And.Just.Like.That.S01E04.Some.of.My.Best.Friends.720p.WEBRip.2CH.x265.HEVC

Video
ID : 1
Format : HEVC
Format/Info : High Efficiency Video Coding
Format profile : [email protected]@Main
Codec ID : V_MPEGH/ISO/HEVC
Duration : 38 min 18 s
Bit rate : 653 kb/s
Width : 1 280 pixels
Height : 640 pixels
Display aspect ratio : 2.000
Frame rate mode : Constant
Frame rate : 23.976 (24000/1001) FPS
Color space : YUV
Chroma subsampling : 4:2:0
Bit depth : 8 bits
Bits/(Pixel*Frame) : 0.033
Stream size : 179 MiB (91%)
Default : Yes
Forced : No
Color range : Limited
Color primaries : BT.709
Transfer characteristics : BT.709
Matrix coefficients : BT.709

Audio
ID : 2
Format : AAC LC SBR
Commercial name : HE-AAC
Format settings : Explicit
Codec ID : A_AAC-2
Duration : 38 min 18 s
Bit rate : 64.7 kb/s
Channel(s) : 2 channels
Channel layout : L R
Sampling rate : 48.0 kHz
Frame rate : 23.438 FPS (2048 SPF)
Compression mode : Lossy
Delay relative to video : 23 ms
Stream size : 17.7 MiB (9%)
Language : English
Default : Yes
Forced : No

Text #1
ID : 3
Format : UTF-8
Codec ID : S_TEXT/UTF8
Codec ID/Info : UTF-8 Plain Text
Duration : 37 min 54 s
Bit rate : 95 b/s
Count of elements : 756
Stream size : 26.4 KiB (0%)
Title : English [CC]
Language : English
Default : Yes
Forced : No

Text #2
ID : 4
Format : UTF-8
Codec ID : S_TEXT/UTF8
Codec ID/Info : UTF-8 Plain Text
Duration : 35 min 32 s
Bit rate : 85 b/s
Count of elements : 690
Stream size : 22.1 KiB (0%)
Title : Latin American Spanish
Language : Spanish
Default : No
Forced : No

Text #3
ID : 5
Format : UTF-8
Codec ID : S_TEXT/UTF8
Codec ID/Info : UTF-8 Plain Text
Duration : 35 min 32 s
Bit rate : 88 b/s
Count of elements : 691
Stream size : 23.1 KiB (0%)
Title : Brazilian Portuguese
Language : Portuguese
Default : No
Forced : No

Download

Direct download files get automatically deleted after a month or so. Posted on : 12/23/2021

[collapse]
Media Info and Download Links | S01E03

General
Format : Matroska
Format version : Version 4
File size : 222 MiB
Duration : 45 min 1 s
Overall bit rate : 690 kb/s
Movie name : And.Just.Like.That.S01E03.When.in.Rome.720p.WEBRip.2CH.x265.HEVC

Video
ID : 1
Format : HEVC
Format/Info : High Efficiency Video Coding
Format profile : [email protected]@Main
Codec ID : V_MPEGH/ISO/HEVC
Duration : 45 min 1 s
Bit rate : 624 kb/s
Width : 1 280 pixels
Height : 640 pixels
Display aspect ratio : 2.000
Frame rate mode : Constant
Frame rate : 23.976 (24000/1001) FPS
Color space : YUV
Chroma subsampling : 4:2:0
Bit depth : 8 bits
Bits/(Pixel*Frame) : 0.032
Stream size : 201 MiB (90%)
Default : Yes
Forced : No
Color range : Limited
Color primaries : BT.709
Transfer characteristics : BT.709
Matrix coefficients : BT.709

Audio
ID : 2
Format : AAC LC SBR
Commercial name : HE-AAC
Format settings : Explicit
Codec ID : A_AAC-2
Duration : 45 min 1 s
Bit rate : 64.4 kb/s
Channel(s) : 2 channels
Channel layout : L R
Sampling rate : 48.0 kHz
Frame rate : 23.438 FPS (2048 SPF)
Compression mode : Lossy
Delay relative to video : 23 ms
Stream size : 20.7 MiB (9%)
Language : English
Default : Yes
Forced : No

Text #1
ID : 3
Format : UTF-8
Codec ID : S_TEXT/UTF8
Codec ID/Info : UTF-8 Plain Text
Duration : 44 min 29 s
Bit rate : 85 b/s
Count of elements : 848
Stream size : 28.0 KiB (0%)
Title : English
Language : English
Default : Yes
Forced : No

Text #2
ID : 4
Format : UTF-8
Codec ID : S_TEXT/UTF8
Codec ID/Info : UTF-8 Plain Text
Duration : 44 min 49 s
Bit rate : 77 b/s
Count of elements : 727
Stream size : 25.4 KiB (0%)
Title : Latin America Spanish
Language : Spanish
Default : No
Forced : No

Text #3
ID : 5
Format : UTF-8
Codec ID : S_TEXT/UTF8
Codec ID/Info : UTF-8 Plain Text
Duration : 44 min 49 s
Bit rate : 76 b/s
Count of elements : 726
Stream size : 25.0 KiB (0%)
Title : Portuguese Brazilian
Language : Portuguese
Default : No
Forced : No

Download

Direct download files get automatically deleted after a month or so. Posted on : 12/16/2021

[collapse]
Media Info and Download Links | S01E02

General
Format : Matroska
Format version : Version 4
File size : 188 MiB
Duration : 42 min 54 s
Overall bit rate : 614 kb/s
Movie name : And.Just.Like.That.S01E02.Little.Black.Dress.720p.WEBRip.2CH.x265.HEVC

Video
ID : 1
Format : HEVC
Format/Info : High Efficiency Video Coding
Format profile : [email protected]@Main
Codec ID : V_MPEGH/ISO/HEVC
Duration : 42 min 54 s
Bit rate : 549 kb/s
Width : 1 280 pixels
Height : 640 pixels
Display aspect ratio : 2.000
Frame rate mode : Constant
Frame rate : 23.976 (24000/1001) FPS
Color space : YUV
Chroma subsampling : 4:2:0
Bit depth : 8 bits
Bits/(Pixel*Frame) : 0.028
Stream size : 168 MiB (89%)
Default : Yes
Forced : No
Color range : Limited
Color primaries : BT.709
Transfer characteristics : BT.709
Matrix coefficients : BT.709

Audio
ID : 2
Format : AAC LC SBR
Commercial name : HE-AAC
Format settings : Explicit
Codec ID : A_AAC-2
Duration : 42 min 54 s
Bit rate : 62.8 kb/s
Channel(s) : 2 channels
Channel layout : L R
Sampling rate : 48.0 kHz
Frame rate : 23.438 FPS (2048 SPF)
Compression mode : Lossy
Delay relative to video : 23 ms
Stream size : 19.3 MiB (10%)
Language : English
Default : Yes
Forced : No

Text #1
ID : 3
Format : UTF-8
Codec ID : S_TEXT/UTF8
Codec ID/Info : UTF-8 Plain Text
Duration : 42 min 35 s
Bit rate : 70 b/s
Count of elements : 701
Stream size : 21.9 KiB (0%)
Title : English
Language : English
Default : Yes
Forced : No

Text #2
ID : 4
Format : UTF-8
Codec ID : S_TEXT/UTF8
Codec ID/Info : UTF-8 Plain Text
Duration : 42 min 29 s
Bit rate : 60 b/s
Count of elements : 620
Stream size : 18.8 KiB (0%)
Title : Latin America Spanish
Language : Spanish
Default : No
Forced : No

Text #3
ID : 5
Format : UTF-8
Codec ID : S_TEXT/UTF8
Codec ID/Info : UTF-8 Plain Text
Duration : 40 min 8 s
Bit rate : 59 b/s
Count of elements : 618
Stream size : 17.6 KiB (0%)
Title : Portuguese Brazilian
Language : Portuguese
Default : No
Forced : No

Download

Direct download files get automatically deleted after a month or so. Posted on : 12/09/2021

[collapse]
Media Info and Download Links | S01E01

General
Format : Matroska
Format version : Version 4
File size : 211 MiB
Duration : 44 min 10 s
Overall bit rate : 668 kb/s
Movie name : And.Just.Like.That.S01E01.Hello.It’s.Me.720p.WEBRip.2CH.x265.HEVC

Video
ID : 1
Format : HEVC
Format/Info : High Efficiency Video Coding
Format profile : [email protected]@Main
Codec ID : V_MPEGH/ISO/HEVC
Duration : 44 min 10 s
Bit rate : 601 kb/s
Width : 1 280 pixels
Height : 640 pixels
Display aspect ratio : 2.000
Frame rate mode : Constant
Frame rate : 23.976 (24000/1001) FPS
Color space : YUV
Chroma subsampling : 4:2:0
Bit depth : 8 bits
Bits/(Pixel*Frame) : 0.031
Stream size : 190 MiB (90%)
Default : Yes
Forced : No
Color range : Limited
Color primaries : BT.709
Transfer characteristics : BT.709
Matrix coefficients : BT.709

Audio
ID : 2
Format : AAC LC SBR
Commercial name : HE-AAC
Format settings : Explicit
Codec ID : A_AAC-2
Duration : 44 min 9 s
Bit rate : 66.2 kb/s
Channel(s) : 2 channels
Channel layout : L R
Sampling rate : 48.0 kHz
Frame rate : 23.438 FPS (2048 SPF)
Compression mode : Lossy
Delay relative to video : 23 ms
Stream size : 20.5 MiB (10%)
Language : English
Default : Yes
Forced : No

Text #1
ID : 3
Format : UTF-8
Codec ID : S_TEXT/UTF8
Codec ID/Info : UTF-8 Plain Text
Duration : 43 min 54 s
Bit rate : 89 b/s
Count of elements : 856
Stream size : 28.7 KiB (0%)
Title : English
Language : English
Default : Yes
Forced : No

Text #2
ID : 4
Format : UTF-8
Codec ID : S_TEXT/UTF8
Codec ID/Info : UTF-8 Plain Text
Duration : 43 min 47 s
Bit rate : 76 b/s
Count of elements : 663
Stream size : 24.6 KiB (0%)
Title : Latin America Spanish
Language : Spanish
Default : No
Forced : No

Text #3
ID : 5
Format : UTF-8
Codec ID : S_TEXT/UTF8
Codec ID/Info : UTF-8 Plain Text
Duration : 41 min 19 s
Bit rate : 75 b/s
Count of elements : 661
Stream size : 22.9 KiB (0%)
Title : Portuguese Brazilian
Language : Portuguese
Default : No
Forced : No

Text #4
ID : 6
Format : UTF-8
Codec ID : S_TEXT/UTF8
Codec ID/Info : UTF-8 Plain Text
Duration : 1 min 49 s
Bit rate : 28 b/s
Count of elements : 11
Stream size : 390 Bytes (0%)
Title : Portuguese [Forced]
Language : Portuguese
Default : No
Forced : Yes

Download

Direct download files get automatically deleted after a month or so. Posted on : 12/09/2021

[collapse]

You may also like...

error: nah :p~