And Just Like That… (2021)

Comedy, Drama, Romance

The series will follow Carrie, Miranda and Charlotte as they navigate the journey from the complicated reality of life and friendship in their 30s to the even more complicated reality of life and friendship in their 50s.

Watch trailer

Media Info and Download Links | S02E11

General
Format : Matroska
Format version : Version 4
File size : 215 MiB
Duration : 43 min 2 s
Overall bit rate : 698 kb/s
Frame rate : 23.976 FPS
Movie name : And.Just.Like.That.S02E11.720p.10bit.WEBRip.2CH.x265.HEVC

Video
ID : 1
Format : HEVC
Format/Info : High Efficiency Video Coding
Format profile : Main [email protected]@Main
Codec ID : V_MPEGH/ISO/HEVC
Duration : 43 min 2 s
Bit rate : 628 kb/s
Width : 1 280 pixels
Height : 640 pixels
Display aspect ratio : 2.000
Frame rate mode : Constant
Frame rate : 23.976 (24000/1001) FPS
Color space : YUV
Chroma subsampling : 4:2:0
Bit depth : 10 bits
Bits/(Pixel*Frame) : 0.032
Stream size : 193 MiB (90%)
Default : Yes
Forced : No
Color range : Limited
Color primaries : BT.709
Transfer characteristics : BT.709
Matrix coefficients : BT.709

Audio
ID : 2
Format : AAC LC SBR
Commercial name : HE-AAC
Format settings : Explicit
Codec ID : A_AAC-2
Duration : 43 min 2 s
Bit rate : 64.6 kb/s
Channel(s) : 2 channels
Channel layout : L R
Sampling rate : 48.0 kHz
Frame rate : 23.438 FPS (2048 SPF)
Compression mode : Lossy
Delay relative to video : 23 ms
Stream size : 19.9 MiB (9%)
Language : English
Default : Yes
Forced : No

Text #1
ID : 3
Format : UTF-8
Codec ID : S_TEXT/UTF8
Codec ID/Info : UTF-8 Plain Text
Duration : 41 min 33 s
Bit rate : 72 b/s
Frame rate : 0.272 FPS
Count of elements : 677
Stream size : 22.2 KiB (0%)
Language : English (US)
Default : No
Forced : No

Text #2
ID : 4
Format : UTF-8
Codec ID : S_TEXT/UTF8
Codec ID/Info : UTF-8 Plain Text
Duration : 42 min 55 s
Bit rate : 88 b/s
Frame rate : 0.341 FPS
Count of elements : 877
Stream size : 27.8 KiB (0%)
Title : SDH
Language : English (US)
Default : Yes
Forced : No

Text #3
ID : 5
Format : UTF-8
Codec ID : S_TEXT/UTF8
Codec ID/Info : UTF-8 Plain Text
Duration : 42 min 56 s
Bit rate : 113 b/s
Frame rate : 0.265 FPS
Count of elements : 682
Stream size : 35.8 KiB (0%)
Language : Bulgarian (BG)
Default : No
Forced : No

Text #4
ID : 6
Format : UTF-8
Codec ID : S_TEXT/UTF8
Codec ID/Info : UTF-8 Plain Text
Duration : 41 min 48 s
Bit rate : 68 b/s
Frame rate : 0.277 FPS
Count of elements : 695
Stream size : 20.8 KiB (0%)
Title : Czechia
Language : Czech (CZ)
Default : No
Forced : No

Text #5
ID : 7
Format : UTF-8
Codec ID : S_TEXT/UTF8
Codec ID/Info : UTF-8 Plain Text
Duration : 42 min 56 s
Bit rate : 71 b/s
Frame rate : 0.220 FPS
Count of elements : 567
Stream size : 22.6 KiB (0%)
Language : Danish (DK)
Default : No
Forced : No

Text #6
ID : 8
Format : UTF-8
Codec ID : S_TEXT/UTF8
Codec ID/Info : UTF-8 Plain Text
Duration : 42 min 53 s
Bit rate : 63 b/s
Frame rate : 0.267 FPS
Count of elements : 687
Stream size : 20.1 KiB (0%)
Title : Latin America
Language : Spanish (Latin America)
Default : No
Forced : No

Text #7
ID : 9
Format : UTF-8
Codec ID : S_TEXT/UTF8
Codec ID/Info : UTF-8 Plain Text
Duration : 41 min 45 s
Bit rate : 70 b/s
Frame rate : 0.245 FPS
Count of elements : 613
Stream size : 21.5 KiB (0%)
Language : Spanish (ES)
Default : No
Forced : No

Text #8
ID : 10
Format : UTF-8
Codec ID : S_TEXT/UTF8
Codec ID/Info : UTF-8 Plain Text
Duration : 42 min 56 s
Bit rate : 66 b/s
Frame rate : 0.265 FPS
Count of elements : 682
Stream size : 20.8 KiB (0%)
Title : Estonia
Language : Estonian (EE)
Default : No
Forced : No

Text #9
ID : 11
Format : UTF-8
Codec ID : S_TEXT/UTF8
Codec ID/Info : UTF-8 Plain Text
Duration : 42 min 56 s
Bit rate : 65 b/s
Frame rate : 0.250 FPS
Count of elements : 645
Stream size : 20.5 KiB (0%)
Language : Finnish (FI)
Default : No
Forced : No

Text #10
ID : 12
Format : UTF-8
Codec ID : S_TEXT/UTF8
Codec ID/Info : UTF-8 Plain Text
Duration : 42 min 56 s
Bit rate : 63 b/s
Frame rate : 0.264 FPS
Count of elements : 679
Stream size : 20.0 KiB (0%)
Language : Croatian (HR)
Default : No
Forced : No

Text #11
ID : 13
Format : UTF-8
Codec ID : S_TEXT/UTF8
Codec ID/Info : UTF-8 Plain Text
Duration : 41 min 51 s
Bit rate : 68 b/s
Frame rate : 0.278 FPS
Count of elements : 698
Stream size : 21.1 KiB (0%)
Language : Hungarian (HU)
Default : No
Forced : No

Text #12
ID : 14
Format : UTF-8
Codec ID : S_TEXT/UTF8
Codec ID/Info : UTF-8 Plain Text
Duration : 42 min 56 s
Bit rate : 68 b/s
Frame rate : 0.265 FPS
Count of elements : 682
Stream size : 21.5 KiB (0%)
Language : Lithuanian (LT)
Default : No
Forced : No

Text #13
ID : 15
Format : UTF-8
Codec ID : S_TEXT/UTF8
Codec ID/Info : UTF-8 Plain Text
Duration : 42 min 56 s
Bit rate : 68 b/s
Frame rate : 0.265 FPS
Count of elements : 682
Stream size : 21.5 KiB (0%)
Language : Latvian (LV)
Default : No
Forced : No

Text #14
ID : 16
Format : UTF-8
Codec ID : S_TEXT/UTF8
Codec ID/Info : UTF-8 Plain Text
Duration : 42 min 56 s
Bit rate : 109 b/s
Frame rate : 0.265 FPS
Count of elements : 682
Stream size : 34.5 KiB (0%)
Language : Macedonian (MK)
Default : No
Forced : No

Text #15
ID : 17
Format : UTF-8
Codec ID : S_TEXT/UTF8
Codec ID/Info : UTF-8 Plain Text
Duration : 42 min 56 s
Bit rate : 66 b/s
Frame rate : 0.214 FPS
Count of elements : 551
Stream size : 21.0 KiB (0%)
Language : Dutch (NL)
Default : No
Forced : No

Text #16
ID : 18
Format : UTF-8
Codec ID : S_TEXT/UTF8
Codec ID/Info : UTF-8 Plain Text
Duration : 42 min 56 s
Bit rate : 67 b/s
Frame rate : 0.241 FPS
Count of elements : 621
Stream size : 21.4 KiB (0%)
Language : Norwegian (NO)
Default : No
Forced : No

Text #17
ID : 19
Format : UTF-8
Codec ID : S_TEXT/UTF8
Codec ID/Info : UTF-8 Plain Text
Duration : 41 min 49 s
Bit rate : 58 b/s
Frame rate : 0.275 FPS
Count of elements : 691
Stream size : 17.9 KiB (0%)
Language : Polish (PL)
Default : No
Forced : No

Text #18
ID : 20
Format : UTF-8
Codec ID : S_TEXT/UTF8
Codec ID/Info : UTF-8 Plain Text
Duration : 42 min 53 s
Bit rate : 65 b/s
Frame rate : 0.267 FPS
Count of elements : 687
Stream size : 20.6 KiB (0%)
Title : Brazil
Language : Portuguese (BR)
Default : No
Forced : No

Text #19
ID : 21
Format : UTF-8
Codec ID : S_TEXT/UTF8
Codec ID/Info : UTF-8 Plain Text
Duration : 42 min 56 s
Bit rate : 70 b/s
Frame rate : 0.264 FPS
Count of elements : 680
Stream size : 22.3 KiB (0%)
Language : Portuguese (PT)
Default : No
Forced : No

Text #20
ID : 22
Format : UTF-8
Codec ID : S_TEXT/UTF8
Codec ID/Info : UTF-8 Plain Text
Duration : 42 min 56 s
Bit rate : 70 b/s
Frame rate : 0.248 FPS
Count of elements : 638
Stream size : 22.0 KiB (0%)
Language : Romanian (RO)
Default : No
Forced : No

Text #21
ID : 23
Format : UTF-8
Codec ID : S_TEXT/UTF8
Codec ID/Info : UTF-8 Plain Text
Duration : 41 min 49 s
Bit rate : 119 b/s
Frame rate : 0.283 FPS
Count of elements : 710
Stream size : 36.7 KiB (0%)
Language : Russian (RU)
Default : No
Forced : No

Text #22
ID : 24
Format : UTF-8
Codec ID : S_TEXT/UTF8
Codec ID/Info : UTF-8 Plain Text
Duration : 42 min 56 s
Bit rate : 60 b/s
Frame rate : 0.212 FPS
Count of elements : 546
Stream size : 19.0 KiB (0%)
Title : Slovenia
Language : Slovenian (SI)
Default : No
Forced : No

Text #23
ID : 25
Format : UTF-8
Codec ID : S_TEXT/UTF8
Codec ID/Info : UTF-8 Plain Text
Duration : 42 min 56 s
Bit rate : 62 b/s
Frame rate : 0.265 FPS
Count of elements : 682
Stream size : 19.7 KiB (0%)
Title : Latin, Serbia
Language : Serbian-Latn-RS
Default : No
Forced : No

Text #24
ID : 26
Format : UTF-8
Codec ID : S_TEXT/UTF8
Codec ID/Info : UTF-8 Plain Text
Duration : 42 min 56 s
Bit rate : 68 b/s
Frame rate : 0.223 FPS
Count of elements : 574
Stream size : 21.5 KiB (0%)
Language : Swedish (SE)
Default : No
Forced : No

Text #25
ID : 27
Format : UTF-8
Codec ID : S_TEXT/UTF8
Codec ID/Info : UTF-8 Plain Text
Duration : 42 min 55 s
Bit rate : 79 b/s
Frame rate : 0.327 FPS
Count of elements : 841
Stream size : 24.9 KiB (0%)
Title : Latin America (SDH)
Language : Spanish (Latin America)
Default : No
Forced : No

Download

Direct download files get automatically deleted after a month or so. Posted on : 08/24/2023

[collapse]
Media Info and Download Links | S02E10

General
Format : Matroska
Format version : Version 4
File size : 201 MiB
Duration : 43 min 59 s
Overall bit rate : 638 kb/s
Frame rate : 24.000 FPS
Movie name : And.Just.Like.That.S02E10.720p.10bit.WEBRip.2CH.x265.HEVC

Video
ID : 1
Format : HEVC
Format/Info : High Efficiency Video Coding
Format profile : Main [email protected]@Main
Codec ID : V_MPEGH/ISO/HEVC
Duration : 43 min 59 s
Bit rate : 571 kb/s
Width : 1 280 pixels
Height : 640 pixels
Display aspect ratio : 2.000
Frame rate mode : Constant
Frame rate : 24.000 FPS
Color space : YUV
Chroma subsampling : 4:2:0
Bit depth : 10 bits
Bits/(Pixel*Frame) : 0.029
Stream size : 180 MiB (90%)
Default : Yes
Forced : No
Color range : Limited
Color primaries : BT.709
Transfer characteristics : BT.709
Matrix coefficients : BT.709

Audio
ID : 2
Format : AAC LC SBR
Commercial name : HE-AAC
Format settings : Explicit
Codec ID : A_AAC-2
Duration : 43 min 58 s
Bit rate : 64.0 kb/s
Channel(s) : 2 channels
Channel layout : L R
Sampling rate : 48.0 kHz
Frame rate : 23.438 FPS (2048 SPF)
Compression mode : Lossy
Delay relative to video : 23 ms
Stream size : 20.1 MiB (10%)
Language : English
Default : Yes
Forced : No

Text #1
ID : 3
Format : UTF-8
Codec ID : S_TEXT/UTF8
Codec ID/Info : UTF-8 Plain Text
Duration : 42 min 12 s
Bit rate : 87 b/s
Frame rate : 0.297 FPS
Count of elements : 753
Stream size : 26.9 KiB (0%)
Title : English
Language : English
Default : No
Forced : No

Text #2
ID : 4
Format : UTF-8
Codec ID : S_TEXT/UTF8
Codec ID/Info : UTF-8 Plain Text
Duration : 43 min 52 s
Bit rate : 99 b/s
Frame rate : 0.354 FPS
Count of elements : 932
Stream size : 31.9 KiB (0%)
Title : English (SDH)
Language : English
Default : Yes
Forced : No

Text #3
ID : 5
Format : UTF-8
Codec ID : S_TEXT/UTF8
Codec ID/Info : UTF-8 Plain Text
Duration : 43 min 48 s
Bit rate : 75 b/s
Frame rate : 0.295 FPS
Count of elements : 775
Stream size : 24.2 KiB (0%)
Title : Español
Language : Spanish
Default : No
Forced : No

Text #4
ID : 6
Format : UTF-8
Codec ID : S_TEXT/UTF8
Codec ID/Info : UTF-8 Plain Text
Duration : 43 min 48 s
Bit rate : 76 b/s
Frame rate : 0.294 FPS
Count of elements : 774
Stream size : 24.4 KiB (0%)
Title : Português
Language : Portuguese
Default : No
Forced : No

Text #5
ID : 7
Format : UTF-8
Codec ID : S_TEXT/UTF8
Codec ID/Info : UTF-8 Plain Text
Duration : 42 min 24 s
Bit rate : 96 b/s
Frame rate : 0.353 FPS
Count of elements : 898
Stream size : 30.0 KiB (0%)
Title : Español (SDH)
Language : Spanish
Default : No
Forced : No

Download

Direct download files get automatically deleted after a month or so. Posted on : 08/17/2023

[collapse]
Media Info and Download Links | S02E09

General
Format : Matroska
Format version : Version 4
File size : 219 MiB
Duration : 44 min 58 s
Overall bit rate : 681 kb/s
Frame rate : 24.000 FPS
Movie name : And.Just.Like.That.S02E09.720p.10bit.WEBRip.2CH.x265.HEVC

Video
ID : 1
Format : HEVC
Format/Info : High Efficiency Video Coding
Format profile : Main [email protected]@Main
Codec ID : V_MPEGH/ISO/HEVC
Duration : 44 min 58 s
Bit rate : 610 kb/s
Width : 1 280 pixels
Height : 640 pixels
Display aspect ratio : 2.000
Frame rate mode : Constant
Frame rate : 24.000 FPS
Color space : YUV
Chroma subsampling : 4:2:0
Bit depth : 10 bits
Bits/(Pixel*Frame) : 0.031
Stream size : 196 MiB (90%)
Default : Yes
Forced : No
Color range : Limited
Color primaries : BT.709
Transfer characteristics : BT.709
Matrix coefficients : BT.709

Audio
ID : 2
Format : AAC LC SBR
Commercial name : HE-AAC
Format settings : Explicit
Codec ID : A_AAC-2
Duration : 44 min 58 s
Bit rate : 66.2 kb/s
Channel(s) : 2 channels
Channel layout : L R
Sampling rate : 48.0 kHz
Frame rate : 23.438 FPS (2048 SPF)
Compression mode : Lossy
Delay relative to video : 23 ms
Stream size : 21.0 MiB (10%)
Language : English
Default : Yes
Forced : No

Text #1
ID : 3
Format : UTF-8
Codec ID : S_TEXT/UTF8
Codec ID/Info : UTF-8 Plain Text
Duration : 43 min 23 s
Bit rate : 86 b/s
Frame rate : 0.296 FPS
Count of elements : 770
Stream size : 27.6 KiB (0%)
Title : English
Language : English
Default : No
Forced : No

Text #2
ID : 4
Format : UTF-8
Codec ID : S_TEXT/UTF8
Codec ID/Info : UTF-8 Plain Text
Duration : 44 min 57 s
Bit rate : 102 b/s
Frame rate : 0.359 FPS
Count of elements : 968
Stream size : 33.6 KiB (0%)
Title : English (SDH)
Language : English
Default : Yes
Forced : No

Text #3
ID : 5
Format : UTF-8
Codec ID : S_TEXT/UTF8
Codec ID/Info : UTF-8 Plain Text
Duration : 44 min 52 s
Bit rate : 132 b/s
Frame rate : 0.270 FPS
Count of elements : 727
Stream size : 43.6 KiB (0%)
Title : Български
Language : Bulgarian
Default : No
Forced : No

Text #4
ID : 6
Format : UTF-8
Codec ID : S_TEXT/UTF8
Codec ID/Info : UTF-8 Plain Text
Duration : 43 min 49 s
Bit rate : 78 b/s
Frame rate : 0.327 FPS
Count of elements : 860
Stream size : 25.2 KiB (0%)
Title : Čeština
Language : Czech
Default : No
Forced : No

Text #5
ID : 7
Format : UTF-8
Codec ID : S_TEXT/UTF8
Codec ID/Info : UTF-8 Plain Text
Duration : 44 min 52 s
Bit rate : 83 b/s
Frame rate : 0.234 FPS
Count of elements : 631
Stream size : 27.3 KiB (0%)
Title : Dansk
Language : Danish
Default : No
Forced : No

Text #6
ID : 8
Format : UTF-8
Codec ID : S_TEXT/UTF8
Codec ID/Info : UTF-8 Plain Text
Duration : 43 min 45 s
Bit rate : 83 b/s
Frame rate : 0.279 FPS
Count of elements : 733
Stream size : 26.8 KiB (0%)
Title : Español (España)
Language : Spanish
Default : No
Forced : No

Text #7
ID : 9
Format : UTF-8
Codec ID : S_TEXT/UTF8
Codec ID/Info : UTF-8 Plain Text
Duration : 44 min 50 s
Bit rate : 71 b/s
Frame rate : 0.296 FPS
Count of elements : 796
Stream size : 23.5 KiB (0%)
Title : Español (Latinoamérica)
Language : Spanish
Default : No
Forced : No

Text #8
ID : 10
Format : UTF-8
Codec ID : S_TEXT/UTF8
Codec ID/Info : UTF-8 Plain Text
Duration : 44 min 52 s
Bit rate : 78 b/s
Frame rate : 0.270 FPS
Count of elements : 727
Stream size : 25.7 KiB (0%)
Title : Eesti
Language : Estonian
Default : No
Forced : No

Text #9
ID : 11
Format : UTF-8
Codec ID : S_TEXT/UTF8
Codec ID/Info : UTF-8 Plain Text
Duration : 44 min 52 s
Bit rate : 75 b/s
Frame rate : 0.254 FPS
Count of elements : 683
Stream size : 24.7 KiB (0%)
Title : Suomi
Language : Finnish
Default : No
Forced : No

Text #10
ID : 12
Format : UTF-8
Codec ID : S_TEXT/UTF8
Codec ID/Info : UTF-8 Plain Text
Duration : 44 min 52 s
Bit rate : 72 b/s
Frame rate : 0.269 FPS
Count of elements : 725
Stream size : 23.7 KiB (0%)
Title : Hrvatski
Language : Croatian
Default : No
Forced : No

Text #11
ID : 13
Format : UTF-8
Codec ID : S_TEXT/UTF8
Codec ID/Info : UTF-8 Plain Text
Duration : 43 min 49 s
Bit rate : 79 b/s
Frame rate : 0.328 FPS
Count of elements : 863
Stream size : 25.6 KiB (0%)
Title : Magyar
Language : Hungarian
Default : No
Forced : No

Text #12
ID : 14
Format : UTF-8
Codec ID : S_TEXT/UTF8
Codec ID/Info : UTF-8 Plain Text
Duration : 44 min 52 s
Bit rate : 80 b/s
Frame rate : 0.270 FPS
Count of elements : 727
Stream size : 26.6 KiB (0%)
Title : Lietuvių
Language : Lithuanian
Default : No
Forced : No

Text #13
ID : 15
Format : UTF-8
Codec ID : S_TEXT/UTF8
Codec ID/Info : UTF-8 Plain Text
Duration : 44 min 52 s
Bit rate : 78 b/s
Frame rate : 0.267 FPS
Count of elements : 720
Stream size : 25.7 KiB (0%)
Title : Latviešu
Language : Latvian
Default : No
Forced : No

Text #14
ID : 16
Format : UTF-8
Codec ID : S_TEXT/UTF8
Codec ID/Info : UTF-8 Plain Text
Duration : 44 min 52 s
Bit rate : 129 b/s
Frame rate : 0.270 FPS
Count of elements : 727
Stream size : 42.5 KiB (0%)
Title : Македонски
Language : Macedonian
Default : No
Forced : No

Text #15
ID : 17
Format : UTF-8
Codec ID : S_TEXT/UTF8
Codec ID/Info : UTF-8 Plain Text
Duration : 44 min 52 s
Bit rate : 77 b/s
Frame rate : 0.222 FPS
Count of elements : 599
Stream size : 25.6 KiB (0%)
Title : Nederlands
Language : Dutch
Default : No
Forced : No

Text #16
ID : 18
Format : UTF-8
Codec ID : S_TEXT/UTF8
Codec ID/Info : UTF-8 Plain Text
Duration : 44 min 52 s
Bit rate : 79 b/s
Frame rate : 0.240 FPS
Count of elements : 645
Stream size : 26.1 KiB (0%)
Title : Norsk
Language : Norwegian
Default : No
Forced : No

Text #17
ID : 19
Format : UTF-8
Codec ID : S_TEXT/UTF8
Codec ID/Info : UTF-8 Plain Text
Duration : 43 min 49 s
Bit rate : 67 b/s
Frame rate : 0.323 FPS
Count of elements : 849
Stream size : 21.8 KiB (0%)
Title : Polski
Language : Polish
Default : No
Forced : No

Text #18
ID : 20
Format : UTF-8
Codec ID : S_TEXT/UTF8
Codec ID/Info : UTF-8 Plain Text
Duration : 44 min 52 s
Bit rate : 82 b/s
Frame rate : 0.272 FPS
Count of elements : 731
Stream size : 27.0 KiB (0%)
Title : Português (Portugal)
Language : Portuguese
Default : No
Forced : No

Text #19
ID : 21
Format : UTF-8
Codec ID : S_TEXT/UTF8
Codec ID/Info : UTF-8 Plain Text
Duration : 44 min 50 s
Bit rate : 73 b/s
Frame rate : 0.296 FPS
Count of elements : 796
Stream size : 24.2 KiB (0%)
Title : Português (Brasil)
Language : Portuguese
Default : No
Forced : No

Text #20
ID : 22
Format : UTF-8
Codec ID : S_TEXT/UTF8
Codec ID/Info : UTF-8 Plain Text
Duration : 44 min 52 s
Bit rate : 79 b/s
Frame rate : 0.256 FPS
Count of elements : 689
Stream size : 26.3 KiB (0%)
Title : Română
Language : Romanian
Default : No
Forced : No

Text #21
ID : 23
Format : UTF-8
Codec ID : S_TEXT/UTF8
Codec ID/Info : UTF-8 Plain Text
Duration : 43 min 49 s
Bit rate : 139 b/s
Frame rate : 0.331 FPS
Count of elements : 870
Stream size : 44.6 KiB (0%)
Title : Русский
Language : Russian
Default : No
Forced : No

Text #22
ID : 24
Format : UTF-8
Codec ID : S_TEXT/UTF8
Codec ID/Info : UTF-8 Plain Text
Duration : 44 min 52 s
Bit rate : 69 b/s
Frame rate : 0.224 FPS
Count of elements : 602
Stream size : 22.8 KiB (0%)
Title : Slovenščina
Language : Slovenian
Default : No
Forced : No

Text #23
ID : 25
Format : UTF-8
Codec ID : S_TEXT/UTF8
Codec ID/Info : UTF-8 Plain Text
Duration : 44 min 52 s
Bit rate : 72 b/s
Frame rate : 0.270 FPS
Count of elements : 726
Stream size : 23.9 KiB (0%)
Title : Српски
Language : Serbian
Default : No
Forced : No

Text #24
ID : 26
Format : UTF-8
Codec ID : S_TEXT/UTF8
Codec ID/Info : UTF-8 Plain Text
Duration : 44 min 52 s
Bit rate : 76 b/s
Frame rate : 0.227 FPS
Count of elements : 610
Stream size : 25.0 KiB (0%)
Title : Svenska
Language : Swedish
Default : No
Forced : No

Text #25
ID : 27
Format : UTF-8
Codec ID : S_TEXT/UTF8
Codec ID/Info : UTF-8 Plain Text
Duration : 44 min 57 s
Bit rate : 93 b/s
Frame rate : 0.354 FPS
Count of elements : 955
Stream size : 30.7 KiB (0%)
Title : Español (Latinoamérica) (SDH)
Language : Spanish
Default : No
Forced : No

Download

Direct download files get automatically deleted after a month or so. Posted on : 08/10/2023

[collapse]
Media Info and Download Links | S02E08

General
Format : Matroska
Format version : Version 4
File size : 215 MiB
Duration : 42 min 20 s
Overall bit rate : 710 kb/s
Frame rate : 23.976 FPS
Movie name : And.Just.Like.That.S02E08.720p.10bit.WEBRip.2CH.x265.HEVC

Video
ID : 1
Format : HEVC
Format/Info : High Efficiency Video Coding
Format profile : Main [email protected]@Main
Codec ID : V_MPEGH/ISO/HEVC
Duration : 42 min 20 s
Bit rate : 640 kb/s
Width : 1 280 pixels
Height : 640 pixels
Display aspect ratio : 2.000
Frame rate mode : Constant
Frame rate : 23.976 (24000/1001) FPS
Color space : YUV
Chroma subsampling : 4:2:0
Bit depth : 10 bits
Bits/(Pixel*Frame) : 0.033
Stream size : 194 MiB (90%)
Default : Yes
Forced : No
Color range : Limited
Color primaries : BT.709
Transfer characteristics : BT.709
Matrix coefficients : BT.709

Audio
ID : 2
Format : AAC LC SBR
Commercial name : HE-AAC
Format settings : Explicit
Codec ID : A_AAC-2
Duration : 42 min 20 s
Bit rate : 64.6 kb/s
Channel(s) : 2 channels
Channel layout : L R
Sampling rate : 48.0 kHz
Frame rate : 23.438 FPS (2048 SPF)
Compression mode : Lossy
Delay relative to video : 23 ms
Stream size : 19.6 MiB (9%)
Language : English
Default : Yes
Forced : No

Text #1
ID : 3
Format : UTF-8
Codec ID : S_TEXT/UTF8
Codec ID/Info : UTF-8 Plain Text
Duration : 41 min 59 s
Bit rate : 91 b/s
Frame rate : 0.315 FPS
Count of elements : 794
Stream size : 28.0 KiB (0%)
Language : English (US)
Default : No
Forced : No

Text #2
ID : 4
Format : UTF-8
Codec ID : S_TEXT/UTF8
Codec ID/Info : UTF-8 Plain Text
Duration : 42 min 12 s
Bit rate : 100 b/s
Frame rate : 0.338 FPS
Count of elements : 855
Stream size : 30.9 KiB (0%)
Title : SDH
Language : English (US)
Default : Yes
Forced : No

Text #3
ID : 5
Format : UTF-8
Codec ID : S_TEXT/UTF8
Codec ID/Info : UTF-8 Plain Text
Duration : 42 min 2 s
Bit rate : 132 b/s
Frame rate : 0.263 FPS
Count of elements : 664
Stream size : 40.7 KiB (0%)
Language : Bulgarian (BG)
Default : No
Forced : No

Text #4
ID : 6
Format : UTF-8
Codec ID : S_TEXT/UTF8
Codec ID/Info : UTF-8 Plain Text
Duration : 41 min 3 s
Bit rate : 79 b/s
Frame rate : 0.288 FPS
Count of elements : 710
Stream size : 23.9 KiB (0%)
Language : Czech (CZ)
Default : No
Forced : No

Text #5
ID : 7
Format : UTF-8
Codec ID : S_TEXT/UTF8
Codec ID/Info : UTF-8 Plain Text
Duration : 42 min 2 s
Bit rate : 84 b/s
Frame rate : 0.231 FPS
Count of elements : 582
Stream size : 25.9 KiB (0%)
Language : Danish (DK)
Default : No
Forced : No

Text #6
ID : 8
Format : UTF-8
Codec ID : S_TEXT/UTF8
Codec ID/Info : UTF-8 Plain Text
Duration : 41 min 58 s
Bit rate : 73 b/s
Frame rate : 0.281 FPS
Count of elements : 707
Stream size : 22.5 KiB (0%)
Title : Spanish (Latin America)
Language : Spanish (Latin America)
Default : No
Forced : No

Text #7
ID : 9
Format : UTF-8
Codec ID : S_TEXT/UTF8
Codec ID/Info : UTF-8 Plain Text
Duration : 40 min 58 s
Bit rate : 83 b/s
Frame rate : 0.266 FPS
Count of elements : 655
Stream size : 25.0 KiB (0%)
Title : Spanish (Spain)
Language : Spanish (ES)
Default : No
Forced : No

Text #8
ID : 10
Format : UTF-8
Codec ID : S_TEXT/UTF8
Codec ID/Info : UTF-8 Plain Text
Duration : 42 min 2 s
Bit rate : 79 b/s
Frame rate : 0.263 FPS
Count of elements : 663
Stream size : 24.4 KiB (0%)
Language : Estonian (EE)
Default : No
Forced : No

Text #9
ID : 11
Format : UTF-8
Codec ID : S_TEXT/UTF8
Codec ID/Info : UTF-8 Plain Text
Duration : 42 min 2 s
Bit rate : 73 b/s
Frame rate : 0.248 FPS
Count of elements : 626
Stream size : 22.5 KiB (0%)
Language : Finnish (FI)
Default : No
Forced : No

Text #10
ID : 12
Format : UTF-8
Codec ID : S_TEXT/UTF8
Codec ID/Info : UTF-8 Plain Text
Duration : 42 min 2 s
Bit rate : 73 b/s
Frame rate : 0.262 FPS
Count of elements : 660
Stream size : 22.8 KiB (0%)
Language : Croatian (HR)
Default : No
Forced : No

Text #11
ID : 13
Format : UTF-8
Codec ID : S_TEXT/UTF8
Codec ID/Info : UTF-8 Plain Text
Duration : 41 min 4 s
Bit rate : 79 b/s
Frame rate : 0.290 FPS
Count of elements : 715
Stream size : 23.9 KiB (0%)
Language : Hungarian (HU)
Default : No
Forced : No

Text #12
ID : 14
Format : UTF-8
Codec ID : S_TEXT/UTF8
Codec ID/Info : UTF-8 Plain Text
Duration : 42 min 2 s
Bit rate : 81 b/s
Frame rate : 0.263 FPS
Count of elements : 663
Stream size : 25.0 KiB (0%)
Language : Lithuanian (LT)
Default : No
Forced : No

Text #13
ID : 15
Format : UTF-8
Codec ID : S_TEXT/UTF8
Codec ID/Info : UTF-8 Plain Text
Duration : 42 min 2 s
Bit rate : 77 b/s
Frame rate : 0.263 FPS
Count of elements : 663
Stream size : 23.9 KiB (0%)
Language : Latvian (LV)
Default : No
Forced : No

Text #14
ID : 16
Format : UTF-8
Codec ID : S_TEXT/UTF8
Codec ID/Info : UTF-8 Plain Text
Duration : 42 min 2 s
Bit rate : 125 b/s
Frame rate : 0.263 FPS
Count of elements : 663
Stream size : 38.7 KiB (0%)
Language : Macedonian (MK)
Default : No
Forced : No

Text #15
ID : 17
Format : UTF-8
Codec ID : S_TEXT/UTF8
Codec ID/Info : UTF-8 Plain Text
Duration : 42 min 2 s
Bit rate : 78 b/s
Frame rate : 0.216 FPS
Count of elements : 544
Stream size : 24.2 KiB (0%)
Language : Dutch (NL)
Default : No
Forced : No

Text #16
ID : 18
Format : UTF-8
Codec ID : S_TEXT/UTF8
Codec ID/Info : UTF-8 Plain Text
Duration : 42 min 2 s
Bit rate : 81 b/s
Frame rate : 0.234 FPS
Count of elements : 590
Stream size : 25.2 KiB (0%)
Language : Norwegian (NO)
Default : No
Forced : No

Text #17
ID : 19
Format : UTF-8
Codec ID : S_TEXT/UTF8
Codec ID/Info : UTF-8 Plain Text
Duration : 41 min 54 s
Bit rate : 66 b/s
Frame rate : 0.285 FPS
Count of elements : 716
Stream size : 20.3 KiB (0%)
Language : Polish (PL)
Default : No
Forced : No

Text #18
ID : 20
Format : UTF-8
Codec ID : S_TEXT/UTF8
Codec ID/Info : UTF-8 Plain Text
Duration : 41 min 58 s
Bit rate : 74 b/s
Frame rate : 0.280 FPS
Count of elements : 706
Stream size : 22.9 KiB (0%)
Title : Portuguese (Brazil)
Language : Portuguese (BR)
Default : No
Forced : No

Text #19
ID : 21
Format : UTF-8
Codec ID : S_TEXT/UTF8
Codec ID/Info : UTF-8 Plain Text
Duration : 40 min 45 s
Bit rate : 86 b/s
Frame rate : 0.272 FPS
Count of elements : 664
Stream size : 26.0 KiB (0%)
Title : Portuguese (Portugal)
Language : Portuguese (PT)
Default : No
Forced : No

Text #20
ID : 22
Format : UTF-8
Codec ID : S_TEXT/UTF8
Codec ID/Info : UTF-8 Plain Text
Duration : 42 min 2 s
Bit rate : 80 b/s
Frame rate : 0.256 FPS
Count of elements : 647
Stream size : 24.7 KiB (0%)
Language : Romanian (RO)
Default : No
Forced : No

Text #21
ID : 23
Format : UTF-8
Codec ID : S_TEXT/UTF8
Codec ID/Info : UTF-8 Plain Text
Duration : 41 min 2 s
Bit rate : 132 b/s
Frame rate : 0.292 FPS
Count of elements : 720
Stream size : 39.9 KiB (0%)
Language : Russian (RU)
Default : No
Forced : No

Text #22
ID : 24
Format : UTF-8
Codec ID : S_TEXT/UTF8
Codec ID/Info : UTF-8 Plain Text
Duration : 42 min 2 s
Bit rate : 70 b/s
Frame rate : 0.221 FPS
Count of elements : 558
Stream size : 21.6 KiB (0%)
Language : Slovenian (SI)
Default : No
Forced : No

Text #23
ID : 25
Format : UTF-8
Codec ID : S_TEXT/UTF8
Codec ID/Info : UTF-8 Plain Text
Duration : 42 min 2 s
Bit rate : 74 b/s
Frame rate : 0.263 FPS
Count of elements : 663
Stream size : 22.8 KiB (0%)
Language : Serbian-Latn-RS
Default : No
Forced : No

Text #24
ID : 26
Format : UTF-8
Codec ID : S_TEXT/UTF8
Codec ID/Info : UTF-8 Plain Text
Duration : 42 min 2 s
Bit rate : 80 b/s
Frame rate : 0.228 FPS
Count of elements : 575
Stream size : 24.8 KiB (0%)
Language : Swedish (SE)
Default : No
Forced : No

Download

Direct download files get automatically deleted after a month or so. Posted on : 08/03/2023

[collapse]
Media Info and Download Links | S02E07

General
Format : Matroska
Format version : Version 4
File size : 216 MiB
Duration : 44 min 34 s
Overall bit rate : 678 kb/s
Frame rate : 23.976 FPS
Movie name : And.Just.Like.That.S02E07.720p.10bit.WEBRip.2CH.x265.HEVC

Video
ID : 1
Format : HEVC
Format/Info : High Efficiency Video Coding
Format profile : Main [email protected]@Main
Codec ID : V_MPEGH/ISO/HEVC
Duration : 44 min 34 s
Bit rate : 609 kb/s
Width : 1 280 pixels
Height : 640 pixels
Display aspect ratio : 2.000
Frame rate mode : Constant
Frame rate : 23.976 (24000/1001) FPS
Color space : YUV
Chroma subsampling : 4:2:0
Bit depth : 10 bits
Bits/(Pixel*Frame) : 0.031
Stream size : 194 MiB (90%)
Default : Yes
Forced : No
Color range : Limited
Color primaries : BT.709
Transfer characteristics : BT.709
Matrix coefficients : BT.709

Audio
ID : 2
Format : AAC LC SBR
Commercial name : HE-AAC
Format settings : Explicit
Codec ID : A_AAC-2
Duration : 44 min 34 s
Bit rate : 62.6 kb/s
Channel(s) : 2 channels
Channel layout : L R
Sampling rate : 48.0 kHz
Frame rate : 23.438 FPS (2048 SPF)
Compression mode : Lossy
Delay relative to video : 23 ms
Stream size : 20.0 MiB (9%)
Language : English
Default : Yes
Forced : No

Text #1
ID : 3
Format : UTF-8
Codec ID : S_TEXT/UTF8
Codec ID/Info : UTF-8 Plain Text
Duration : 42 min 41 s
Bit rate : 87 b/s
Frame rate : 0.287 FPS
Count of elements : 734
Stream size : 27.3 KiB (0%)
Language : English (US)
Default : No
Forced : No

Text #2
ID : 4
Format : UTF-8
Codec ID : S_TEXT/UTF8
Codec ID/Info : UTF-8 Plain Text
Duration : 44 min 26 s
Bit rate : 100 b/s
Frame rate : 0.345 FPS
Count of elements : 921
Stream size : 32.7 KiB (0%)
Title : SDH
Language : English (US)
Default : Yes
Forced : No

Text #3
ID : 5
Format : UTF-8
Codec ID : S_TEXT/UTF8
Codec ID/Info : UTF-8 Plain Text
Duration : 43 min 1 s
Bit rate : 133 b/s
Frame rate : 0.306 FPS
Count of elements : 791
Stream size : 42.2 KiB (0%)
Language : Bulgarian (BG)
Default : No
Forced : No

Text #4
ID : 6
Format : UTF-8
Codec ID : S_TEXT/UTF8
Codec ID/Info : UTF-8 Plain Text
Duration : 43 min 19 s
Bit rate : 79 b/s
Frame rate : 0.294 FPS
Count of elements : 764
Stream size : 25.2 KiB (0%)
Language : Czech (CZ)
Default : No
Forced : No

Text #5
ID : 7
Format : UTF-8
Codec ID : S_TEXT/UTF8
Codec ID/Info : UTF-8 Plain Text
Duration : 43 min 1 s
Bit rate : 87 b/s
Frame rate : 0.240 FPS
Count of elements : 620
Stream size : 27.5 KiB (0%)
Language : Danish (DK)
Default : No
Forced : No

Text #6
ID : 8
Format : UTF-8
Codec ID : S_TEXT/UTF8
Codec ID/Info : UTF-8 Plain Text
Duration : 44 min 21 s
Bit rate : 74 b/s
Frame rate : 0.277 FPS
Count of elements : 738
Stream size : 24.3 KiB (0%)
Title : Spanish (Latin America)
Language : Spanish (Latin America)
Default : No
Forced : No

Text #7
ID : 9
Format : UTF-8
Codec ID : S_TEXT/UTF8
Codec ID/Info : UTF-8 Plain Text
Duration : 43 min 14 s
Bit rate : 86 b/s
Frame rate : 0.278 FPS
Count of elements : 721
Stream size : 27.3 KiB (0%)
Title : Spanish (Spain)
Language : Spanish (ES)
Default : No
Forced : No

Text #8
ID : 10
Format : UTF-8
Codec ID : S_TEXT/UTF8
Codec ID/Info : UTF-8 Plain Text
Duration : 43 min 1 s
Bit rate : 82 b/s
Frame rate : 0.306 FPS
Count of elements : 790
Stream size : 26.1 KiB (0%)
Language : Estonian (EE)
Default : No
Forced : No

Text #9
ID : 11
Format : UTF-8
Codec ID : S_TEXT/UTF8
Codec ID/Info : UTF-8 Plain Text
Duration : 43 min 1 s
Bit rate : 76 b/s
Frame rate : 0.269 FPS
Count of elements : 694
Stream size : 24.0 KiB (0%)
Language : Finnish (FI)
Default : No
Forced : No

Text #10
ID : 12
Format : UTF-8
Codec ID : S_TEXT/UTF8
Codec ID/Info : UTF-8 Plain Text
Duration : 43 min 10 s
Bit rate : 75 b/s
Frame rate : 0.306 FPS
Count of elements : 793
Stream size : 23.9 KiB (0%)
Language : Croatian (HR)
Default : No
Forced : No

Text #11
ID : 13
Format : UTF-8
Codec ID : S_TEXT/UTF8
Codec ID/Info : UTF-8 Plain Text
Duration : 43 min 11 s
Bit rate : 81 b/s
Frame rate : 0.296 FPS
Count of elements : 767
Stream size : 25.8 KiB (0%)
Language : Hungarian (HU)
Default : No
Forced : No

Text #12
ID : 14
Format : UTF-8
Codec ID : S_TEXT/UTF8
Codec ID/Info : UTF-8 Plain Text
Duration : 43 min 1 s
Bit rate : 82 b/s
Frame rate : 0.307 FPS
Count of elements : 792
Stream size : 26.1 KiB (0%)
Language : Lithuanian (LT)
Default : No
Forced : No

Text #13
ID : 15
Format : UTF-8
Codec ID : S_TEXT/UTF8
Codec ID/Info : UTF-8 Plain Text
Duration : 43 min 1 s
Bit rate : 80 b/s
Frame rate : 0.306 FPS
Count of elements : 791
Stream size : 25.4 KiB (0%)
Language : Latvian (LV)
Default : No
Forced : No

Text #14
ID : 16
Format : UTF-8
Codec ID : S_TEXT/UTF8
Codec ID/Info : UTF-8 Plain Text
Duration : 43 min 1 s
Bit rate : 131 b/s
Frame rate : 0.306 FPS
Count of elements : 791
Stream size : 41.3 KiB (0%)
Language : Macedonian (MK)
Default : No
Forced : No

Text #15
ID : 17
Format : UTF-8
Codec ID : S_TEXT/UTF8
Codec ID/Info : UTF-8 Plain Text
Duration : 43 min 9 s
Bit rate : 80 b/s
Frame rate : 0.228 FPS
Count of elements : 591
Stream size : 25.4 KiB (0%)
Language : Dutch (NL)
Default : No
Forced : No

Text #16
ID : 18
Format : UTF-8
Codec ID : S_TEXT/UTF8
Codec ID/Info : UTF-8 Plain Text
Duration : 43 min 12 s
Bit rate : 82 b/s
Frame rate : 0.253 FPS
Count of elements : 656
Stream size : 26.0 KiB (0%)
Language : Norwegian (NO)
Default : No
Forced : No

Text #17
ID : 19
Format : UTF-8
Codec ID : S_TEXT/UTF8
Codec ID/Info : UTF-8 Plain Text
Duration : 43 min 20 s
Bit rate : 66 b/s
Frame rate : 0.295 FPS
Count of elements : 766
Stream size : 21.2 KiB (0%)
Language : Polish (PL)
Default : No
Forced : No

Text #18
ID : 20
Format : UTF-8
Codec ID : S_TEXT/UTF8
Codec ID/Info : UTF-8 Plain Text
Duration : 44 min 21 s
Bit rate : 74 b/s
Frame rate : 0.277 FPS
Count of elements : 738
Stream size : 24.1 KiB (0%)
Title : Portuguese (Brazil)
Language : Portuguese (BR)
Default : No
Forced : No

Text #19
ID : 21
Format : UTF-8
Codec ID : S_TEXT/UTF8
Codec ID/Info : UTF-8 Plain Text
Duration : 43 min 1 s
Bit rate : 86 b/s
Frame rate : 0.300 FPS
Count of elements : 775
Stream size : 27.2 KiB (0%)
Title : Portuguese (Portugal)
Language : Portuguese (PT)
Default : No
Forced : No

Text #20
ID : 22
Format : UTF-8
Codec ID : S_TEXT/UTF8
Codec ID/Info : UTF-8 Plain Text
Duration : 43 min 1 s
Bit rate : 83 b/s
Frame rate : 0.286 FPS
Count of elements : 737
Stream size : 26.3 KiB (0%)
Language : Romanian (RO)
Default : No
Forced : No

Text #21
ID : 23
Format : UTF-8
Codec ID : S_TEXT/UTF8
Codec ID/Info : UTF-8 Plain Text
Duration : 43 min 20 s
Bit rate : 131 b/s
Frame rate : 0.293 FPS
Count of elements : 763
Stream size : 41.7 KiB (0%)
Language : Russian (RU)
Default : No
Forced : No

Text #22
ID : 24
Format : UTF-8
Codec ID : S_TEXT/UTF8
Codec ID/Info : UTF-8 Plain Text
Duration : 43 min 12 s
Bit rate : 72 b/s
Frame rate : 0.231 FPS
Count of elements : 599
Stream size : 22.8 KiB (0%)
Language : Slovenian (SI)
Default : No
Forced : No

Text #23
ID : 25
Format : UTF-8
Codec ID : S_TEXT/UTF8
Codec ID/Info : UTF-8 Plain Text
Duration : 43 min 1 s
Bit rate : 76 b/s
Frame rate : 0.306 FPS
Count of elements : 790
Stream size : 24.1 KiB (0%)
Language : Serbian-Latn-RS
Default : No
Forced : No

Text #24
ID : 26
Format : UTF-8
Codec ID : S_TEXT/UTF8
Codec ID/Info : UTF-8 Plain Text
Duration : 43 min 1 s
Bit rate : 81 b/s
Frame rate : 0.242 FPS
Count of elements : 626
Stream size : 25.6 KiB (0%)
Language : Swedish (SE)
Default : No
Forced : No

Download

Direct download files get automatically deleted after a month or so. Posted on : 07/28/2023

[collapse]
Media Info and Download Links | S02E06

General
Format : Matroska
Format version : Version 4
File size : 211 MiB
Duration : 45 min 1 s
Overall bit rate : 655 kb/s
Frame rate : 23.976 FPS
Movie name : And.Just.Like.That.S02E06.720p.10bit.WEBRip.2CH.x265.HEVC

Video
ID : 1
Format : HEVC
Format/Info : High Efficiency Video Coding
Format profile : Main [email protected]@Main
Codec ID : V_MPEGH/ISO/HEVC
Duration : 45 min 1 s
Bit rate : 585 kb/s
Width : 1 280 pixels
Height : 640 pixels
Display aspect ratio : 2.000
Frame rate mode : Constant
Frame rate : 23.976 (24000/1001) FPS
Color space : YUV
Chroma subsampling : 4:2:0
Bit depth : 10 bits
Bits/(Pixel*Frame) : 0.030
Stream size : 188 MiB (89%)
Default : Yes
Forced : No
Color range : Limited
Color primaries : BT.709
Transfer characteristics : BT.709
Matrix coefficients : BT.709

Audio
ID : 2
Format : AAC LC SBR
Commercial name : HE-AAC
Format settings : Explicit
Codec ID : A_AAC-2
Duration : 45 min 1 s
Bit rate : 63.5 kb/s
Channel(s) : 2 channels
Channel layout : L R
Sampling rate : 48.0 kHz
Frame rate : 23.438 FPS (2048 SPF)
Compression mode : Lossy
Delay relative to video : 23 ms
Stream size : 20.4 MiB (10%)
Language : English
Default : Yes
Forced : No

Text #1
ID : 3
Format : UTF-8
Codec ID : S_TEXT/UTF8
Codec ID/Info : UTF-8 Plain Text
Duration : 42 min 53 s
Bit rate : 86 b/s
Frame rate : 0.276 FPS
Count of elements : 710
Stream size : 27.0 KiB (0%)
Language : English (US)
Default : No
Forced : No

Text #2
ID : 4
Format : UTF-8
Codec ID : S_TEXT/UTF8
Codec ID/Info : UTF-8 Plain Text
Duration : 44 min 56 s
Bit rate : 98 b/s
Frame rate : 0.343 FPS
Count of elements : 926
Stream size : 32.5 KiB (0%)
Title : SDH
Language : English (US)
Default : Yes
Forced : No

Text #3
ID : 5
Format : UTF-8
Codec ID : S_TEXT/UTF8
Codec ID/Info : UTF-8 Plain Text
Duration : 42 min 53 s
Bit rate : 133 b/s
Frame rate : 0.242 FPS
Count of elements : 623
Stream size : 41.8 KiB (0%)
Language : Bulgarian (BG)
Default : No
Forced : No

Text #4
ID : 6
Format : UTF-8
Codec ID : S_TEXT/UTF8
Codec ID/Info : UTF-8 Plain Text
Duration : 43 min 19 s
Bit rate : 74 b/s
Frame rate : 0.313 FPS
Count of elements : 814
Stream size : 23.8 KiB (0%)
Language : Czech (CZ)
Default : No
Forced : No

Text #5
ID : 7
Format : UTF-8
Codec ID : S_TEXT/UTF8
Codec ID/Info : UTF-8 Plain Text
Duration : 42 min 53 s
Bit rate : 85 b/s
Frame rate : 0.225 FPS
Count of elements : 580
Stream size : 26.8 KiB (0%)
Language : Danish (DK)
Default : No
Forced : No

Text #6
ID : 8
Format : UTF-8
Codec ID : S_TEXT/UTF8
Codec ID/Info : UTF-8 Plain Text
Duration : 44 min 24 s
Bit rate : 74 b/s
Frame rate : 0.285 FPS
Count of elements : 760
Stream size : 24.1 KiB (0%)
Title : Spanish (Latin America)
Language : Spanish (Latin America)
Default : No
Forced : No

Text #7
ID : 9
Format : UTF-8
Codec ID : S_TEXT/UTF8
Codec ID/Info : UTF-8 Plain Text
Duration : 43 min 17 s
Bit rate : 85 b/s
Frame rate : 0.276 FPS
Count of elements : 716
Stream size : 27.0 KiB (0%)
Title : Spanish (Spain)
Language : Spanish (ES)
Default : No
Forced : No

Text #8
ID : 10
Format : UTF-8
Codec ID : S_TEXT/UTF8
Codec ID/Info : UTF-8 Plain Text
Duration : 42 min 53 s
Bit rate : 80 b/s
Frame rate : 0.247 FPS
Count of elements : 636
Stream size : 25.4 KiB (0%)
Language : Estonian (EE)
Default : No
Forced : No

Text #9
ID : 11
Format : UTF-8
Codec ID : S_TEXT/UTF8
Codec ID/Info : UTF-8 Plain Text
Duration : 42 min 53 s
Bit rate : 75 b/s
Frame rate : 0.242 FPS
Count of elements : 622
Stream size : 23.9 KiB (0%)
Language : Finnish (FI)
Default : No
Forced : No

Text #10
ID : 12
Format : UTF-8
Codec ID : S_TEXT/UTF8
Codec ID/Info : UTF-8 Plain Text
Duration : 43 min 12 s
Bit rate : 72 b/s
Frame rate : 0.239 FPS
Count of elements : 620
Stream size : 23.0 KiB (0%)
Language : Croatian (HR)
Default : No
Forced : No

Text #11
ID : 13
Format : UTF-8
Codec ID : S_TEXT/UTF8
Codec ID/Info : UTF-8 Plain Text
Duration : 43 min 19 s
Bit rate : 78 b/s
Frame rate : 0.316 FPS
Count of elements : 821
Stream size : 24.9 KiB (0%)
Language : Hungarian (HU)
Default : No
Forced : No

Text #12
ID : 14
Format : UTF-8
Codec ID : S_TEXT/UTF8
Codec ID/Info : UTF-8 Plain Text
Duration : 42 min 53 s
Bit rate : 81 b/s
Frame rate : 0.241 FPS
Count of elements : 621
Stream size : 25.5 KiB (0%)
Language : Lithuanian (LT)
Default : No
Forced : No

Text #13
ID : 15
Format : UTF-8
Codec ID : S_TEXT/UTF8
Codec ID/Info : UTF-8 Plain Text
Duration : 42 min 53 s
Bit rate : 79 b/s
Frame rate : 0.245 FPS
Count of elements : 631
Stream size : 25.0 KiB (0%)
Language : Latvian (LV)
Default : No
Forced : No

Text #14
ID : 16
Format : UTF-8
Codec ID : S_TEXT/UTF8
Codec ID/Info : UTF-8 Plain Text
Duration : 42 min 53 s
Bit rate : 131 b/s
Frame rate : 0.242 FPS
Count of elements : 622
Stream size : 41.4 KiB (0%)
Language : Macedonian (MK)
Default : No
Forced : No

Text #15
ID : 17
Format : UTF-8
Codec ID : S_TEXT/UTF8
Codec ID/Info : UTF-8 Plain Text
Duration : 43 min 12 s
Bit rate : 77 b/s
Frame rate : 0.213 FPS
Count of elements : 552
Stream size : 24.6 KiB (0%)
Language : Dutch (NL)
Default : No
Forced : No

Text #16
ID : 18
Format : UTF-8
Codec ID : S_TEXT/UTF8
Codec ID/Info : UTF-8 Plain Text
Duration : 43 min 13 s
Bit rate : 81 b/s
Frame rate : 0.229 FPS
Count of elements : 593
Stream size : 25.7 KiB (0%)
Language : Norwegian (NO)
Default : No
Forced : No

Text #17
ID : 19
Format : UTF-8
Codec ID : S_TEXT/UTF8
Codec ID/Info : UTF-8 Plain Text
Duration : 43 min 20 s
Bit rate : 65 b/s
Frame rate : 0.314 FPS
Count of elements : 816
Stream size : 20.6 KiB (0%)
Language : Polish (PL)
Default : No
Forced : No

Text #18
ID : 20
Format : UTF-8
Codec ID : S_TEXT/UTF8
Codec ID/Info : UTF-8 Plain Text
Duration : 44 min 24 s
Bit rate : 72 b/s
Frame rate : 0.285 FPS
Count of elements : 760
Stream size : 23.5 KiB (0%)
Title : Portuguese (Brazil)
Language : Portuguese (BR)
Default : No
Forced : No

Text #19
ID : 21
Format : UTF-8
Codec ID : S_TEXT/UTF8
Codec ID/Info : UTF-8 Plain Text
Duration : 42 min 53 s
Bit rate : 86 b/s
Frame rate : 0.250 FPS
Count of elements : 643
Stream size : 27.2 KiB (0%)
Title : Portuguese (Portugal)
Language : Portuguese (PT)
Default : No
Forced : No

Text #20
ID : 22
Format : UTF-8
Codec ID : S_TEXT/UTF8
Codec ID/Info : UTF-8 Plain Text
Duration : 42 min 53 s
Bit rate : 82 b/s
Frame rate : 0.242 FPS
Count of elements : 623
Stream size : 25.9 KiB (0%)
Language : Romanian (RO)
Default : No
Forced : No

Text #21
ID : 23
Format : UTF-8
Codec ID : S_TEXT/UTF8
Codec ID/Info : UTF-8 Plain Text
Duration : 43 min 19 s
Bit rate : 127 b/s
Frame rate : 0.313 FPS
Count of elements : 813
Stream size : 40.3 KiB (0%)
Language : Russian (RU)
Default : No
Forced : No

Text #22
ID : 24
Format : UTF-8
Codec ID : S_TEXT/UTF8
Codec ID/Info : UTF-8 Plain Text
Duration : 44 min 24 s
Bit rate : 68 b/s
Frame rate : 0.208 FPS
Count of elements : 553
Stream size : 22.3 KiB (0%)
Language : Slovenian (SI)
Default : No
Forced : No

Text #23
ID : 25
Format : UTF-8
Codec ID : S_TEXT/UTF8
Codec ID/Info : UTF-8 Plain Text
Duration : 42 min 53 s
Bit rate : 76 b/s
Frame rate : 0.248 FPS
Count of elements : 637
Stream size : 24.0 KiB (0%)
Language : Serbian-Latn-RS
Default : No
Forced : No

Text #24
ID : 26
Format : UTF-8
Codec ID : S_TEXT/UTF8
Codec ID/Info : UTF-8 Plain Text
Duration : 43 min 13 s
Bit rate : 81 b/s
Frame rate : 0.223 FPS
Count of elements : 578
Stream size : 25.7 KiB (0%)
Language : Swedish (SE)
Default : No
Forced : No

Download

Direct download files get automatically deleted after a month or so. Posted on : 07/20/2023

[collapse]
Media Info and Download Links | S02E05

General
Format : Matroska
Format version : Version 4
File size : 221 MiB
Duration : 43 min 2 s
Overall bit rate : 718 kb/s
Frame rate : 24.000 FPS
Movie name : And.Just.Like.That.S02E05.720p.10bit.WEBRip.2CH.x265.HEVC

Video
ID : 1
Format : HEVC
Format/Info : High Efficiency Video Coding
Format profile : Main [email protected]@Main
Codec ID : V_MPEGH/ISO/HEVC
Duration : 43 min 2 s
Bit rate : 650 kb/s
Width : 1 280 pixels
Height : 640 pixels
Display aspect ratio : 2.000
Frame rate mode : Constant
Frame rate : 24.000 FPS
Color space : YUV
Chroma subsampling : 4:2:0
Bit depth : 10 bits
Bits/(Pixel*Frame) : 0.033
Stream size : 200 MiB (91%)
Default : Yes
Forced : No
Color range : Limited
Color primaries : BT.709
Transfer characteristics : BT.709
Matrix coefficients : BT.709

Audio
ID : 2
Format : AAC LC SBR
Commercial name : HE-AAC
Format settings : Explicit
Codec ID : A_AAC-2
Duration : 43 min 2 s
Bit rate : 66.2 kb/s
Channel(s) : 2 channels
Channel layout : L R
Sampling rate : 48.0 kHz
Frame rate : 23.438 FPS (2048 SPF)
Compression mode : Lossy
Delay relative to video : 23 ms
Stream size : 20.0 MiB (9%)
Language : English
Default : Yes
Forced : No

Text #1
ID : 3
Format : UTF-8
Codec ID : S_TEXT/UTF8
Codec ID/Info : UTF-8 Plain Text
Duration : 41 min 27 s
Bit rate : 84 b/s
Frame rate : 0.299 FPS
Count of elements : 744
Stream size : 25.8 KiB (0%)
Title : English
Language : English
Default : No
Forced : No

Text #2
ID : 4
Format : UTF-8
Codec ID : S_TEXT/UTF8
Codec ID/Info : UTF-8 Plain Text
Duration : 42 min 57 s
Bit rate : 99 b/s
Frame rate : 0.350 FPS
Count of elements : 901
Stream size : 31.2 KiB (0%)
Title : English (SDH)
Language : English
Default : Yes
Forced : No

Text #3
ID : 5
Format : UTF-8
Codec ID : S_TEXT/UTF8
Codec ID/Info : UTF-8 Plain Text
Duration : 42 min 53 s
Bit rate : 74 b/s
Frame rate : 0.318 FPS
Count of elements : 819
Stream size : 23.5 KiB (0%)
Title : Español
Language : Spanish
Default : No
Forced : No

Text #4
ID : 6
Format : UTF-8
Codec ID : S_TEXT/UTF8
Codec ID/Info : UTF-8 Plain Text
Duration : 42 min 53 s
Bit rate : 80 b/s
Frame rate : 0.319 FPS
Count of elements : 820
Stream size : 25.4 KiB (0%)
Title : Português
Language : Portuguese
Default : No
Forced : No

Text #5
ID : 7
Format : UTF-8
Codec ID : S_TEXT/UTF8
Codec ID/Info : UTF-8 Plain Text
Duration : 41 min 50 s
Bit rate : 92 b/s
Frame rate : 0.348 FPS
Count of elements : 873
Stream size : 28.4 KiB (0%)
Title : Español (SDH)
Language : Spanish
Default : No
Forced : No

Download

Direct download files get automatically deleted after a month or so. Posted on : 07/13/2023

[collapse]
Media Info and Download Links | S02E04

General
Format : Matroska
Format version : Version 4
File size : 226 MiB
Duration : 44 min 59 s
Overall bit rate : 702 kb/s
Frame rate : 23.976 FPS
Movie name : And.Just.Like.That.S02E04.720p.10bit.WEBRip.2CH.x265.HEVC

Video
ID : 1
Format : HEVC
Format/Info : High Efficiency Video Coding
Format profile : Main [email protected]@Main
Codec ID : V_MPEGH/ISO/HEVC
Duration : 44 min 59 s
Bit rate : 633 kb/s
Width : 1 280 pixels
Height : 640 pixels
Display aspect ratio : 2.000
Frame rate mode : Constant
Frame rate : 23.976 (24000/1001) FPS
Color space : YUV
Chroma subsampling : 4:2:0
Bit depth : 10 bits
Bits/(Pixel*Frame) : 0.032
Stream size : 204 MiB (90%)
Default : Yes
Forced : No
Color range : Limited
Color primaries : BT.709
Transfer characteristics : BT.709
Matrix coefficients : BT.709

Audio
ID : 2
Format : AAC LC SBR
Commercial name : HE-AAC
Format settings : Explicit
Codec ID : A_AAC-2
Duration : 44 min 59 s
Bit rate : 62.7 kb/s
Channel(s) : 2 channels
Channel layout : L R
Sampling rate : 48.0 kHz
Frame rate : 23.438 FPS (2048 SPF)
Compression mode : Lossy
Delay relative to video : 23 ms
Stream size : 20.2 MiB (9%)
Language : English
Default : Yes
Forced : No

Text #1
ID : 3
Format : UTF-8
Codec ID : S_TEXT/UTF8
Codec ID/Info : UTF-8 Plain Text
Duration : 43 min 30 s
Bit rate : 92 b/s
Frame rate : 0.313 FPS
Count of elements : 817
Stream size : 29.6 KiB (0%)
Language : English (US)
Default : No
Forced : No

Text #2
ID : 4
Format : UTF-8
Codec ID : S_TEXT/UTF8
Codec ID/Info : UTF-8 Plain Text
Duration : 44 min 45 s
Bit rate : 106 b/s
Frame rate : 0.359 FPS
Count of elements : 963
Stream size : 34.8 KiB (0%)
Title : SDH
Language : English (US)
Default : Yes
Forced : No

Text #3
ID : 5
Format : UTF-8
Codec ID : S_TEXT/UTF8
Codec ID/Info : UTF-8 Plain Text
Duration : 43 min 29 s
Bit rate : 146 b/s
Frame rate : 0.303 FPS
Count of elements : 791
Stream size : 46.5 KiB (0%)
Language : Bulgarian (BG)
Default : No
Forced : No

Text #4
ID : 6
Format : UTF-8
Codec ID : S_TEXT/UTF8
Codec ID/Info : UTF-8 Plain Text
Duration : 43 min 44 s
Bit rate : 85 b/s
Frame rate : 0.299 FPS
Count of elements : 786
Stream size : 27.5 KiB (0%)
Language : Czech (CZ)
Default : No
Forced : No

Text #5
ID : 7
Format : UTF-8
Codec ID : S_TEXT/UTF8
Codec ID/Info : UTF-8 Plain Text
Duration : 44 min 44 s
Bit rate : 88 b/s
Frame rate : 0.243 FPS
Count of elements : 651
Stream size : 29.0 KiB (0%)
Language : Danish (DK)
Default : No
Forced : No

Text #6
ID : 8
Format : UTF-8
Codec ID : S_TEXT/UTF8
Codec ID/Info : UTF-8 Plain Text
Duration : 44 min 44 s
Bit rate : 85 b/s
Frame rate : 0.343 FPS
Count of elements : 920
Stream size : 28.0 KiB (0%)
Title : Spanish (Latin America)
Language : Spanish (Latin America)
Default : No
Forced : No

Text #7
ID : 9
Format : UTF-8
Codec ID : S_TEXT/UTF8
Codec ID/Info : UTF-8 Plain Text
Duration : 43 min 40 s
Bit rate : 92 b/s
Frame rate : 0.293 FPS
Count of elements : 769
Stream size : 29.7 KiB (0%)
Title : Spanish (Spain)
Language : Spanish (ES)
Default : No
Forced : No

Text #8
ID : 10
Format : UTF-8
Codec ID : S_TEXT/UTF8
Codec ID/Info : UTF-8 Plain Text
Duration : 43 min 29 s
Bit rate : 84 b/s
Frame rate : 0.302 FPS
Count of elements : 789
Stream size : 27.0 KiB (0%)
Language : Estonian (EE)
Default : No
Forced : No

Text #9
ID : 11
Format : UTF-8
Codec ID : S_TEXT/UTF8
Codec ID/Info : UTF-8 Plain Text
Duration : 43 min 30 s
Bit rate : 83 b/s
Frame rate : 0.287 FPS
Count of elements : 750
Stream size : 26.7 KiB (0%)
Language : Finnish (FI)
Default : No
Forced : No

Text #10
ID : 12
Format : UTF-8
Codec ID : S_TEXT/UTF8
Codec ID/Info : UTF-8 Plain Text
Duration : 43 min 29 s
Bit rate : 78 b/s
Frame rate : 0.299 FPS
Count of elements : 781
Stream size : 24.9 KiB (0%)
Language : Croatian (HR)
Default : No
Forced : No

Text #11
ID : 13
Format : UTF-8
Codec ID : S_TEXT/UTF8
Codec ID/Info : UTF-8 Plain Text
Duration : 43 min 44 s
Bit rate : 84 b/s
Frame rate : 0.299 FPS
Count of elements : 786
Stream size : 27.0 KiB (0%)
Language : Hungarian (HU)
Default : No
Forced : No

Text #12
ID : 14
Format : UTF-8
Codec ID : S_TEXT/UTF8
Codec ID/Info : UTF-8 Plain Text
Duration : 43 min 29 s
Bit rate : 92 b/s
Frame rate : 0.303 FPS
Count of elements : 791
Stream size : 29.3 KiB (0%)
Language : Lithuanian (LT)
Default : No
Forced : No

Text #13
ID : 15
Format : UTF-8
Codec ID : S_TEXT/UTF8
Codec ID/Info : UTF-8 Plain Text
Duration : 43 min 29 s
Bit rate : 86 b/s
Frame rate : 0.302 FPS
Count of elements : 789
Stream size : 27.6 KiB (0%)
Language : Latvian (LV)
Default : No
Forced : No

Text #14
ID : 16
Format : UTF-8
Codec ID : S_TEXT/UTF8
Codec ID/Info : UTF-8 Plain Text
Duration : 43 min 29 s
Bit rate : 147 b/s
Frame rate : 0.302 FPS
Count of elements : 788
Stream size : 46.9 KiB (0%)
Language : Macedonian (MK)
Default : No
Forced : No

Text #15
ID : 17
Format : UTF-8
Codec ID : S_TEXT/UTF8
Codec ID/Info : UTF-8 Plain Text
Duration : 43 min 33 s
Bit rate : 82 b/s
Frame rate : 0.236 FPS
Count of elements : 617
Stream size : 26.4 KiB (0%)
Language : Dutch (NL)
Default : No
Forced : No

Text #16
ID : 18
Format : UTF-8
Codec ID : S_TEXT/UTF8
Codec ID/Info : UTF-8 Plain Text
Duration : 44 min 45 s
Bit rate : 85 b/s
Frame rate : 0.256 FPS
Count of elements : 688
Stream size : 28.0 KiB (0%)
Language : Norwegian (NO)
Default : No
Forced : No

Text #17
ID : 19
Format : UTF-8
Codec ID : S_TEXT/UTF8
Codec ID/Info : UTF-8 Plain Text
Duration : 43 min 44 s
Bit rate : 71 b/s
Frame rate : 0.295 FPS
Count of elements : 774
Stream size : 22.9 KiB (0%)
Language : Polish (PL)
Default : No
Forced : No

Text #18
ID : 20
Format : UTF-8
Codec ID : S_TEXT/UTF8
Codec ID/Info : UTF-8 Plain Text
Duration : 44 min 44 s
Bit rate : 89 b/s
Frame rate : 0.343 FPS
Count of elements : 921
Stream size : 29.2 KiB (0%)
Title : Portuguese (Brazil)
Language : Portuguese (BR)
Default : No
Forced : No

Text #19
ID : 21
Format : UTF-8
Codec ID : S_TEXT/UTF8
Codec ID/Info : UTF-8 Plain Text
Duration : 43 min 29 s
Bit rate : 92 b/s
Frame rate : 0.300 FPS
Count of elements : 783
Stream size : 29.3 KiB (0%)
Title : Portuguese (Portugal)
Language : Portuguese (PT)
Default : No
Forced : No

Text #20
ID : 22
Format : UTF-8
Codec ID : S_TEXT/UTF8
Codec ID/Info : UTF-8 Plain Text
Duration : 43 min 29 s
Bit rate : 87 b/s
Frame rate : 0.293 FPS
Count of elements : 765
Stream size : 28.0 KiB (0%)
Language : Romanian (RO)
Default : No
Forced : No

Text #21
ID : 23
Format : UTF-8
Codec ID : S_TEXT/UTF8
Codec ID/Info : UTF-8 Plain Text
Duration : 43 min 44 s
Bit rate : 136 b/s
Frame rate : 0.299 FPS
Count of elements : 786
Stream size : 43.6 KiB (0%)
Language : Russian (RU)
Default : No
Forced : No

Text #22
ID : 24
Format : UTF-8
Codec ID : S_TEXT/UTF8
Codec ID/Info : UTF-8 Plain Text
Duration : 43 min 40 s
Bit rate : 78 b/s
Frame rate : 0.248 FPS
Count of elements : 649
Stream size : 25.1 KiB (0%)
Language : Slovenian (SI)
Default : No
Forced : No

Text #23
ID : 25
Format : UTF-8
Codec ID : S_TEXT/UTF8
Codec ID/Info : UTF-8 Plain Text
Duration : 43 min 29 s
Bit rate : 82 b/s
Frame rate : 0.303 FPS
Count of elements : 790
Stream size : 26.3 KiB (0%)
Language : Serbian-Latn-RS
Default : No
Forced : No

Text #24
ID : 26
Format : UTF-8
Codec ID : S_TEXT/UTF8
Codec ID/Info : UTF-8 Plain Text
Duration : 43 min 34 s
Bit rate : 87 b/s
Frame rate : 0.252 FPS
Count of elements : 659
Stream size : 28.0 KiB (0%)
Language : Swedish (SE)
Default : No
Forced : No

Download

Direct download files get automatically deleted after a month or so. Posted on : 07/06/2023

[collapse]
Media Info and Download Links | S02E03

General
Format : Matroska
Format version : Version 4
File size : 213 MiB
Duration : 44 min 12 s
Overall bit rate : 673 kb/s
Frame rate : 23.976 FPS
Movie name : And.Just.Like.That.S02E03.720p.10bit.WEBRip.2CH.x265.HEVC

Video
ID : 1
Format : HEVC
Format/Info : High Efficiency Video Coding
Format profile : Main [email protected]@Main
Codec ID : V_MPEGH/ISO/HEVC
Duration : 44 min 12 s
Bit rate : 602 kb/s
Width : 1 280 pixels
Height : 640 pixels
Display aspect ratio : 2.000
Frame rate mode : Constant
Frame rate : 23.976 (24000/1001) FPS
Color space : YUV
Chroma subsampling : 4:2:0
Bit depth : 10 bits
Bits/(Pixel*Frame) : 0.031
Stream size : 190 MiB (89%)
Default : Yes
Forced : No
Color range : Limited
Color primaries : BT.709
Transfer characteristics : BT.709
Matrix coefficients : BT.709

Audio
ID : 2
Format : AAC LC SBR
Commercial name : HE-AAC
Format settings : Explicit
Codec ID : A_AAC-2
Duration : 44 min 12 s
Bit rate : 66.2 kb/s
Channel(s) : 2 channels
Channel layout : L R
Sampling rate : 48.0 kHz
Frame rate : 23.438 FPS (2048 SPF)
Compression mode : Lossy
Delay relative to video : 23 ms
Stream size : 20.7 MiB (10%)
Language : English
Default : Yes
Forced : No

Text #1
ID : 3
Format : UTF-8
Codec ID : S_TEXT/UTF8
Codec ID/Info : UTF-8 Plain Text
Duration : 42 min 25 s
Bit rate : 88 b/s
Frame rate : 0.308 FPS
Count of elements : 785
Stream size : 27.4 KiB (0%)
Title : English (United States)
Language : English
Default : No
Forced : No

Text #2
ID : 4
Format : UTF-8
Codec ID : S_TEXT/UTF8
Codec ID/Info : UTF-8 Plain Text
Duration : 44 min 9 s
Bit rate : 101 b/s
Frame rate : 0.374 FPS
Count of elements : 990
Stream size : 32.9 KiB (0%)
Title : English (United States) (SDH)
Language : English
Default : Yes
Forced : No

Text #3
ID : 5
Format : UTF-8
Codec ID : S_TEXT/UTF8
Codec ID/Info : UTF-8 Plain Text
Duration : 42 min 25 s
Bit rate : 137 b/s
Frame rate : 0.297 FPS
Count of elements : 755
Stream size : 42.7 KiB (0%)
Title : Bulgarian (Bulgaria)
Language : Bulgarian
Default : No
Forced : No

Text #4
ID : 6
Format : UTF-8
Codec ID : S_TEXT/UTF8
Codec ID/Info : UTF-8 Plain Text
Duration : 42 min 57 s
Bit rate : 77 b/s
Frame rate : 0.288 FPS
Count of elements : 742
Stream size : 24.4 KiB (0%)
Title : Czech (Czechia)
Language : Czech
Default : No
Forced : No

Text #5
ID : 7
Format : UTF-8
Codec ID : S_TEXT/UTF8
Codec ID/Info : UTF-8 Plain Text
Duration : 42 min 25 s
Bit rate : 87 b/s
Frame rate : 0.251 FPS
Count of elements : 638
Stream size : 27.3 KiB (0%)
Title : Danish (Denmark)
Language : Danish
Default : No
Forced : No

Text #6
ID : 8
Format : UTF-8
Codec ID : S_TEXT/UTF8
Codec ID/Info : UTF-8 Plain Text
Duration : 44 min 1 s
Bit rate : 82 b/s
Frame rate : 0.347 FPS
Count of elements : 916
Stream size : 26.6 KiB (0%)
Title : Spanish (Latin America)
Language : Spanish
Default : No
Forced : No

Text #7
ID : 9
Format : UTF-8
Codec ID : S_TEXT/UTF8
Codec ID/Info : UTF-8 Plain Text
Duration : 42 min 50 s
Bit rate : 85 b/s
Frame rate : 0.282 FPS
Count of elements : 726
Stream size : 27.0 KiB (0%)
Title : Spanish (Spain)
Language : Spanish
Default : No
Forced : No

Text #8
ID : 10
Format : UTF-8
Codec ID : S_TEXT/UTF8
Codec ID/Info : UTF-8 Plain Text
Duration : 42 min 25 s
Bit rate : 84 b/s
Frame rate : 0.296 FPS
Count of elements : 754
Stream size : 26.1 KiB (0%)
Title : Estonian (Estonia)
Language : Estonian
Default : No
Forced : No

Text #9
ID : 11
Format : UTF-8
Codec ID : S_TEXT/UTF8
Codec ID/Info : UTF-8 Plain Text
Duration : 42 min 45 s
Bit rate : 75 b/s
Frame rate : 0.285 FPS
Count of elements : 731
Stream size : 23.8 KiB (0%)
Title : Finnish (Finland)
Language : Finnish
Default : No
Forced : No

Text #10
ID : 12
Format : UTF-8
Codec ID : S_TEXT/UTF8
Codec ID/Info : UTF-8 Plain Text
Duration : 42 min 44 s
Bit rate : 75 b/s
Frame rate : 0.293 FPS
Count of elements : 751
Stream size : 23.7 KiB (0%)
Title : Croatian (Croatia)
Language : Croatian
Default : No
Forced : No

Text #11
ID : 13
Format : UTF-8
Codec ID : S_TEXT/UTF8
Codec ID/Info : UTF-8 Plain Text
Duration : 42 min 57 s
Bit rate : 78 b/s
Frame rate : 0.288 FPS
Count of elements : 742
Stream size : 24.7 KiB (0%)
Title : Hungarian (Hungary)
Language : Hungarian
Default : No
Forced : No

Text #12
ID : 14
Format : UTF-8
Codec ID : S_TEXT/UTF8
Codec ID/Info : UTF-8 Plain Text
Duration : 42 min 25 s
Bit rate : 86 b/s
Frame rate : 0.297 FPS
Count of elements : 755
Stream size : 26.8 KiB (0%)
Title : Lithuanian (Lithuania)
Language : Lithuanian
Default : No
Forced : No

Text #13
ID : 15
Format : UTF-8
Codec ID : S_TEXT/UTF8
Codec ID/Info : UTF-8 Plain Text
Duration : 42 min 25 s
Bit rate : 80 b/s
Frame rate : 0.296 FPS
Count of elements : 754
Stream size : 25.0 KiB (0%)
Title : Latvian (Latvia)
Language : Latvian
Default : No
Forced : No

Text #14
ID : 16
Format : UTF-8
Codec ID : S_TEXT/UTF8
Codec ID/Info : UTF-8 Plain Text
Duration : 42 min 25 s
Bit rate : 136 b/s
Frame rate : 0.297 FPS
Count of elements : 755
Stream size : 42.4 KiB (0%)
Title : Macedonian (North Macedonia)
Language : Macedonian
Default : No
Forced : No

Text #15
ID : 17
Format : UTF-8
Codec ID : S_TEXT/UTF8
Codec ID/Info : UTF-8 Plain Text
Duration : 42 min 25 s
Bit rate : 81 b/s
Frame rate : 0.246 FPS
Count of elements : 627
Stream size : 25.3 KiB (0%)
Title : Dutch (Netherlands)
Language : Dutch
Default : No
Forced : No

Text #16
ID : 18
Format : UTF-8
Codec ID : S_TEXT/UTF8
Codec ID/Info : UTF-8 Plain Text
Duration : 42 min 45 s
Bit rate : 83 b/s
Frame rate : 0.260 FPS
Count of elements : 668
Stream size : 26.1 KiB (0%)
Title : Norwegian (Norway)
Language : Norwegian
Default : No
Forced : No

Text #17
ID : 19
Format : UTF-8
Codec ID : S_TEXT/UTF8
Codec ID/Info : UTF-8 Plain Text
Duration : 42 min 57 s
Bit rate : 71 b/s
Frame rate : 0.287 FPS
Count of elements : 739
Stream size : 22.6 KiB (0%)
Title : Polish (Poland)
Language : Polish
Default : No
Forced : No

Text #18
ID : 20
Format : UTF-8
Codec ID : S_TEXT/UTF8
Codec ID/Info : UTF-8 Plain Text
Duration : 44 min 1 s
Bit rate : 86 b/s
Frame rate : 0.346 FPS
Count of elements : 915
Stream size : 27.8 KiB (0%)
Title : Portuguese (Brazil)
Language : Portuguese
Default : No
Forced : No

Text #19
ID : 21
Format : UTF-8
Codec ID : S_TEXT/UTF8
Codec ID/Info : UTF-8 Plain Text
Duration : 42 min 25 s
Bit rate : 87 b/s
Frame rate : 0.295 FPS
Count of elements : 750
Stream size : 27.3 KiB (0%)
Title : Portuguese (Portugal)
Language : Portuguese
Default : No
Forced : No

Text #20
ID : 22
Format : UTF-8
Codec ID : S_TEXT/UTF8
Codec ID/Info : UTF-8 Plain Text
Duration : 42 min 25 s
Bit rate : 84 b/s
Frame rate : 0.291 FPS
Count of elements : 740
Stream size : 26.2 KiB (0%)
Title : Romanian (Romania)
Language : Romanian
Default : No
Forced : No

Text #21
ID : 23
Format : UTF-8
Codec ID : S_TEXT/UTF8
Codec ID/Info : UTF-8 Plain Text
Duration : 42 min 57 s
Bit rate : 127 b/s
Frame rate : 0.288 FPS
Count of elements : 741
Stream size : 40.1 KiB (0%)
Title : Russian (Russia)
Language : Russian
Default : No
Forced : No

Text #22
ID : 24
Format : UTF-8
Codec ID : S_TEXT/UTF8
Codec ID/Info : UTF-8 Plain Text
Duration : 42 min 49 s
Bit rate : 73 b/s
Frame rate : 0.257 FPS
Count of elements : 660
Stream size : 23.1 KiB (0%)
Title : Slovenian (Slovenia)
Language : Slovenian
Default : No
Forced : No

Text #23
ID : 25
Format : UTF-8
Codec ID : S_TEXT/UTF8
Codec ID/Info : UTF-8 Plain Text
Duration : 42 min 25 s
Bit rate : 78 b/s
Frame rate : 0.297 FPS
Count of elements : 755
Stream size : 24.5 KiB (0%)
Title : Serbian (Latin, Serbia)
Language : Serbian
Default : No
Forced : No

Text #24
ID : 26
Format : UTF-8
Codec ID : S_TEXT/UTF8
Codec ID/Info : UTF-8 Plain Text
Duration : 42 min 45 s
Bit rate : 81 b/s
Frame rate : 0.242 FPS
Count of elements : 622
Stream size : 25.5 KiB (0%)
Title : Swedish (Sweden)
Language : Swedish
Default : No
Forced : No

Text #25
ID : 27
Format : UTF-8
Codec ID : S_TEXT/UTF8
Codec ID/Info : UTF-8 Plain Text
Duration : 44 min 10 s
Bit rate : 94 b/s
Frame rate : 0.358 FPS
Count of elements : 948
Stream size : 30.6 KiB (0%)
Title : Spanish (Latin America) (SDH)
Language : Spanish
Default : No
Forced : No

Download

Direct download files get automatically deleted after a month or so. Posted on : 06/29/2023

[collapse]
Media Info and Download Links | S02E02

General
Format : Matroska
Format version : Version 4
File size : 246 MiB
Duration : 44 min 53 s
Overall bit rate : 767 kb/s
Frame rate : 24.000 FPS
Movie name : And.Just.Like.That.S02E02.720p.10bit.WEBRip.2CH.x265.HEVC

Video
ID : 1
Format : HEVC
Format/Info : High Efficiency Video Coding
Format profile : Main [email protected]@Main
Codec ID : V_MPEGH/ISO/HEVC
Duration : 44 min 50 s
Bit rate : 697 kb/s
Width : 1 280 pixels
Height : 640 pixels
Display aspect ratio : 2.000
Frame rate mode : Constant
Frame rate : 24.000 FPS
Color space : YUV
Chroma subsampling : 4:2:0
Bit depth : 10 bits
Bits/(Pixel*Frame) : 0.035
Stream size : 224 MiB (91%)
Default : Yes
Forced : No
Color range : Limited
Color primaries : BT.709
Transfer characteristics : BT.709
Matrix coefficients : BT.709

Audio
ID : 2
Format : AAC LC SBR
Commercial name : HE-AAC
Format settings : Explicit
Codec ID : A_AAC-2
Duration : 44 min 53 s
Bit rate : 64.1 kb/s
Channel(s) : 2 channels
Channel layout : L R
Sampling rate : 48.0 kHz
Frame rate : 23.438 FPS (2048 SPF)
Compression mode : Lossy
Delay relative to video : 23 ms
Stream size : 20.6 MiB (8%)
Language : English
Default : Yes
Forced : No

Text #1
ID : 3
Format : UTF-8
Codec ID : S_TEXT/UTF8
Codec ID/Info : UTF-8 Plain Text
Duration : 43 min 11 s
Bit rate : 86 b/s
Frame rate : 0.290 FPS
Count of elements : 752
Stream size : 27.2 KiB (0%)
Title : English #1
Language : English (US)
Default : No
Forced : No

Text #2
ID : 4
Format : UTF-8
Codec ID : S_TEXT/UTF8
Codec ID/Info : UTF-8 Plain Text
Duration : 43 min 11 s
Bit rate : 86 b/s
Frame rate : 0.290 FPS
Count of elements : 752
Stream size : 27.2 KiB (0%)
Title : English #1 (SDH)
Language : English (US)
Default : No
Forced : No

Text #3
ID : 5
Format : UTF-8
Codec ID : S_TEXT/UTF8
Codec ID/Info : UTF-8 Plain Text
Duration : 43 min 11 s
Bit rate : 93 b/s
Frame rate : 0.331 FPS
Count of elements : 859
Stream size : 29.4 KiB (0%)
Title : English #2
Language : English (US)
Default : No
Forced : No

Text #4
ID : 6
Format : UTF-8
Codec ID : S_TEXT/UTF8
Codec ID/Info : UTF-8 Plain Text
Duration : 43 min 53 s
Bit rate : 99 b/s
Frame rate : 0.354 FPS
Count of elements : 931
Stream size : 32.1 KiB (0%)
Title : English #2 (SDH)
Language : English (US)
Default : Yes
Forced : No

Text #5
ID : 7
Format : UTF-8
Codec ID : S_TEXT/UTF8
Codec ID/Info : UTF-8 Plain Text
Duration : 43 min 11 s
Bit rate : 135 b/s
Frame rate : 0.286 FPS
Count of elements : 741
Stream size : 42.9 KiB (0%)
Language : Bulgarian (BG)
Default : No
Forced : No

Text #6
ID : 8
Format : UTF-8
Codec ID : S_TEXT/UTF8
Codec ID/Info : UTF-8 Plain Text
Duration : 43 min 30 s
Bit rate : 79 b/s
Frame rate : 0.283 FPS
Count of elements : 740
Stream size : 25.3 KiB (0%)
Language : Czech (CZ)
Default : No
Forced : No

Text #7
ID : 9
Format : UTF-8
Codec ID : S_TEXT/UTF8
Codec ID/Info : UTF-8 Plain Text
Duration : 43 min 11 s
Bit rate : 85 b/s
Frame rate : 0.240 FPS
Count of elements : 621
Stream size : 27.2 KiB (0%)
Language : Danish (DK)
Default : No
Forced : No

Text #8
ID : 10
Format : UTF-8
Codec ID : S_TEXT/UTF8
Codec ID/Info : UTF-8 Plain Text
Duration : 44 min 48 s
Bit rate : 78 b/s
Frame rate : 0.296 FPS
Count of elements : 796
Stream size : 25.9 KiB (0%)
Title : Spanish (Latin America)
Language : Spanish (Latin America)
Default : No
Forced : No

Text #9
ID : 11
Format : UTF-8
Codec ID : S_TEXT/UTF8
Codec ID/Info : UTF-8 Plain Text
Duration : 43 min 11 s
Bit rate : 84 b/s
Frame rate : 0.316 FPS
Count of elements : 818
Stream size : 26.7 KiB (0%)
Title : Spanish (Latin America)
Language : Spanish (Latin America)
Default : No
Forced : No

Text #10
ID : 12
Format : UTF-8
Codec ID : S_TEXT/UTF8
Codec ID/Info : UTF-8 Plain Text
Duration : 43 min 52 s
Bit rate : 92 b/s
Frame rate : 0.348 FPS
Count of elements : 915
Stream size : 29.6 KiB (0%)
Title : Spanish (Latin America) (SDH)
Language : Spanish (Latin America)
Default : No
Forced : No

Text #11
ID : 13
Format : UTF-8
Codec ID : S_TEXT/UTF8
Codec ID/Info : UTF-8 Plain Text
Duration : 43 min 27 s
Bit rate : 85 b/s
Frame rate : 0.290 FPS
Count of elements : 757
Stream size : 27.1 KiB (0%)
Title : Spanish (Spain)
Language : Spanish (ES)
Default : No
Forced : No

Text #12
ID : 14
Format : UTF-8
Codec ID : S_TEXT/UTF8
Codec ID/Info : UTF-8 Plain Text
Duration : 43 min 11 s
Bit rate : 73 b/s
Frame rate : 0.272 FPS
Count of elements : 704
Stream size : 23.3 KiB (0%)
Language : Finnish (FI)
Default : No
Forced : No

Text #13
ID : 15
Format : UTF-8
Codec ID : S_TEXT/UTF8
Codec ID/Info : UTF-8 Plain Text
Duration : 43 min 11 s
Bit rate : 77 b/s
Frame rate : 0.284 FPS
Count of elements : 737
Stream size : 24.5 KiB (0%)
Language : Croatian (HR)
Default : No
Forced : No

Text #14
ID : 16
Format : UTF-8
Codec ID : S_TEXT/UTF8
Codec ID/Info : UTF-8 Plain Text
Duration : 43 min 30 s
Bit rate : 82 b/s
Frame rate : 0.283 FPS
Count of elements : 740
Stream size : 26.1 KiB (0%)
Language : Hungarian (HU)
Default : No
Forced : No

Text #15
ID : 17
Format : UTF-8
Codec ID : S_TEXT/UTF8
Codec ID/Info : UTF-8 Plain Text
Duration : 43 min 11 s
Bit rate : 137 b/s
Frame rate : 0.287 FPS
Count of elements : 743
Stream size : 43.4 KiB (0%)
Language : Macedonian (MK)
Default : No
Forced : No

Text #16
ID : 18
Format : UTF-8
Codec ID : S_TEXT/UTF8
Codec ID/Info : UTF-8 Plain Text
Duration : 43 min 19 s
Bit rate : 79 b/s
Frame rate : 0.240 FPS
Count of elements : 624
Stream size : 25.3 KiB (0%)
Language : Dutch (NL)
Default : No
Forced : No

Text #17
ID : 19
Format : UTF-8
Codec ID : S_TEXT/UTF8
Codec ID/Info : UTF-8 Plain Text
Duration : 43 min 11 s
Bit rate : 82 b/s
Frame rate : 0.244 FPS
Count of elements : 633
Stream size : 26.0 KiB (0%)
Language : Norwegian (NO)
Default : No
Forced : No

Text #18
ID : 20
Format : UTF-8
Codec ID : S_TEXT/UTF8
Codec ID/Info : UTF-8 Plain Text
Duration : 43 min 30 s
Bit rate : 74 b/s
Frame rate : 0.283 FPS
Count of elements : 738
Stream size : 23.6 KiB (0%)
Language : Polish (PL)
Default : No
Forced : No

Text #19
ID : 21
Format : UTF-8
Codec ID : S_TEXT/UTF8
Codec ID/Info : UTF-8 Plain Text
Duration : 44 min 48 s
Bit rate : 83 b/s
Frame rate : 0.296 FPS
Count of elements : 795
Stream size : 27.4 KiB (0%)
Title : Portuguese (Brazil)
Language : Portuguese (BR)
Default : No
Forced : No

Text #20
ID : 22
Format : UTF-8
Codec ID : S_TEXT/UTF8
Codec ID/Info : UTF-8 Plain Text
Duration : 43 min 11 s
Bit rate : 86 b/s
Frame rate : 0.287 FPS
Count of elements : 743
Stream size : 27.3 KiB (0%)
Title : Portuguese (Portugal)
Language : Portuguese (PT)
Default : No
Forced : No

Text #21
ID : 23
Format : UTF-8
Codec ID : S_TEXT/UTF8
Codec ID/Info : UTF-8 Plain Text
Duration : 43 min 11 s
Bit rate : 83 b/s
Frame rate : 0.282 FPS
Count of elements : 731
Stream size : 26.3 KiB (0%)
Language : Romanian (RO)
Default : No
Forced : No

Text #22
ID : 24
Format : UTF-8
Codec ID : S_TEXT/UTF8
Codec ID/Info : UTF-8 Plain Text
Duration : 43 min 23 s
Bit rate : 73 b/s
Frame rate : 0.247 FPS
Count of elements : 642
Stream size : 23.3 KiB (0%)
Language : Slovenian (SI)
Default : No
Forced : No

Text #23
ID : 25
Format : UTF-8
Codec ID : S_TEXT/UTF8
Codec ID/Info : UTF-8 Plain Text
Duration : 43 min 11 s
Bit rate : 77 b/s
Frame rate : 0.287 FPS
Count of elements : 743
Stream size : 24.6 KiB (0%)
Language : Serbian (RS)
Default : No
Forced : No

Text #24
ID : 26
Format : UTF-8
Codec ID : S_TEXT/UTF8
Codec ID/Info : UTF-8 Plain Text
Duration : 43 min 20 s
Bit rate : 83 b/s
Frame rate : 0.236 FPS
Count of elements : 613
Stream size : 26.4 KiB (0%)
Language : Swedish (SE)
Default : No
Forced : No

Download

Direct download files get automatically deleted after a month or so. Posted on : 06/22/2023

[collapse]
Media Info and Download Links | S02E01

General
Format : Matroska
Format version : Version 4
File size : 214 MiB
Duration : 44 min 58 s
Overall bit rate : 666 kb/s
Frame rate : 24.000 FPS
Movie name : And.Just.Like.That.S02E01.720p.10bit.WEBRip.2CH.x265.HEVC

Video
ID : 1
Format : HEVC
Format/Info : High Efficiency Video Coding
Format profile : Main [email protected]@Main
Codec ID : V_MPEGH/ISO/HEVC
Duration : 44 min 58 s
Bit rate : 595 kb/s
Width : 1 280 pixels
Height : 640 pixels
Display aspect ratio : 2.000
Frame rate mode : Constant
Frame rate : 24.000 FPS
Color space : YUV
Chroma subsampling : 4:2:0
Bit depth : 10 bits
Bits/(Pixel*Frame) : 0.030
Stream size : 191 MiB (89%)
Default : Yes
Forced : No
Color range : Limited
Color primaries : BT.709
Transfer characteristics : BT.709
Matrix coefficients : BT.709

Audio
ID : 2
Format : AAC LC SBR
Commercial name : HE-AAC
Format settings : Explicit
Codec ID : A_AAC-2
Duration : 44 min 58 s
Bit rate : 64.6 kb/s
Channel(s) : 2 channels
Channel layout : L R
Sampling rate : 48.0 kHz
Frame rate : 23.438 FPS (2048 SPF)
Compression mode : Lossy
Delay relative to video : 23 ms
Stream size : 20.8 MiB (10%)
Language : English
Default : Yes
Forced : No

Text #1
ID : 3
Format : UTF-8
Codec ID : S_TEXT/UTF8
Codec ID/Info : UTF-8 Plain Text
Duration : 41 min 5 s
Bit rate : 91 b/s
Frame rate : 0.321 FPS
Count of elements : 791
Stream size : 27.4 KiB (0%)
Title : English #1
Language : English (US)
Default : No
Forced : No

Text #2
ID : 4
Format : UTF-8
Codec ID : S_TEXT/UTF8
Codec ID/Info : UTF-8 Plain Text
Duration : 44 min 17 s
Bit rate : 94 b/s
Frame rate : 0.337 FPS
Count of elements : 897
Stream size : 30.6 KiB (0%)
Title : English #2
Language : English (US)
Default : No
Forced : No

Text #3
ID : 5
Format : UTF-8
Codec ID : S_TEXT/UTF8
Codec ID/Info : UTF-8 Plain Text
Duration : 44 min 57 s
Bit rate : 101 b/s
Frame rate : 0.356 FPS
Count of elements : 959
Stream size : 33.4 KiB (0%)
Title : English #2 (SDH)
Language : English (US)
Default : Yes
Forced : No

Text #4
ID : 6
Format : UTF-8
Codec ID : S_TEXT/UTF8
Codec ID/Info : UTF-8 Plain Text
Duration : 41 min 4 s
Bit rate : 140 b/s
Frame rate : 0.336 FPS
Count of elements : 828
Stream size : 42.3 KiB (0%)
Language : Bulgarian (BG)
Default : No
Forced : No

Text #5
ID : 7
Format : UTF-8
Codec ID : S_TEXT/UTF8
Codec ID/Info : UTF-8 Plain Text
Duration : 42 min 9 s
Bit rate : 82 b/s
Frame rate : 0.315 FPS
Count of elements : 797
Stream size : 25.4 KiB (0%)
Language : Czech (CZ)
Default : No
Forced : No

Text #6
ID : 8
Format : UTF-8
Codec ID : S_TEXT/UTF8
Codec ID/Info : UTF-8 Plain Text
Duration : 41 min 4 s
Bit rate : 89 b/s
Frame rate : 0.268 FPS
Count of elements : 660
Stream size : 27.0 KiB (0%)
Language : Danish (DK)
Default : No
Forced : No

Text #7
ID : 9
Format : UTF-8
Codec ID : S_TEXT/UTF8
Codec ID/Info : UTF-8 Plain Text
Duration : 42 min 7 s
Bit rate : 81 b/s
Frame rate : 0.346 FPS
Count of elements : 875
Stream size : 25.2 KiB (0%)
Title : Spanish (Latin America)
Language : Spanish (Latin America)
Default : No
Forced : No

Text #8
ID : 10
Format : UTF-8
Codec ID : S_TEXT/UTF8
Codec ID/Info : UTF-8 Plain Text
Duration : 41 min 5 s
Bit rate : 88 b/s
Frame rate : 0.341 FPS
Count of elements : 841
Stream size : 26.6 KiB (0%)
Title : Spanish (Latin America)
Language : Spanish (Latin America)
Default : No
Forced : No

Text #9
ID : 11
Format : UTF-8
Codec ID : S_TEXT/UTF8
Codec ID/Info : UTF-8 Plain Text
Duration : 44 min 57 s
Bit rate : 90 b/s
Frame rate : 0.350 FPS
Count of elements : 944
Stream size : 29.8 KiB (0%)
Title : Spanish (Latin America) (SDH)
Language : Spanish (Latin America)
Default : No
Forced : No

Text #10
ID : 12
Format : UTF-8
Codec ID : S_TEXT/UTF8
Codec ID/Info : UTF-8 Plain Text
Duration : 41 min 13 s
Bit rate : 90 b/s
Frame rate : 0.309 FPS
Count of elements : 765
Stream size : 27.4 KiB (0%)
Title : Spanish (Spain)
Language : Spanish (ES)
Default : No
Forced : No

Text #11
ID : 13
Format : UTF-8
Codec ID : S_TEXT/UTF8
Codec ID/Info : UTF-8 Plain Text
Duration : 41 min 4 s
Bit rate : 80 b/s
Frame rate : 0.282 FPS
Count of elements : 696
Stream size : 24.4 KiB (0%)
Language : Estonian (EE)
Default : No
Forced : No

Text #12
ID : 14
Format : UTF-8
Codec ID : S_TEXT/UTF8
Codec ID/Info : UTF-8 Plain Text
Duration : 41 min 4 s
Bit rate : 76 b/s
Frame rate : 0.307 FPS
Count of elements : 757
Stream size : 22.9 KiB (0%)
Language : Finnish (FI)
Default : No
Forced : No

Text #13
ID : 15
Format : UTF-8
Codec ID : S_TEXT/UTF8
Codec ID/Info : UTF-8 Plain Text
Duration : 41 min 4 s
Bit rate : 79 b/s
Frame rate : 0.334 FPS
Count of elements : 824
Stream size : 23.9 KiB (0%)
Language : Croatian (HR)
Default : No
Forced : No

Text #14
ID : 16
Format : UTF-8
Codec ID : S_TEXT/UTF8
Codec ID/Info : UTF-8 Plain Text
Duration : 42 min 10 s
Bit rate : 84 b/s
Frame rate : 0.315 FPS
Count of elements : 797
Stream size : 26.2 KiB (0%)
Language : Hungarian (HU)
Default : No
Forced : No

Text #15
ID : 17
Format : UTF-8
Codec ID : S_TEXT/UTF8
Codec ID/Info : UTF-8 Plain Text
Duration : 41 min 4 s
Bit rate : 85 b/s
Frame rate : 0.336 FPS
Count of elements : 827
Stream size : 25.6 KiB (0%)
Language : Lithuanian (LT)
Default : No
Forced : No

Text #16
ID : 18
Format : UTF-8
Codec ID : S_TEXT/UTF8
Codec ID/Info : UTF-8 Plain Text
Duration : 41 min 4 s
Bit rate : 82 b/s
Frame rate : 0.334 FPS
Count of elements : 824
Stream size : 24.7 KiB (0%)
Language : Latvian (LV)
Default : No
Forced : No

Text #17
ID : 19
Format : UTF-8
Codec ID : S_TEXT/UTF8
Codec ID/Info : UTF-8 Plain Text
Duration : 41 min 4 s
Bit rate : 139 b/s
Frame rate : 0.336 FPS
Count of elements : 828
Stream size : 42.1 KiB (0%)
Language : Macedonian (MK)
Default : No
Forced : No

Text #18
ID : 20
Format : UTF-8
Codec ID : S_TEXT/UTF8
Codec ID/Info : UTF-8 Plain Text
Duration : 41 min 8 s
Bit rate : 83 b/s
Frame rate : 0.234 FPS
Count of elements : 578
Stream size : 25.1 KiB (0%)
Language : Dutch (NL)
Default : No
Forced : No

Text #19
ID : 21
Format : UTF-8
Codec ID : S_TEXT/UTF8
Codec ID/Info : UTF-8 Plain Text
Duration : 41 min 4 s
Bit rate : 86 b/s
Frame rate : 0.273 FPS
Count of elements : 674
Stream size : 25.9 KiB (0%)
Language : Norwegian (NO)
Default : No
Forced : No

Text #20
ID : 22
Format : UTF-8
Codec ID : S_TEXT/UTF8
Codec ID/Info : UTF-8 Plain Text
Duration : 41 min 18 s
Bit rate : 75 b/s
Frame rate : 0.321 FPS
Count of elements : 795
Stream size : 22.9 KiB (0%)
Language : Polish (PL)
Default : No
Forced : No

Text #21
ID : 23
Format : UTF-8
Codec ID : S_TEXT/UTF8
Codec ID/Info : UTF-8 Plain Text
Duration : 40 min 55 s
Bit rate : 92 b/s
Frame rate : 0.355 FPS
Count of elements : 873
Stream size : 27.6 KiB (0%)
Title : Portuguese (Brazil)
Language : Portuguese (BR)
Default : No
Forced : No

Text #22
ID : 24
Format : UTF-8
Codec ID : S_TEXT/UTF8
Codec ID/Info : UTF-8 Plain Text
Duration : 41 min 4 s
Bit rate : 89 b/s
Frame rate : 0.328 FPS
Count of elements : 808
Stream size : 26.9 KiB (0%)
Title : Portuguese (Portugal)
Language : Portuguese (PT)
Default : No
Forced : No

Text #23
ID : 25
Format : UTF-8
Codec ID : S_TEXT/UTF8
Codec ID/Info : UTF-8 Plain Text
Duration : 41 min 4 s
Bit rate : 85 b/s
Frame rate : 0.324 FPS
Count of elements : 798
Stream size : 25.7 KiB (0%)
Language : Romanian (RO)
Default : No
Forced : No

Text #24
ID : 26
Format : UTF-8
Codec ID : S_TEXT/UTF8
Codec ID/Info : UTF-8 Plain Text
Duration : 42 min 10 s
Bit rate : 134 b/s
Frame rate : 0.315 FPS
Count of elements : 798
Stream size : 41.4 KiB (0%)
Language : Russian (RU)
Default : No
Forced : No

Text #25
ID : 27
Format : UTF-8
Codec ID : S_TEXT/UTF8
Codec ID/Info : UTF-8 Plain Text
Duration : 41 min 16 s
Bit rate : 73 b/s
Frame rate : 0.329 FPS
Count of elements : 815
Stream size : 22.3 KiB (0%)
Language : Slovenian (SI)
Default : No
Forced : No

Text #26
ID : 28
Format : UTF-8
Codec ID : S_TEXT/UTF8
Codec ID/Info : UTF-8 Plain Text
Duration : 41 min 8 s
Bit rate : 79 b/s
Frame rate : 0.336 FPS
Count of elements : 829
Stream size : 24.1 KiB (0%)
Language : Serbian (RS)
Default : No
Forced : No

Text #27
ID : 29
Format : UTF-8
Codec ID : S_TEXT/UTF8
Codec ID/Info : UTF-8 Plain Text
Duration : 41 min 9 s
Bit rate : 86 b/s
Frame rate : 0.243 FPS
Count of elements : 600
Stream size : 26.1 KiB (0%)
Language : Swedish (SE)
Default : No
Forced : No

Download

Direct download files get automatically deleted after a month or so. Posted on : 06/22/2023

[collapse]

Media Info and Download Links | The.Documentary.2022

General
Format : Matroska
Format version : Version 4
File size : 499 MiB
Duration : 1 h 13 min
Overall bit rate : 954 kb/s
Movie name : And.Just.Like.That.The.Documentary.2022.DOCU.720p.WEBRip.2CH.x265.HEVC

Video
ID : 1
Format : HEVC
Format/Info : High Efficiency Video Coding
Format profile : [email protected]@Main
Codec ID : V_MPEGH/ISO/HEVC
Duration : 1 h 13 min
Bit rate : 894 kb/s
Width : 1 280 pixels
Height : 672 pixels
Display aspect ratio : 1.905
Frame rate mode : Constant
Frame rate : 23.976 (24000/1001) FPS
Color space : YUV
Chroma subsampling : 4:2:0
Bit depth : 8 bits
Bits/(Pixel*Frame) : 0.043
Stream size : 467 MiB (94%)
Default : Yes
Forced : No
Color range : Limited
Color primaries : BT.709
Transfer characteristics : BT.709
Matrix coefficients : BT.709

Audio
ID : 2
Format : AAC LC SBR
Commercial name : HE-AAC
Format settings : Explicit
Codec ID : A_AAC-2
Duration : 1 h 13 min
Bit rate : 57.5 kb/s
Channel(s) : 2 channels
Channel layout : L R
Sampling rate : 48.0 kHz
Frame rate : 23.438 FPS (2048 SPF)
Compression mode : Lossy
Delay relative to video : 23 ms
Stream size : 30.0 MiB (6%)
Language : English
Default : Yes
Forced : No

Text #1
ID : 3
Format : UTF-8
Codec ID : S_TEXT/UTF8
Codec ID/Info : UTF-8 Plain Text
Duration : 1 h 12 min
Bit rate : 95 b/s
Count of elements : 1534
Stream size : 50.8 KiB (0%)
Title : English
Language : English
Default : Yes
Forced : No

Text #2
ID : 4
Format : UTF-8
Codec ID : S_TEXT/UTF8
Codec ID/Info : UTF-8 Plain Text
Duration : 1 h 12 min
Bit rate : 85 b/s
Count of elements : 1374
Stream size : 45.5 KiB (0%)
Title : Latin America Spanish
Language : Spanish
Default : No
Forced : No

Text #3
ID : 5
Format : UTF-8
Codec ID : S_TEXT/UTF8
Codec ID/Info : UTF-8 Plain Text
Duration : 1 h 12 min
Bit rate : 90 b/s
Count of elements : 1373
Stream size : 48.4 KiB (0%)
Title : Portuguese Brazilian
Language : Portuguese
Default : No
Forced : No

Download

Direct download files get automatically deleted after a month or so. Posted on : 02/03/2022

[collapse]

Media Info and Download Links | S01E10

General
Format : Matroska
Format version : Version 4
File size : 200 MiB
Duration : 40 min 16 s
Overall bit rate : 696 kb/s
Movie name : And.Just.Like.That.S01E10.Seeing.the.Light.720p.WEBRip.2CH.x265.HEVC

Video
ID : 1
Format : HEVC
Format/Info : High Efficiency Video Coding
Format profile : [email protected]@Main
Codec ID : V_MPEGH/ISO/HEVC
Duration : 40 min 16 s
Bit rate : 627 kb/s
Width : 1 280 pixels
Height : 640 pixels
Display aspect ratio : 2.000
Frame rate mode : Constant
Frame rate : 23.976 (24000/1001) FPS
Color space : YUV
Chroma subsampling : 4:2:0
Bit depth : 8 bits
Bits/(Pixel*Frame) : 0.032
Stream size : 181 MiB (90%)
Default : Yes
Forced : No
Color range : Limited
Color primaries : BT.709
Transfer characteristics : BT.709
Matrix coefficients : BT.709

Audio
ID : 2
Format : AAC LC SBR
Commercial name : HE-AAC
Format settings : Explicit
Codec ID : A_AAC-2
Duration : 40 min 16 s
Bit rate : 66.2 kb/s
Channel(s) : 2 channels
Channel layout : L R
Sampling rate : 48.0 kHz
Frame rate : 23.438 FPS (2048 SPF)
Compression mode : Lossy
Delay relative to video : 23 ms
Stream size : 19.1 MiB (10%)
Language : English
Default : Yes
Forced : No

Text #1
ID : 3
Format : UTF-8
Codec ID : S_TEXT/UTF8
Codec ID/Info : UTF-8 Plain Text
Duration : 39 min 51 s
Bit rate : 84 b/s
Count of elements : 709
Stream size : 24.5 KiB (0%)
Title : English
Language : English
Default : Yes
Forced : No

Text #2
ID : 4
Format : UTF-8
Codec ID : S_TEXT/UTF8
Codec ID/Info : UTF-8 Plain Text
Duration : 40 min 3 s
Bit rate : 67 b/s
Count of elements : 632
Stream size : 19.8 KiB (0%)
Title : Latin America Spanish
Language : Spanish
Default : No
Forced : No

Text #3
ID : 5
Format : UTF-8
Codec ID : S_TEXT/UTF8
Codec ID/Info : UTF-8 Plain Text
Duration : 40 min 3 s
Bit rate : 72 b/s
Count of elements : 632
Stream size : 21.1 KiB (0%)
Title : Portuguese Brazilian
Language : Portuguese
Default : No
Forced : No

Download

Direct download files get automatically deleted after a month or so. Posted on : 02/03/2022

[collapse]
Media Info and Download Links | S01E09

General
Format : Matroska
Format version : Version 4
File size : 189 MiB
Duration : 35 min 32 s
Overall bit rate : 743 kb/s
Movie name : And.Just.Like.That.S01E09.No.Strings.Attached.720p.WEBRip.2CH.x265.HEVC

Video
ID : 1
Format : HEVC
Format/Info : High Efficiency Video Coding
Format profile : [email protected]@Main
Codec ID : V_MPEGH/ISO/HEVC
Duration : 35 min 32 s
Bit rate : 676 kb/s
Width : 1 280 pixels
Height : 640 pixels
Display aspect ratio : 2.000
Frame rate mode : Constant
Frame rate : 23.976 (24000/1001) FPS
Color space : YUV
Chroma subsampling : 4:2:0
Bit depth : 8 bits
Bits/(Pixel*Frame) : 0.034
Stream size : 172 MiB (91%)
Default : Yes
Forced : No
Color range : Limited
Color primaries : BT.709
Transfer characteristics : BT.709
Matrix coefficients : BT.709

Audio
ID : 2
Format : AAC LC SBR
Commercial name : HE-AAC
Format settings : Explicit
Codec ID : A_AAC-2
Duration : 35 min 32 s
Bit rate : 66.2 kb/s
Channel(s) : 2 channels
Channel layout : L R
Sampling rate : 48.0 kHz
Frame rate : 23.438 FPS (2048 SPF)
Compression mode : Lossy
Delay relative to video : 23 ms
Stream size : 16.6 MiB (9%)
Language : English
Default : Yes
Forced : No

Text #1
ID : 3
Format : UTF-8
Codec ID : S_TEXT/UTF8
Codec ID/Info : UTF-8 Plain Text
Duration : 35 min 11 s
Bit rate : 94 b/s
Count of elements : 712
Stream size : 24.5 KiB (0%)
Title : English
Language : English
Default : Yes
Forced : No

Text #2
ID : 4
Format : UTF-8
Codec ID : S_TEXT/UTF8
Codec ID/Info : UTF-8 Plain Text
Duration : 34 min 33 s
Bit rate : 84 b/s
Count of elements : 667
Stream size : 21.4 KiB (0%)
Title : Latin America Spanish
Language : Spanish
Default : No
Forced : No

Text #3
ID : 5
Format : UTF-8
Codec ID : S_TEXT/UTF8
Codec ID/Info : UTF-8 Plain Text
Duration : 34 min 33 s
Bit rate : 78 b/s
Count of elements : 666
Stream size : 19.9 KiB (0%)
Title : Portuguese Brazilian
Language : Portuguese
Default : No
Forced : No

Download

Direct download files get automatically deleted after a month or so. Posted on : 01/27/2022

[collapse]
Media Info and Download Links | S01E08

General
Format : Matroska
Format version : Version 4
File size : 178 MiB
Duration : 37 min 15 s
Overall bit rate : 668 kb/s
Movie name : And.Just.Like.That.S01E08.Bewitched.Bothered.and.Bewildered.720p.WEBRip.2CH.x265.HEVC

Video
ID : 1
Format : HEVC
Format/Info : High Efficiency Video Coding
Format profile : [email protected]@Main
Codec ID : V_MPEGH/ISO/HEVC
Duration : 37 min 15 s
Bit rate : 601 kb/s
Width : 1 280 pixels
Height : 640 pixels
Display aspect ratio : 2.000
Frame rate mode : Constant
Frame rate : 23.976 (24000/1001) FPS
Color space : YUV
Chroma subsampling : 4:2:0
Bit depth : 8 bits
Bits/(Pixel*Frame) : 0.031
Stream size : 160 MiB (90%)
Default : Yes
Forced : No
Color range : Limited
Color primaries : BT.709
Transfer characteristics : BT.709
Matrix coefficients : BT.709

Audio
ID : 2
Format : AAC LC SBR
Commercial name : HE-AAC
Format settings : Explicit
Codec ID : A_AAC-2
Duration : 37 min 15 s
Bit rate : 64.0 kb/s
Channel(s) : 2 channels
Channel layout : L R
Sampling rate : 48.0 kHz
Frame rate : 23.438 FPS (2048 SPF)
Compression mode : Lossy
Delay relative to video : 23 ms
Stream size : 17.0 MiB (10%)
Language : English
Default : Yes
Forced : No

Text #1
ID : 3
Format : UTF-8
Codec ID : S_TEXT/UTF8
Codec ID/Info : UTF-8 Plain Text
Duration : 37 min 4 s
Bit rate : 90 b/s
Count of elements : 732
Stream size : 24.4 KiB (0%)
Title : English
Language : English
Default : Yes
Forced : No

Text #2
ID : 4
Format : UTF-8
Codec ID : S_TEXT/UTF8
Codec ID/Info : UTF-8 Plain Text
Duration : 37 min 2 s
Bit rate : 76 b/s
Count of elements : 577
Stream size : 20.7 KiB (0%)
Title : Latin America Spanish
Language : Spanish
Default : No
Forced : No

Text #3
ID : 5
Format : UTF-8
Codec ID : S_TEXT/UTF8
Codec ID/Info : UTF-8 Plain Text
Duration : 37 min 2 s
Bit rate : 72 b/s
Count of elements : 576
Stream size : 19.8 KiB (0%)
Title : Portuguese Brazilian
Language : Portuguese
Default : No
Forced : No

Download

Direct download files get automatically deleted after a month or so. Posted on : 01/20/2022

[collapse]
Media Info and Download Links | S01E07

General
Format : Matroska
Format version : Version 4
File size : 201 MiB
Duration : 37 min 52 s
Overall bit rate : 742 kb/s
Movie name : And.Just.Like.That.S01E07.Sex.and.the.Widow.720p.WEBRip.2CH.x265.HEVC

Video
ID : 1
Format : HEVC
Format/Info : High Efficiency Video Coding
Format profile : [email protected]@Main
Codec ID : V_MPEGH/ISO/HEVC
Duration : 37 min 52 s
Bit rate : 675 kb/s
Width : 1 280 pixels
Height : 640 pixels
Display aspect ratio : 2.000
Frame rate mode : Constant
Frame rate : 23.976 (24000/1001) FPS
Color space : YUV
Chroma subsampling : 4:2:0
Bit depth : 8 bits
Bits/(Pixel*Frame) : 0.034
Stream size : 183 MiB (91%)
Default : Yes
Forced : No
Color range : Limited
Color primaries : BT.709
Transfer characteristics : BT.709
Matrix coefficients : BT.709

Audio
ID : 2
Format : AAC LC SBR
Commercial name : HE-AAC
Format settings : Explicit
Codec ID : A_AAC-2
Duration : 37 min 51 s
Bit rate : 64.7 kb/s
Channel(s) : 2 channels
Channel layout : L R
Sampling rate : 48.0 kHz
Frame rate : 23.438 FPS (2048 SPF)
Compression mode : Lossy
Delay relative to video : 23 ms
Stream size : 17.5 MiB (9%)
Language : English
Default : Yes
Forced : No

Text #1
ID : 3
Format : UTF-8
Codec ID : S_TEXT/UTF8
Codec ID/Info : UTF-8 Plain Text
Duration : 37 min 25 s
Bit rate : 95 b/s
Count of elements : 730
Stream size : 26.2 KiB (0%)
Title : English [CC]
Language : English
Default : Yes
Forced : No

Text #2
ID : 4
Format : UTF-8
Codec ID : S_TEXT/UTF8
Codec ID/Info : UTF-8 Plain Text
Duration : 34 min 23 s
Bit rate : 85 b/s
Count of elements : 664
Stream size : 21.6 KiB (0%)
Title : Latin American Spanish
Language : Spanish
Default : No
Forced : No

Text #3
ID : 5
Format : UTF-8
Codec ID : S_TEXT/UTF8
Codec ID/Info : UTF-8 Plain Text
Duration : 34 min 23 s
Bit rate : 80 b/s
Count of elements : 668
Stream size : 20.3 KiB (0%)
Title : Brazilian Portuguese
Language : Portuguese
Default : No
Forced : No

Download

Direct download files get automatically deleted after a month or so. Posted on : 01/13/2022

[collapse]
Media Info and Download Links | S01E06

General
Format : Matroska
Format version : Version 4
File size : 191 MiB
Duration : 38 min 0 s
Overall bit rate : 702 kb/s
Movie name : And.Just.Like.That.S01E06.Diwali.720p.WEBRip.2CH.x265.HEVC

Video
ID : 1
Format : HEVC
Format/Info : High Efficiency Video Coding
Format profile : [email protected]@Main
Codec ID : V_MPEGH/ISO/HEVC
Duration : 38 min 0 s
Bit rate : 634 kb/s
Width : 1 280 pixels
Height : 640 pixels
Display aspect ratio : 2.000
Frame rate mode : Constant
Frame rate : 23.976 (24000/1001) FPS
Color space : YUV
Chroma subsampling : 4:2:0
Bit depth : 8 bits
Bits/(Pixel*Frame) : 0.032
Stream size : 172 MiB (90%)
Default : Yes
Forced : No
Color range : Limited
Color primaries : BT.709
Transfer characteristics : BT.709
Matrix coefficients : BT.709

Audio
ID : 2
Format : AAC LC SBR
Commercial name : HE-AAC
Format settings : Explicit
Codec ID : A_AAC-2
Duration : 38 min 0 s
Bit rate : 66.2 kb/s
Channel(s) : 2 channels
Channel layout : L R
Sampling rate : 48.0 kHz
Frame rate : 23.438 FPS (2048 SPF)
Compression mode : Lossy
Delay relative to video : 23 ms
Stream size : 17.9 MiB (9%)
Language : English
Default : Yes
Forced : No

Text #1
ID : 3
Format : UTF-8
Codec ID : S_TEXT/UTF8
Codec ID/Info : UTF-8 Plain Text
Duration : 37 min 41 s
Bit rate : 89 b/s
Count of elements : 698
Stream size : 24.8 KiB (0%)
Title : English [CC]
Language : English
Default : Yes
Forced : No

Text #2
ID : 4
Format : UTF-8
Codec ID : S_TEXT/UTF8
Codec ID/Info : UTF-8 Plain Text
Duration : 35 min 17 s
Bit rate : 81 b/s
Count of elements : 626
Stream size : 21.2 KiB (0%)
Title : Latin American Spanish
Language : Spanish
Default : No
Forced : No

Text #3
ID : 5
Format : UTF-8
Codec ID : S_TEXT/UTF8
Codec ID/Info : UTF-8 Plain Text
Duration : 35 min 18 s
Bit rate : 87 b/s
Count of elements : 627
Stream size : 22.7 KiB (0%)
Title : Brazilian Portuguese
Language : Portuguese
Default : No
Forced : No

Download

Direct download files get automatically deleted after a month or so. Posted on : 01/06/2022

[collapse]
Media Info and Download Links | S01E05

General
Format : Matroska
Format version : Version 4
File size : 176 MiB
Duration : 38 min 43 s
Overall bit rate : 634 kb/s
Movie name : And.Just.Like.That.S01E05.Tragically.Hip.720p.WEBRip.2CH.x265.HEVC

Video
ID : 1
Format : HEVC
Format/Info : High Efficiency Video Coding
Format profile : [email protected]@Main
Codec ID : V_MPEGH/ISO/HEVC
Duration : 38 min 43 s
Bit rate : 568 kb/s
Width : 1 280 pixels
Height : 640 pixels
Display aspect ratio : 2.000
Frame rate mode : Constant
Frame rate : 23.976 (24000/1001) FPS
Color space : YUV
Chroma subsampling : 4:2:0
Bit depth : 8 bits
Bits/(Pixel*Frame) : 0.029
Stream size : 157 MiB (90%)
Default : Yes
Forced : No
Color range : Limited
Color primaries : BT.709
Transfer characteristics : BT.709
Matrix coefficients : BT.709

Audio
ID : 2
Format : AAC LC SBR
Commercial name : HE-AAC
Format settings : Explicit
Codec ID : A_AAC-2
Duration : 38 min 43 s
Bit rate : 63.6 kb/s
Channel(s) : 2 channels
Channel layout : L R
Sampling rate : 48.0 kHz
Frame rate : 23.438 FPS (2048 SPF)
Compression mode : Lossy
Delay relative to video : 23 ms
Stream size : 17.6 MiB (10%)
Language : English
Default : Yes
Forced : No

Text #1
ID : 3
Format : UTF-8
Codec ID : S_TEXT/UTF8
Codec ID/Info : UTF-8 Plain Text
Duration : 38 min 25 s
Bit rate : 89 b/s
Count of elements : 760
Stream size : 25.1 KiB (0%)
Title : English
Language : English
Default : Yes
Forced : No

Text #2
ID : 4
Format : UTF-8
Codec ID : S_TEXT/UTF8
Codec ID/Info : UTF-8 Plain Text
Duration : 38 min 23 s
Bit rate : 74 b/s
Count of elements : 601
Stream size : 21.0 KiB (0%)
Title : Latin America Spanish
Language : Spanish
Default : No
Forced : No

Text #3
ID : 5
Format : UTF-8
Codec ID : S_TEXT/UTF8
Codec ID/Info : UTF-8 Plain Text
Duration : 38 min 23 s
Bit rate : 76 b/s
Count of elements : 602
Stream size : 21.6 KiB (0%)
Title : Portuguese Brazilian
Language : Portuguese
Default : No
Forced : No

Download

Direct download files get automatically deleted after a month or so. Posted on : 12/30/2021

[collapse]
Media Info and Download Links | S01E04

General
Format : Matroska
Format version : Version 4
File size : 197 MiB
Duration : 38 min 18 s
Overall bit rate : 720 kb/s
Movie name : And.Just.Like.That.S01E04.Some.of.My.Best.Friends.720p.WEBRip.2CH.x265.HEVC

Video
ID : 1
Format : HEVC
Format/Info : High Efficiency Video Coding
Format profile : [email protected]@Main
Codec ID : V_MPEGH/ISO/HEVC
Duration : 38 min 18 s
Bit rate : 653 kb/s
Width : 1 280 pixels
Height : 640 pixels
Display aspect ratio : 2.000
Frame rate mode : Constant
Frame rate : 23.976 (24000/1001) FPS
Color space : YUV
Chroma subsampling : 4:2:0
Bit depth : 8 bits
Bits/(Pixel*Frame) : 0.033
Stream size : 179 MiB (91%)
Default : Yes
Forced : No
Color range : Limited
Color primaries : BT.709
Transfer characteristics : BT.709
Matrix coefficients : BT.709

Audio
ID : 2
Format : AAC LC SBR
Commercial name : HE-AAC
Format settings : Explicit
Codec ID : A_AAC-2
Duration : 38 min 18 s
Bit rate : 64.7 kb/s
Channel(s) : 2 channels
Channel layout : L R
Sampling rate : 48.0 kHz
Frame rate : 23.438 FPS (2048 SPF)
Compression mode : Lossy
Delay relative to video : 23 ms
Stream size : 17.7 MiB (9%)
Language : English
Default : Yes
Forced : No

Text #1
ID : 3
Format : UTF-8
Codec ID : S_TEXT/UTF8
Codec ID/Info : UTF-8 Plain Text
Duration : 37 min 54 s
Bit rate : 95 b/s
Count of elements : 756
Stream size : 26.4 KiB (0%)
Title : English [CC]
Language : English
Default : Yes
Forced : No

Text #2
ID : 4
Format : UTF-8
Codec ID : S_TEXT/UTF8
Codec ID/Info : UTF-8 Plain Text
Duration : 35 min 32 s
Bit rate : 85 b/s
Count of elements : 690
Stream size : 22.1 KiB (0%)
Title : Latin American Spanish
Language : Spanish
Default : No
Forced : No

Text #3
ID : 5
Format : UTF-8
Codec ID : S_TEXT/UTF8
Codec ID/Info : UTF-8 Plain Text
Duration : 35 min 32 s
Bit rate : 88 b/s
Count of elements : 691
Stream size : 23.1 KiB (0%)
Title : Brazilian Portuguese
Language : Portuguese
Default : No
Forced : No

Download

Direct download files get automatically deleted after a month or so. Posted on : 12/23/2021

[collapse]
Media Info and Download Links | S01E03

General
Format : Matroska
Format version : Version 4
File size : 222 MiB
Duration : 45 min 1 s
Overall bit rate : 690 kb/s
Movie name : And.Just.Like.That.S01E03.When.in.Rome.720p.WEBRip.2CH.x265.HEVC

Video
ID : 1
Format : HEVC
Format/Info : High Efficiency Video Coding
Format profile : [email protected]@Main
Codec ID : V_MPEGH/ISO/HEVC
Duration : 45 min 1 s
Bit rate : 624 kb/s
Width : 1 280 pixels
Height : 640 pixels
Display aspect ratio : 2.000
Frame rate mode : Constant
Frame rate : 23.976 (24000/1001) FPS
Color space : YUV
Chroma subsampling : 4:2:0
Bit depth : 8 bits
Bits/(Pixel*Frame) : 0.032
Stream size : 201 MiB (90%)
Default : Yes
Forced : No
Color range : Limited
Color primaries : BT.709
Transfer characteristics : BT.709
Matrix coefficients : BT.709

Audio
ID : 2
Format : AAC LC SBR
Commercial name : HE-AAC
Format settings : Explicit
Codec ID : A_AAC-2
Duration : 45 min 1 s
Bit rate : 64.4 kb/s
Channel(s) : 2 channels
Channel layout : L R
Sampling rate : 48.0 kHz
Frame rate : 23.438 FPS (2048 SPF)
Compression mode : Lossy
Delay relative to video : 23 ms
Stream size : 20.7 MiB (9%)
Language : English
Default : Yes
Forced : No

Text #1
ID : 3
Format : UTF-8
Codec ID : S_TEXT/UTF8
Codec ID/Info : UTF-8 Plain Text
Duration : 44 min 29 s
Bit rate : 85 b/s
Count of elements : 848
Stream size : 28.0 KiB (0%)
Title : English
Language : English
Default : Yes
Forced : No

Text #2
ID : 4
Format : UTF-8
Codec ID : S_TEXT/UTF8
Codec ID/Info : UTF-8 Plain Text
Duration : 44 min 49 s
Bit rate : 77 b/s
Count of elements : 727
Stream size : 25.4 KiB (0%)
Title : Latin America Spanish
Language : Spanish
Default : No
Forced : No

Text #3
ID : 5
Format : UTF-8
Codec ID : S_TEXT/UTF8
Codec ID/Info : UTF-8 Plain Text
Duration : 44 min 49 s
Bit rate : 76 b/s
Count of elements : 726
Stream size : 25.0 KiB (0%)
Title : Portuguese Brazilian
Language : Portuguese
Default : No
Forced : No

Download

Direct download files get automatically deleted after a month or so. Posted on : 12/16/2021

[collapse]
Media Info and Download Links | S01E02

General
Format : Matroska
Format version : Version 4
File size : 188 MiB
Duration : 42 min 54 s
Overall bit rate : 614 kb/s
Movie name : And.Just.Like.That.S01E02.Little.Black.Dress.720p.WEBRip.2CH.x265.HEVC

Video
ID : 1
Format : HEVC
Format/Info : High Efficiency Video Coding
Format profile : [email protected]@Main
Codec ID : V_MPEGH/ISO/HEVC
Duration : 42 min 54 s
Bit rate : 549 kb/s
Width : 1 280 pixels
Height : 640 pixels
Display aspect ratio : 2.000
Frame rate mode : Constant
Frame rate : 23.976 (24000/1001) FPS
Color space : YUV
Chroma subsampling : 4:2:0
Bit depth : 8 bits
Bits/(Pixel*Frame) : 0.028
Stream size : 168 MiB (89%)
Default : Yes
Forced : No
Color range : Limited
Color primaries : BT.709
Transfer characteristics : BT.709
Matrix coefficients : BT.709

Audio
ID : 2
Format : AAC LC SBR
Commercial name : HE-AAC
Format settings : Explicit
Codec ID : A_AAC-2
Duration : 42 min 54 s
Bit rate : 62.8 kb/s
Channel(s) : 2 channels
Channel layout : L R
Sampling rate : 48.0 kHz
Frame rate : 23.438 FPS (2048 SPF)
Compression mode : Lossy
Delay relative to video : 23 ms
Stream size : 19.3 MiB (10%)
Language : English
Default : Yes
Forced : No

Text #1
ID : 3
Format : UTF-8
Codec ID : S_TEXT/UTF8
Codec ID/Info : UTF-8 Plain Text
Duration : 42 min 35 s
Bit rate : 70 b/s
Count of elements : 701
Stream size : 21.9 KiB (0%)
Title : English
Language : English
Default : Yes
Forced : No

Text #2
ID : 4
Format : UTF-8
Codec ID : S_TEXT/UTF8
Codec ID/Info : UTF-8 Plain Text
Duration : 42 min 29 s
Bit rate : 60 b/s
Count of elements : 620
Stream size : 18.8 KiB (0%)
Title : Latin America Spanish
Language : Spanish
Default : No
Forced : No

Text #3
ID : 5
Format : UTF-8
Codec ID : S_TEXT/UTF8
Codec ID/Info : UTF-8 Plain Text
Duration : 40 min 8 s
Bit rate : 59 b/s
Count of elements : 618
Stream size : 17.6 KiB (0%)
Title : Portuguese Brazilian
Language : Portuguese
Default : No
Forced : No

Download

Direct download files get automatically deleted after a month or so. Posted on : 12/09/2021

[collapse]
Media Info and Download Links | S01E01

General
Format : Matroska
Format version : Version 4
File size : 211 MiB
Duration : 44 min 10 s
Overall bit rate : 668 kb/s
Movie name : And.Just.Like.That.S01E01.Hello.It’s.Me.720p.WEBRip.2CH.x265.HEVC

Video
ID : 1
Format : HEVC
Format/Info : High Efficiency Video Coding
Format profile : [email protected]@Main
Codec ID : V_MPEGH/ISO/HEVC
Duration : 44 min 10 s
Bit rate : 601 kb/s
Width : 1 280 pixels
Height : 640 pixels
Display aspect ratio : 2.000
Frame rate mode : Constant
Frame rate : 23.976 (24000/1001) FPS
Color space : YUV
Chroma subsampling : 4:2:0
Bit depth : 8 bits
Bits/(Pixel*Frame) : 0.031
Stream size : 190 MiB (90%)
Default : Yes
Forced : No
Color range : Limited
Color primaries : BT.709
Transfer characteristics : BT.709
Matrix coefficients : BT.709

Audio
ID : 2
Format : AAC LC SBR
Commercial name : HE-AAC
Format settings : Explicit
Codec ID : A_AAC-2
Duration : 44 min 9 s
Bit rate : 66.2 kb/s
Channel(s) : 2 channels
Channel layout : L R
Sampling rate : 48.0 kHz
Frame rate : 23.438 FPS (2048 SPF)
Compression mode : Lossy
Delay relative to video : 23 ms
Stream size : 20.5 MiB (10%)
Language : English
Default : Yes
Forced : No

Text #1
ID : 3
Format : UTF-8
Codec ID : S_TEXT/UTF8
Codec ID/Info : UTF-8 Plain Text
Duration : 43 min 54 s
Bit rate : 89 b/s
Count of elements : 856
Stream size : 28.7 KiB (0%)
Title : English
Language : English
Default : Yes
Forced : No

Text #2
ID : 4
Format : UTF-8
Codec ID : S_TEXT/UTF8
Codec ID/Info : UTF-8 Plain Text
Duration : 43 min 47 s
Bit rate : 76 b/s
Count of elements : 663
Stream size : 24.6 KiB (0%)
Title : Latin America Spanish
Language : Spanish
Default : No
Forced : No

Text #3
ID : 5
Format : UTF-8
Codec ID : S_TEXT/UTF8
Codec ID/Info : UTF-8 Plain Text
Duration : 41 min 19 s
Bit rate : 75 b/s
Count of elements : 661
Stream size : 22.9 KiB (0%)
Title : Portuguese Brazilian
Language : Portuguese
Default : No
Forced : No

Text #4
ID : 6
Format : UTF-8
Codec ID : S_TEXT/UTF8
Codec ID/Info : UTF-8 Plain Text
Duration : 1 min 49 s
Bit rate : 28 b/s
Count of elements : 11
Stream size : 390 Bytes (0%)
Title : Portuguese [Forced]
Language : Portuguese
Default : No
Forced : Yes

Download

Direct download files get automatically deleted after a month or so. Posted on : 12/09/2021

[collapse]

You may also like...

error: nah :p~