Μια Φορά Κ’ Έναν Καιρό (2022)

Comedy

Μια γυναικεία φιγούρα ..ένα πνεύμα, αερικό… Ένα κακό, μια κατάρα που πρέπει να ξορκίσει πλανιέται παντού…
Το παραμύθι αυτό θα μας κάνει όλους να ξανά στηθούμε με ανυπομονησία μπροστά από την οθόνη αγωνιώντας σαν μικρά παιδιά για την συνέχεια…και αν ζήσουν αυτοί καλά… εμείς καλύτερα …
Πρωταγωνιστούν: Λώρης Λοϊζίδης, Λένια Σορόκου, Χριστόδουλος Μαρτάς, Σωκράτης Πάτσικας, Έρικά Μπίγιου, Μιχάλης Σοφοκλέους, Πέννυ Φοινοίρη, Χρήστος Γρηγοριάδης, Στέλλα Φιλίππου, Μαρία Μαστρίδου, Ανδρέας Μακρής κ.α. Σκηνοθεσία Θεοδόσης Οικονομίδης Παραγωγή: Antenna Productions.

Watch trailer

Media Info and Download Links | S01E25

General
Format : Matroska
Format version : Version 4
File size : 225 MiB
Duration : 44 min 45 s
Overall bit rate : 702 kb/s
Movie name : Mia.Fora.k.Ena.Kairo.S01E25.720p.10bit.WEB-DL.2CH.x265.HEVC

Video
ID : 1
Format : HEVC
Format/Info : High Efficiency Video Coding
Format profile : Main [email protected]@Main
Codec ID : V_MPEGH/ISO/HEVC
Duration : 44 min 45 s
Bit rate : 572 kb/s
Width : 1 280 pixels
Height : 720 pixels
Display aspect ratio : 16:9
Frame rate mode : Constant
Frame rate : 25.000 FPS
Color space : YUV
Chroma subsampling : 4:2:0 (Type 0)
Bit depth : 10 bits
Scan type : Interlaced
Scan type, store method : Interleaved fields
Scan order : Top Field First
Bits/(Pixel*Frame) : 0.025
Stream size : 183 MiB (81%)
Default : Yes
Forced : No
Color range : Limited

Audio
ID : 2
Format : AAC LC
Codec ID : A_AAC-2
Duration : 44 min 45 s
Bit rate : 128 kb/s
Channel(s) : 2 channels
Channel layout : L R
Sampling rate : 48.0 kHz
Frame rate : 46.875 FPS (1024 SPF)
Compression mode : Lossy
Stream size : 40.8 MiB (18%)
Language : Greek
Default : Yes
Forced : No

Download

Direct download files get automatically deleted after a month or so. Posted on : 11/25/2022

[collapse]
Media Info and Download Links | S01E24

General
Format : Matroska
Format version : Version 4
File size : 225 MiB
Duration : 44 min 51 s
Overall bit rate : 702 kb/s
Movie name : Mia.Fora.k.Ena.Kairo.S01E24.720p.10bit.WEB-DL.2CH.x265.HEVC

Video
ID : 1
Format : HEVC
Format/Info : High Efficiency Video Coding
Format profile : Main [email protected]@Main
Codec ID : V_MPEGH/ISO/HEVC
Duration : 44 min 51 s
Bit rate : 572 kb/s
Width : 1 280 pixels
Height : 720 pixels
Display aspect ratio : 16:9
Frame rate mode : Constant
Frame rate : 25.000 FPS
Color space : YUV
Chroma subsampling : 4:2:0 (Type 0)
Bit depth : 10 bits
Scan type : Interlaced
Scan type, store method : Interleaved fields
Scan order : Top Field First
Bits/(Pixel*Frame) : 0.025
Stream size : 184 MiB (81%)
Default : Yes
Forced : No
Color range : Limited

Audio
ID : 2
Format : AAC LC
Codec ID : A_AAC-2
Duration : 44 min 51 s
Bit rate : 128 kb/s
Channel(s) : 2 channels
Channel layout : L R
Sampling rate : 48.0 kHz
Frame rate : 46.875 FPS (1024 SPF)
Compression mode : Lossy
Stream size : 41.0 MiB (18%)
Language : Greek
Default : Yes
Forced : No

Download

Direct download files get automatically deleted after a month or so. Posted on : 11/25/2022

[collapse]
Media Info and Download Links | S01E23

General
Format : Matroska
Format version : Version 4
File size : 223 MiB
Duration : 44 min 30 s
Overall bit rate : 702 kb/s
Movie name : Mia.Fora.k.Ena.Kairo.S01E23.720p.10bit.WEB-DL.2CH.x265.HEVC

Video
ID : 1
Format : HEVC
Format/Info : High Efficiency Video Coding
Format profile : Main [email protected]@Main
Codec ID : V_MPEGH/ISO/HEVC
Duration : 44 min 30 s
Bit rate : 572 kb/s
Width : 1 280 pixels
Height : 720 pixels
Display aspect ratio : 16:9
Frame rate mode : Constant
Frame rate : 25.000 FPS
Color space : YUV
Chroma subsampling : 4:2:0 (Type 0)
Bit depth : 10 bits
Scan type : Interlaced
Scan type, store method : Interleaved fields
Scan order : Top Field First
Bits/(Pixel*Frame) : 0.025
Stream size : 182 MiB (81%)
Default : Yes
Forced : No
Color range : Limited

Audio
ID : 2
Format : AAC LC
Codec ID : A_AAC-2
Duration : 44 min 30 s
Bit rate : 128 kb/s
Channel(s) : 2 channels
Channel layout : L R
Sampling rate : 48.0 kHz
Frame rate : 46.875 FPS (1024 SPF)
Compression mode : Lossy
Stream size : 40.6 MiB (18%)
Language : Greek
Default : Yes
Forced : No

Download

Direct download files get automatically deleted after a month or so. Posted on : 11/21/2022

[collapse]
Media Info and Download Links | S01E22

General
Format : Matroska
Format version : Version 4
File size : 225 MiB
Duration : 44 min 46 s
Overall bit rate : 702 kb/s
Movie name : Mia.Fora.k.Ena.Kairo.S01E22.720p.10bit.WEB-DL.2CH.x265.HEVC

Video
ID : 1
Format : HEVC
Format/Info : High Efficiency Video Coding
Format profile : Main [email protected]@Main
Codec ID : V_MPEGH/ISO/HEVC
Duration : 44 min 46 s
Bit rate : 572 kb/s
Width : 1 280 pixels
Height : 720 pixels
Display aspect ratio : 16:9
Frame rate mode : Constant
Frame rate : 25.000 FPS
Color space : YUV
Chroma subsampling : 4:2:0 (Type 0)
Bit depth : 10 bits
Scan type : Interlaced
Scan type, store method : Interleaved fields
Scan order : Top Field First
Bits/(Pixel*Frame) : 0.025
Stream size : 183 MiB (81%)
Default : Yes
Forced : No
Color range : Limited

Audio
ID : 2
Format : AAC LC
Codec ID : A_AAC-2
Duration : 44 min 46 s
Bit rate : 128 kb/s
Channel(s) : 2 channels
Channel layout : L R
Sampling rate : 48.0 kHz
Frame rate : 46.875 FPS (1024 SPF)
Compression mode : Lossy
Stream size : 40.9 MiB (18%)
Language : Greek
Default : Yes
Forced : No

Download

Direct download files get automatically deleted after a month or so. Posted on : 11/21/2022

[collapse]
Media Info and Download Links | S01E21

General
Format : Matroska
Format version : Version 4
File size : 216 MiB
Duration : 43 min 2 s
Overall bit rate : 702 kb/s
Movie name : Mia.Fora.k.Ena.Kairo.S01E21.720p.10bit.WEB-DL.2CH.x265.HEVC

Video
ID : 1
Format : HEVC
Format/Info : High Efficiency Video Coding
Format profile : Main [email protected]@Main
Codec ID : V_MPEGH/ISO/HEVC
Duration : 43 min 2 s
Bit rate : 572 kb/s
Width : 1 280 pixels
Height : 720 pixels
Display aspect ratio : 16:9
Frame rate mode : Constant
Frame rate : 25.000 FPS
Color space : YUV
Chroma subsampling : 4:2:0 (Type 0)
Bit depth : 10 bits
Scan type : Interlaced
Scan type, store method : Interleaved fields
Scan order : Top Field First
Bits/(Pixel*Frame) : 0.025
Stream size : 176 MiB (81%)
Default : Yes
Forced : No
Color range : Limited

Audio
ID : 2
Format : AAC LC
Codec ID : A_AAC-2
Duration : 43 min 2 s
Bit rate : 128 kb/s
Channel(s) : 2 channels
Channel layout : L R
Sampling rate : 48.0 kHz
Frame rate : 46.875 FPS (1024 SPF)
Compression mode : Lossy
Stream size : 39.3 MiB (18%)
Language : Greek
Default : Yes
Forced : No

Download

Direct download files get automatically deleted after a month or so. Posted on : 11/12/2022

[collapse]
Media Info and Download Links | S01E20

General
Format : Matroska
Format version : Version 4
File size : 222 MiB
Duration : 44 min 13 s
Overall bit rate : 702 kb/s
Movie name : Mia.Fora.k.Ena.Kairo.S01E20.720p.10bit.WEB-DL.2CH.x265.HEVC

Video
ID : 1
Format : HEVC
Format/Info : High Efficiency Video Coding
Format profile : Main [email protected]@Main
Codec ID : V_MPEGH/ISO/HEVC
Duration : 44 min 13 s
Bit rate : 572 kb/s
Width : 1 280 pixels
Height : 720 pixels
Display aspect ratio : 16:9
Frame rate mode : Constant
Frame rate : 25.000 FPS
Color space : YUV
Chroma subsampling : 4:2:0 (Type 0)
Bit depth : 10 bits
Scan type : Interlaced
Scan type, store method : Interleaved fields
Scan order : Top Field First
Bits/(Pixel*Frame) : 0.025
Stream size : 181 MiB (81%)
Default : Yes
Forced : No
Color range : Limited

Audio
ID : 2
Format : AAC LC
Codec ID : A_AAC-2
Duration : 44 min 12 s
Bit rate : 128 kb/s
Channel(s) : 2 channels
Channel layout : L R
Sampling rate : 48.0 kHz
Frame rate : 46.875 FPS (1024 SPF)
Compression mode : Lossy
Stream size : 40.4 MiB (18%)
Language : Greek
Default : Yes
Forced : No

Download

Direct download files get automatically deleted after a month or so. Posted on : 11/10/2022

[collapse]
Media Info and Download Links | S01E19

General
Format : Matroska
Format version : Version 4
File size : 222 MiB
Duration : 44 min 17 s
Overall bit rate : 702 kb/s
Movie name : Mia.Fora.k.Ena.Kairo.S01E19.720p.10bit.WEB-DL.2CH.x265.HEVC

Video
ID : 1
Format : HEVC
Format/Info : High Efficiency Video Coding
Format profile : Main [email protected]@Main
Codec ID : V_MPEGH/ISO/HEVC
Duration : 44 min 17 s
Bit rate : 572 kb/s
Width : 1 280 pixels
Height : 720 pixels
Display aspect ratio : 16:9
Frame rate mode : Constant
Frame rate : 25.000 FPS
Color space : YUV
Chroma subsampling : 4:2:0 (Type 0)
Bit depth : 10 bits
Scan type : Interlaced
Scan type, store method : Interleaved fields
Scan order : Top Field First
Bits/(Pixel*Frame) : 0.025
Stream size : 181 MiB (81%)
Default : Yes
Forced : No
Color range : Limited

Audio
ID : 2
Format : AAC LC
Codec ID : A_AAC-2
Duration : 44 min 17 s
Bit rate : 128 kb/s
Channel(s) : 2 channels
Channel layout : L R
Sampling rate : 48.0 kHz
Frame rate : 46.875 FPS (1024 SPF)
Compression mode : Lossy
Stream size : 40.4 MiB (18%)
Language : Greek
Default : Yes
Forced : No

Download

Direct download files get automatically deleted after a month or so. Posted on : 11/03/2022

[collapse]
Media Info and Download Links | S01E18

General
Format : Matroska
Format version : Version 4
File size : 221 MiB
Duration : 44 min 7 s
Overall bit rate : 702 kb/s
Movie name : Mia.Fora.k.Ena.Kairo.S01E18.720p.10bit.WEB-DL.2CH.x265.HEVC

Video
ID : 1
Format : HEVC
Format/Info : High Efficiency Video Coding
Format profile : Main [email protected]@Main
Codec ID : V_MPEGH/ISO/HEVC
Duration : 44 min 7 s
Bit rate : 572 kb/s
Width : 1 280 pixels
Height : 720 pixels
Display aspect ratio : 16:9
Frame rate mode : Constant
Frame rate : 25.000 FPS
Color space : YUV
Chroma subsampling : 4:2:0 (Type 0)
Bit depth : 10 bits
Scan type : Interlaced
Scan type, store method : Interleaved fields
Scan order : Top Field First
Bits/(Pixel*Frame) : 0.025
Stream size : 180 MiB (81%)
Default : Yes
Forced : No
Color range : Limited

Audio
ID : 2
Format : AAC LC
Codec ID : A_AAC-2
Duration : 44 min 7 s
Bit rate : 128 kb/s
Channel(s) : 2 channels
Channel layout : L R
Sampling rate : 48.0 kHz
Frame rate : 46.875 FPS (1024 SPF)
Compression mode : Lossy
Stream size : 40.3 MiB (18%)
Language : Greek
Default : Yes
Forced : No

Download

Direct download files get automatically deleted after a month or so. Posted on : 10/28/2022

[collapse]
Media Info and Download Links | S01E17

General
Format : Matroska
Format version : Version 4
File size : 215 MiB
Duration : 42 min 54 s
Overall bit rate : 702 kb/s
Movie name : Mia.Fora.k.Ena.Kairo.S01E17.720p.10bit.WEB-DL.2CH.x265.HEVC

Video
ID : 1
Format : HEVC
Format/Info : High Efficiency Video Coding
Format profile : Main [email protected]@Main
Codec ID : V_MPEGH/ISO/HEVC
Duration : 42 min 54 s
Bit rate : 572 kb/s
Width : 1 280 pixels
Height : 720 pixels
Display aspect ratio : 16:9
Frame rate mode : Constant
Frame rate : 25.000 FPS
Color space : YUV
Chroma subsampling : 4:2:0 (Type 0)
Bit depth : 10 bits
Scan type : Interlaced
Scan type, store method : Interleaved fields
Scan order : Top Field First
Bits/(Pixel*Frame) : 0.025
Stream size : 176 MiB (81%)
Default : Yes
Forced : No
Color range : Limited

Audio
ID : 2
Format : AAC LC
Codec ID : A_AAC-2
Duration : 42 min 54 s
Bit rate : 128 kb/s
Channel(s) : 2 channels
Channel layout : L R
Sampling rate : 48.0 kHz
Frame rate : 46.875 FPS (1024 SPF)
Compression mode : Lossy
Stream size : 39.2 MiB (18%)
Language : Greek
Default : Yes
Forced : No

Download

Direct download files get automatically deleted after a month or so. Posted on : 10/27/2022

[collapse]
Media Info and Download Links | S01E16

General
Format : Matroska
Format version : Version 4
File size : 213 MiB
Duration : 42 min 20 s
Overall bit rate : 702 kb/s
Movie name : Mia.Fora.k.Ena.Kairo.S01E16.720p.10bit.WEB-DL.2CH.x265.HEVC

Video
ID : 1
Format : HEVC
Format/Info : High Efficiency Video Coding
Format profile : Main [email protected]@Main
Codec ID : V_MPEGH/ISO/HEVC
Duration : 42 min 20 s
Bit rate : 572 kb/s
Width : 1 280 pixels
Height : 720 pixels
Display aspect ratio : 16:9
Frame rate mode : Constant
Frame rate : 25.000 FPS
Color space : YUV
Chroma subsampling : 4:2:0 (Type 0)
Bit depth : 10 bits
Scan type : Interlaced
Scan type, store method : Interleaved fields
Scan order : Top Field First
Bits/(Pixel*Frame) : 0.025
Stream size : 173 MiB (81%)
Default : Yes
Forced : No
Color range : Limited

Audio
ID : 2
Format : AAC LC
Codec ID : A_AAC-2
Duration : 42 min 20 s
Bit rate : 128 kb/s
Channel(s) : 2 channels
Channel layout : L R
Sampling rate : 48.0 kHz
Frame rate : 46.875 FPS (1024 SPF)
Compression mode : Lossy
Stream size : 38.7 MiB (18%)
Language : Greek
Default : Yes
Forced : No

Download

Direct download files get automatically deleted after a month or so. Posted on : 10/21/2022

[collapse]
Media Info and Download Links | S01E15

General
Format : Matroska
Format version : Version 4
File size : 214 MiB
Duration : 42 min 38 s
Overall bit rate : 702 kb/s
Movie name : Mia.Fora.k.Ena.Kairo.S01E15.720p.10bit.WEB-DL.2CH.x265.HEVC

Video
ID : 1
Format : HEVC
Format/Info : High Efficiency Video Coding
Format profile : Main [email protected]@Main
Codec ID : V_MPEGH/ISO/HEVC
Duration : 42 min 38 s
Bit rate : 572 kb/s
Width : 1 280 pixels
Height : 720 pixels
Display aspect ratio : 16:9
Frame rate mode : Constant
Frame rate : 25.000 FPS
Color space : YUV
Chroma subsampling : 4:2:0 (Type 0)
Bit depth : 10 bits
Scan type : Interlaced
Scan type, store method : Interleaved fields
Scan order : Top Field First
Bits/(Pixel*Frame) : 0.025
Stream size : 174 MiB (81%)
Default : Yes
Forced : No
Color range : Limited

Audio
ID : 2
Format : AAC LC
Codec ID : A_AAC-2
Duration : 42 min 38 s
Bit rate : 128 kb/s
Channel(s) : 2 channels
Channel layout : L R
Sampling rate : 48.0 kHz
Frame rate : 46.875 FPS (1024 SPF)
Compression mode : Lossy
Stream size : 38.9 MiB (18%)
Language : Greek
Default : Yes
Forced : No

Download

Direct download files get automatically deleted after a month or so. Posted on : 10/20/2022

[collapse]
Media Info and Download Links | S01E14

General
Format : Matroska
Format version : Version 4
File size : 221 MiB
Duration : 44 min 4 s
Overall bit rate : 702 kb/s
Movie name : Mia.Fora.k.Ena.Kairo.S01E14.720p.10bit.WEB-DL.2CH.x265.HEVC

Video
ID : 1
Format : HEVC
Format/Info : High Efficiency Video Coding
Format profile : Main [email protected]@Main
Codec ID : V_MPEGH/ISO/HEVC
Duration : 44 min 4 s
Bit rate : 572 kb/s
Width : 1 280 pixels
Height : 720 pixels
Display aspect ratio : 16:9
Frame rate mode : Constant
Frame rate : 25.000 FPS
Color space : YUV
Chroma subsampling : 4:2:0 (Type 0)
Bit depth : 10 bits
Scan type : Interlaced
Scan type, store method : Interleaved fields
Scan order : Top Field First
Bits/(Pixel*Frame) : 0.025
Stream size : 180 MiB (81%)
Default : Yes
Forced : No
Color range : Limited

Audio
ID : 2
Format : AAC LC
Codec ID : A_AAC-2
Duration : 44 min 4 s
Bit rate : 128 kb/s
Channel(s) : 2 channels
Channel layout : L R
Sampling rate : 48.0 kHz
Frame rate : 46.875 FPS (1024 SPF)
Compression mode : Lossy
Stream size : 40.2 MiB (18%)
Language : Greek
Default : Yes
Forced : No

Download

Direct download files get automatically deleted after a month or so. Posted on : 10/14/2022

[collapse]
Media Info and Download Links | S01E13

General
Format : Matroska
Format version : Version 4
File size : 235 MiB
Duration : 46 min 44 s
Overall bit rate : 702 kb/s
Movie name : Mia.Fora.k.Ena.Kairo.S01E13.720p.10bit.WEB-DL.2CH.x265.HEVC

Video
ID : 1
Format : HEVC
Format/Info : High Efficiency Video Coding
Format profile : Main [email protected]@Main
Codec ID : V_MPEGH/ISO/HEVC
Duration : 46 min 44 s
Bit rate : 572 kb/s
Width : 1 280 pixels
Height : 720 pixels
Display aspect ratio : 16:9
Frame rate mode : Constant
Frame rate : 25.000 FPS
Color space : YUV
Chroma subsampling : 4:2:0 (Type 0)
Bit depth : 10 bits
Scan type : Interlaced
Scan type, store method : Interleaved fields
Scan order : Top Field First
Bits/(Pixel*Frame) : 0.025
Stream size : 191 MiB (81%)
Default : Yes
Forced : No
Color range : Limited

Audio
ID : 2
Format : AAC LC
Codec ID : A_AAC-2
Duration : 46 min 44 s
Bit rate : 128 kb/s
Channel(s) : 2 channels
Channel layout : L R
Sampling rate : 48.0 kHz
Frame rate : 46.875 FPS (1024 SPF)
Compression mode : Lossy
Stream size : 42.7 MiB (18%)
Language : Greek
Default : Yes
Forced : No

Download

Direct download files get automatically deleted after a month or so. Posted on : 10/13/2022

[collapse]
Media Info and Download Links | S01E12

General
Format : Matroska
Format version : Version 4
File size : 215 MiB
Duration : 42 min 49 s
Overall bit rate : 702 kb/s
Movie name : Mia.Fora.k.Ena.Kairo.S01E12.720p.10bit.WEB-DL.2CH.x265.HEVC

Video
ID : 1
Format : HEVC
Format/Info : High Efficiency Video Coding
Format profile : Main [email protected]@Main
Codec ID : V_MPEGH/ISO/HEVC
Duration : 42 min 49 s
Bit rate : 572 kb/s
Width : 1 280 pixels
Height : 720 pixels
Display aspect ratio : 16:9
Frame rate mode : Constant
Frame rate : 25.000 FPS
Color space : YUV
Chroma subsampling : 4:2:0 (Type 0)
Bit depth : 10 bits
Scan type : Interlaced
Scan type, store method : Interleaved fields
Scan order : Top Field First
Bits/(Pixel*Frame) : 0.025
Stream size : 175 MiB (81%)
Default : Yes
Forced : No
Color range : Limited

Audio
ID : 2
Format : AAC LC
Codec ID : A_AAC-2
Duration : 42 min 48 s
Bit rate : 128 kb/s
Channel(s) : 2 channels
Channel layout : L R
Sampling rate : 48.0 kHz
Frame rate : 46.875 FPS (1024 SPF)
Compression mode : Lossy
Stream size : 39.1 MiB (18%)
Language : Greek
Default : Yes
Forced : No

Download

Direct download files get automatically deleted after a month or so. Posted on : 10/05/2022

[collapse]
Media Info and Download Links | S01E11

General
Format : Matroska
Format version : Version 4
File size : 218 MiB
Duration : 43 min 21 s
Overall bit rate : 702 kb/s
Movie name : Mia.Fora.k.Ena.Kairo.S01E11.720p.10bit.WEB-DL.2CH.x265.HEVC

Video
ID : 1
Format : HEVC
Format/Info : High Efficiency Video Coding
Format profile : Main [email protected]@Main
Codec ID : V_MPEGH/ISO/HEVC
Duration : 43 min 21 s
Bit rate : 572 kb/s
Width : 1 280 pixels
Height : 720 pixels
Display aspect ratio : 16:9
Frame rate mode : Constant
Frame rate : 25.000 FPS
Color space : YUV
Chroma subsampling : 4:2:0 (Type 0)
Bit depth : 10 bits
Scan type : Interlaced
Scan type, store method : Interleaved fields
Scan order : Top Field First
Bits/(Pixel*Frame) : 0.025
Stream size : 177 MiB (81%)
Default : Yes
Forced : No
Color range : Limited

Audio
ID : 2
Format : AAC LC
Codec ID : A_AAC-2
Duration : 43 min 21 s
Bit rate : 128 kb/s
Channel(s) : 2 channels
Channel layout : L R
Sampling rate : 48.0 kHz
Frame rate : 46.875 FPS (1024 SPF)
Compression mode : Lossy
Stream size : 39.6 MiB (18%)
Language : Greek
Default : Yes
Forced : No

Download

Direct download files get automatically deleted after a month or so. Posted on : 10/04/2022

[collapse]
Media Info and Download Links | S01E10

General
Format : Matroska
Format version : Version 4
File size : 221 MiB
Duration : 44 min 5 s
Overall bit rate : 702 kb/s
Movie name : Mia.Fora.k.Ena.Kairo.S01E10.720p.10bit.WEB-DL.2CH.x265.HEVC

Video
ID : 1
Format : HEVC
Format/Info : High Efficiency Video Coding
Format profile : Main [email protected]@Main
Codec ID : V_MPEGH/ISO/HEVC
Duration : 44 min 5 s
Bit rate : 572 kb/s
Width : 1 280 pixels
Height : 720 pixels
Display aspect ratio : 16:9
Frame rate mode : Constant
Frame rate : 25.000 FPS
Color space : YUV
Chroma subsampling : 4:2:0 (Type 0)
Bit depth : 10 bits
Scan type : Interlaced
Scan type, store method : Interleaved fields
Scan order : Top Field First
Bits/(Pixel*Frame) : 0.025
Stream size : 180 MiB (81%)
Default : Yes
Forced : No
Color range : Limited

Audio
ID : 2
Format : AAC LC
Codec ID : A_AAC-2
Duration : 44 min 5 s
Bit rate : 128 kb/s
Channel(s) : 2 channels
Channel layout : L R
Sampling rate : 48.0 kHz
Frame rate : 46.875 FPS (1024 SPF)
Compression mode : Lossy
Stream size : 40.3 MiB (18%)
Language : Greek
Default : Yes
Forced : No

Download

Direct download files get automatically deleted after a month or so. Posted on : 09/28/2022

[collapse]
Media Info and Download Links | S01E09

General
Format : Matroska
Format version : Version 4
File size : 228 MiB
Duration : 45 min 25 s
Overall bit rate : 702 kb/s
Movie name : Mia.Fora.k.Ena.Kairo.S01E9.720p.10bit.WEBRip.2CH.x265.HEVC

Video
ID : 1
Format : HEVC
Format/Info : High Efficiency Video Coding
Format profile : Main [email protected]@Main
Codec ID : V_MPEGH/ISO/HEVC
Duration : 45 min 25 s
Bit rate : 572 kb/s
Width : 1 280 pixels
Height : 720 pixels
Display aspect ratio : 16:9
Frame rate mode : Constant
Frame rate : 25.000 FPS
Color space : YUV
Chroma subsampling : 4:2:0 (Type 0)
Bit depth : 10 bits
Scan type : Interlaced
Scan type, store method : Interleaved fields
Scan order : Top Field First
Bits/(Pixel*Frame) : 0.025
Stream size : 186 MiB (82%)
Default : Yes
Forced : No
Color range : Limited

Audio
ID : 2
Format : AAC LC
Codec ID : A_AAC-2
Duration : 45 min 25 s
Bit rate : 128 kb/s
Channel(s) : 2 channels
Channel layout : L R
Sampling rate : 48.0 kHz
Frame rate : 46.875 FPS (1024 SPF)
Compression mode : Lossy
Stream size : 41.4 MiB (18%)
Language : Greek
Default : Yes
Forced : No

Download

Direct download files get automatically deleted after a month or so. Posted on : 09/27/2022

[collapse]
Media Info and Download Links | S01E08

General
Format : Matroska
Format version : Version 4
File size : 225 MiB
Duration : 44 min 52 s
Overall bit rate : 702 kb/s
Movie name : Mia.Fora.k.Ena.Kairo.S01E8.720p.10bit.WEB-DL.2CH.x265.HEVC

Video
ID : 1
Format : HEVC
Format/Info : High Efficiency Video Coding
Format profile : Main [email protected]@Main
Codec ID : V_MPEGH/ISO/HEVC
Duration : 44 min 52 s
Bit rate : 572 kb/s
Width : 1 280 pixels
Height : 720 pixels
Display aspect ratio : 16:9
Frame rate mode : Constant
Frame rate : 25.000 FPS
Color space : YUV
Chroma subsampling : 4:2:0 (Type 0)
Bit depth : 10 bits
Bits/(Pixel*Frame) : 0.025
Stream size : 184 MiB (81%)
Default : Yes
Forced : No
Color range : Limited

Audio
ID : 2
Format : AAC LC
Codec ID : A_AAC-2
Duration : 44 min 52 s
Bit rate : 128 kb/s
Channel(s) : 2 channels
Channel layout : L R
Sampling rate : 48.0 kHz
Frame rate : 46.875 FPS (1024 SPF)
Compression mode : Lossy
Delay relative to video : -21 ms
Stream size : 41.0 MiB (18%)
Language : Greek
Default : Yes
Forced : No

Download

Direct download files get automatically deleted after a month or so. Posted on : 09/21/2022

[collapse]
Media Info and Download Links | S01E07

General
Format : Matroska
Format version : Version 4
File size : 228 MiB
Duration : 45 min 21 s
Overall bit rate : 702 kb/s
Movie name : Mia.Fora.k.Ena.Kairo.S01E7.720p.10bit.WEB-DL.2CH.x265.HEVC

Video
ID : 1
Format : HEVC
Format/Info : High Efficiency Video Coding
Format profile : Main [email protected]@Main
Codec ID : V_MPEGH/ISO/HEVC
Duration : 45 min 21 s
Bit rate : 572 kb/s
Width : 1 280 pixels
Height : 720 pixels
Display aspect ratio : 16:9
Frame rate mode : Constant
Frame rate : 25.000 FPS
Color space : YUV
Chroma subsampling : 4:2:0 (Type 0)
Bit depth : 10 bits
Bits/(Pixel*Frame) : 0.025
Stream size : 186 MiB (81%)
Default : Yes
Forced : No
Color range : Limited

Audio
ID : 2
Format : AAC LC
Codec ID : A_AAC-2
Duration : 45 min 21 s
Bit rate : 128 kb/s
Channel(s) : 2 channels
Channel layout : L R
Sampling rate : 48.0 kHz
Frame rate : 46.875 FPS (1024 SPF)
Compression mode : Lossy
Delay relative to video : -21 ms
Stream size : 41.4 MiB (18%)
Language : Greek
Default : Yes
Forced : No

Download

Direct download files get automatically deleted after a month or so. Posted on : 09/20/2022

[collapse]
Media Info and Download Links | S01E06

General
Format : Matroska
Format version : Version 4
File size : 214 MiB
Duration : 42 min 35 s
Overall bit rate : 702 kb/s
Movie name : Mia.Fora.k.Ena.Kairo.S01E06.720p.10bit.WEB-DL.2CH.x265.HEVC

Video
ID : 1
Format : HEVC
Format/Info : High Efficiency Video Coding
Format profile : Main [email protected]@Main
Codec ID : V_MPEGH/ISO/HEVC
Duration : 42 min 35 s
Bit rate : 572 kb/s
Width : 1 280 pixels
Height : 720 pixels
Display aspect ratio : 16:9
Frame rate mode : Constant
Frame rate : 25.000 FPS
Color space : YUV
Chroma subsampling : 4:2:0 (Type 0)
Bit depth : 10 bits
Bits/(Pixel*Frame) : 0.025
Stream size : 174 MiB (81%)
Default : Yes
Forced : No
Color range : Limited

Audio
ID : 2
Format : AAC LC
Codec ID : A_AAC-2
Duration : 42 min 35 s
Bit rate : 128 kb/s
Channel(s) : 2 channels
Channel layout : L R
Sampling rate : 48.0 kHz
Frame rate : 46.875 FPS (1024 SPF)
Compression mode : Lossy
Delay relative to video : -21 ms
Stream size : 38.9 MiB (18%)
Language : Greek
Default : Yes
Forced : No

Download

Direct download files get automatically deleted after a month or so. Posted on : 09/14/2022

[collapse]
Media Info and Download Links | S01E05

General
Format : Matroska
Format version : Version 4
File size : 224 MiB
Duration : 44 min 34 s
Overall bit rate : 702 kb/s
Movie name : Mia.Fora.k.Ena.Kairo.S01E05.720p.10bit.WEB-DL.2CH.x265.HEVC

Video
ID : 1
Format : HEVC
Format/Info : High Efficiency Video Coding
Format profile : Main [email protected]@Main
Codec ID : V_MPEGH/ISO/HEVC
Duration : 44 min 34 s
Bit rate : 572 kb/s
Width : 1 280 pixels
Height : 720 pixels
Display aspect ratio : 16:9
Frame rate mode : Constant
Frame rate : 25.000 FPS
Color space : YUV
Chroma subsampling : 4:2:0 (Type 0)
Bit depth : 10 bits
Bits/(Pixel*Frame) : 0.025
Stream size : 182 MiB (81%)
Default : Yes
Forced : No
Color range : Limited

Audio
ID : 2
Format : AAC LC
Codec ID : A_AAC-2
Duration : 44 min 34 s
Bit rate : 128 kb/s
Channel(s) : 2 channels
Channel layout : L R
Sampling rate : 48.0 kHz
Frame rate : 46.875 FPS (1024 SPF)
Compression mode : Lossy
Delay relative to video : -21 ms
Stream size : 40.7 MiB (18%)
Language : Greek
Default : Yes
Forced : No

Download

Direct download files get automatically deleted after a month or so. Posted on : 09/12/2022

[collapse]
Media Info and Download Links | S01E04

General
Format : Matroska
Format version : Version 4
File size : 226 MiB
Duration : 44 min 58 s
Overall bit rate : 702 kb/s
Movie name : Mia.Fora.k.Ena.Kairo.S01E04.720p.10bit.WEB-DL.2CH.x265.HEVC

Video
ID : 1
Format : HEVC
Format/Info : High Efficiency Video Coding
Format profile : Main [email protected]@Main
Codec ID : V_MPEGH/ISO/HEVC
Duration : 44 min 58 s
Bit rate : 572 kb/s
Width : 1 280 pixels
Height : 720 pixels
Display aspect ratio : 16:9
Frame rate mode : Constant
Frame rate : 25.000 FPS
Color space : YUV
Chroma subsampling : 4:2:0 (Type 0)
Bit depth : 10 bits
Bits/(Pixel*Frame) : 0.025
Stream size : 184 MiB (81%)
Default : Yes
Forced : No
Color range : Limited

Audio
ID : 2
Format : AAC LC
Codec ID : A_AAC-2
Duration : 44 min 58 s
Bit rate : 128 kb/s
Channel(s) : 2 channels
Channel layout : L R
Sampling rate : 48.0 kHz
Frame rate : 46.875 FPS (1024 SPF)
Compression mode : Lossy
Delay relative to video : -21 ms
Stream size : 41.1 MiB (18%)
Language : Greek
Default : Yes
Forced : No

Download

Direct download files get automatically deleted after a month or so. Posted on : 09/07/2022

[collapse]
Media Info and Download Links | S01E03

General
Format : Matroska
Format version : Version 4
File size : 217 MiB
Duration : 43 min 15 s
Overall bit rate : 702 kb/s
Movie name : Mia.Fora.k.Ena.Kairo.S01E03.720p.10bit.WEB-DL.2CH.x265.HEVC

Video
ID : 1
Format : HEVC
Format/Info : High Efficiency Video Coding
Format profile : Main [email protected]@Main
Codec ID : V_MPEGH/ISO/HEVC
Duration : 43 min 15 s
Bit rate : 572 kb/s
Width : 1 280 pixels
Height : 720 pixels
Display aspect ratio : 16:9
Frame rate mode : Constant
Frame rate : 25.000 FPS
Color space : YUV
Chroma subsampling : 4:2:0 (Type 0)
Bit depth : 10 bits
Bits/(Pixel*Frame) : 0.025
Stream size : 177 MiB (81%)
Default : Yes
Forced : No
Color range : Limited

Audio
ID : 2
Format : AAC LC
Codec ID : A_AAC-2
Duration : 43 min 15 s
Bit rate : 128 kb/s
Channel(s) : 2 channels
Channel layout : L R
Sampling rate : 48.0 kHz
Frame rate : 46.875 FPS (1024 SPF)
Compression mode : Lossy
Delay relative to video : -21 ms
Stream size : 39.5 MiB (18%)
Language : Greek
Default : Yes
Forced : No

Download

Direct download files get automatically deleted after a month or so. Posted on : 09/06/2022

[collapse]
Media Info and Download Links | S01E02

General
Format : Matroska
Format version : Version 4
File size : 227 MiB
Duration : 45 min 10 s
Overall bit rate : 702 kb/s
Movie name : Mia.Fora.k.Ena.Kairo.S01E02.720p.10bit.WEB-DL.2CH.x265.HEVC

Video
ID : 1
Format : HEVC
Format/Info : High Efficiency Video Coding
Format profile : Main [email protected]@Main
Codec ID : V_MPEGH/ISO/HEVC
Duration : 45 min 10 s
Bit rate : 572 kb/s
Width : 1 280 pixels
Height : 720 pixels
Display aspect ratio : 16:9
Frame rate mode : Constant
Frame rate : 25.000 FPS
Color space : YUV
Chroma subsampling : 4:2:0 (Type 0)
Bit depth : 10 bits
Bits/(Pixel*Frame) : 0.025
Stream size : 185 MiB (81%)
Default : Yes
Forced : No
Color range : Limited

Audio
ID : 2
Format : AAC LC
Codec ID : A_AAC-2
Duration : 45 min 10 s
Bit rate : 128 kb/s
Channel(s) : 2 channels
Channel layout : L R
Sampling rate : 48.0 kHz
Frame rate : 46.875 FPS (1024 SPF)
Compression mode : Lossy
Delay relative to video : -21 ms
Stream size : 41.3 MiB (18%)
Language : Greek
Default : Yes
Forced : No

Download

Direct download files get automatically deleted after a month or so. Posted on : 08/31/2022

[collapse]
Media Info and Download Links | S01E01

General
Format : Matroska
Format version : Version 4
File size : 220 MiB
Duration : 43 min 53 s
Overall bit rate : 702 kb/s
Movie name : Mia.Fora.k.Ena.Kairo.S01E01.720p.10bit.WEB-DL.2CH.x265.HEVC

Video
ID : 1
Format : HEVC
Format/Info : High Efficiency Video Coding
Format profile : Main [email protected]@Main
Codec ID : V_MPEGH/ISO/HEVC
Duration : 43 min 53 s
Bit rate : 572 kb/s
Width : 1 280 pixels
Height : 720 pixels
Display aspect ratio : 16:9
Frame rate mode : Constant
Frame rate : 25.000 FPS
Color space : YUV
Chroma subsampling : 4:2:0 (Type 0)
Bit depth : 10 bits
Bits/(Pixel*Frame) : 0.025
Stream size : 180 MiB (81%)
Default : Yes
Forced : No
Color range : Limited

Audio
ID : 2
Format : AAC LC
Codec ID : A_AAC-2
Duration : 43 min 53 s
Bit rate : 128 kb/s
Channel(s) : 2 channels
Channel layout : L R
Sampling rate : 48.0 kHz
Frame rate : 46.875 FPS (1024 SPF)
Compression mode : Lossy
Delay relative to video : -21 ms
Stream size : 40.2 MiB (18%)
Language : Greek
Default : Yes
Forced : No

Download

Direct download files get automatically deleted after a month or so. Posted on : 08/30/2022

[collapse]

You may also like...

error: nah :p~