ZZ Top: That Little Ol’ Band from Texas (2019)

1h 31min | Documentary, Biography, Music | 13 August 2019 (USA)

The story of how three oddball teenage bluesmen became one of the biggest, most beloved bands on the planet.

Watch trailer

Media information

General
Format : Matroska
Format version : Version 4
File size : 1.38 GiB
Duration : 1 h 30 min
Overall bit rate : 2 190 kb/s
Movie name : ZZ.Top.That.Little.Ol.Band.From.Texas.2019.DOCU.1080p.BluRay.2CH.x265.HEVC

Video
ID : 1
Format : HEVC
Format/Info : High Efficiency Video Coding
Format profile : Main@L4@Main
Codec ID : V_MPEGH/ISO/HEVC
Duration : 1 h 30 min
Bit rate : 2 091 kb/s
Width : 1 920 pixels
Height : 1 080 pixels
Display aspect ratio : 16:9
Frame rate mode : Constant
Frame rate : 23.976 (24000/1001) FPS
Color space : YUV
Chroma subsampling : 4:2:0
Bit depth : 8 bits
Bits/(Pixel*Frame) : 0.042
Stream size : 1.32 GiB (96%)
Default : Yes
Forced : No
Color range : Limited
Color primaries : BT.709
Transfer characteristics : BT.709
Matrix coefficients : BT.709

Audio
ID : 2
Format : AAC LC
Codec ID : A_AAC-2
Duration : 1 h 30 min
Bit rate : 96.0 kb/s
Channel(s) : 2 channels
Channel layout : L R
Sampling rate : 48.0 kHz
Frame rate : 46.875 FPS (1024 SPF)
Compression mode : Lossy
Delay relative to video : -21 ms
Stream size : 62.0 MiB (4%)
Title : Stereo
Language : English
Default : Yes
Forced : No

Text
ID : 3
Format : UTF-8
Codec ID : S_TEXT/UTF8
Codec ID/Info : UTF-8 Plain Text
Duration : 1 h 29 min
Bit rate : 71 b/s
Count of elements : 1190
Stream size : 46.9 KiB (0%)
Language : English
Default : Yes
Forced : No

[collapse]
Download Link(s)

Download

Direct download files get automatically deleted after a month or so. Posted on : 03/02/2020

[collapse]
Magnet Link

Magnet

ZZ.Top.That.Little.Ol.Band.From.Texas.2019.DOCU.1080p.BluRay.x264.TREBLE-6.6 GB

[collapse]

Media information

General
Format : Matroska
Format version : Version 4
File size : 660 MiB
Duration : 1 h 30 min
Overall bit rate : 1 023 kb/s
Movie name : ZZ.Top.That.Little.Ol.Band.From.Texas.2019.DOCU.720p.BluRay.2CH.x265.HEVC

Video
ID : 1
Format : HEVC
Format/Info : High Efficiency Video Coding
Format profile : [email protected]@Main
Codec ID : V_MPEGH/ISO/HEVC
Duration : 1 h 30 min
Bit rate : 924 kb/s
Width : 1 280 pixels
Height : 720 pixels
Display aspect ratio : 16:9
Frame rate mode : Constant
Frame rate : 23.976 (24000/1001) FPS
Color space : YUV
Chroma subsampling : 4:2:0
Bit depth : 8 bits
Bits/(Pixel*Frame) : 0.042
Stream size : 596 MiB (90%)
Default : Yes
Forced : No
Color range : Limited
Color primaries : BT.709
Transfer characteristics : BT.709
Matrix coefficients : BT.709

Audio
ID : 2
Format : AAC LC
Codec ID : A_AAC-2
Duration : 1 h 30 min
Bit rate : 96.0 kb/s
Channel(s) : 2 channels
Channel layout : L R
Sampling rate : 48.0 kHz
Frame rate : 46.875 FPS (1024 SPF)
Compression mode : Lossy
Delay relative to video : -21 ms
Stream size : 62.0 MiB (9%)
Title : Stereo
Language : English
Default : Yes
Forced : No

Text
ID : 3
Format : UTF-8
Codec ID : S_TEXT/UTF8
Codec ID/Info : UTF-8 Plain Text
Duration : 1 h 29 min
Bit rate : 71 b/s
Count of elements : 1190
Stream size : 46.9 KiB (0%)
Language : English
Default : Yes
Forced : No

[collapse]
Download Link(s)

Download

Direct download files get automatically deleted after a month or so. Posted on : 03/01/2020

[collapse]
Magnet Link

Magnet

ZZ.Top.That.Little.Ol.Band.From.Texas.2019.DOCU.1080p.BluRay.x264.TREBLE-6.6 GB

[collapse]

You may also like...

error: nah :p~