You Can’t Take My Daughter (2020)

TV-14 | 1h 26min | Drama | TV Movie 15 February 2020

A young woman who fought to keep her rapist from gaining custody of her daughter.

Watch trailer

Media information

General
Format : Matroska
Format version : Version 4
File size : 964 MiB
Duration : 1 h 19 min
Overall bit rate : 1 692 kb/s
Movie name : You.Cant.Take.My.Daughter.2020.1080p.HDTV.2CH.x265.HEVC

Video
ID : 1
Format : HEVC
Format/Info : High Efficiency Video Coding
Format profile : Main@L4@Main
Codec ID : V_MPEGH/ISO/HEVC
Duration : 1 h 19 min
Bit rate : 1 609 kb/s
Width : 1 920 pixels
Height : 1 080 pixels
Display aspect ratio : 16:9
Frame rate mode : Constant
Frame rate : 23.976 (24000/1001) FPS
Color space : YUV
Chroma subsampling : 4:2:0
Bit depth : 8 bits
Bits/(Pixel*Frame) : 0.032
Stream size : 917 MiB (95%)
Default : Yes
Forced : No
Color range : Limited
Color primaries : BT.709
Transfer characteristics : BT.709
Matrix coefficients : BT.709

Audio
ID : 2
Format : AAC LC
Codec ID : A_AAC-2
Duration : 1 h 19 min
Bit rate : 80.4 kb/s
Channel(s) : 2 channels
Channel layout : L R
Sampling rate : 48.0 kHz
Frame rate : 46.875 FPS (1024 SPF)
Compression mode : Lossy
Delay relative to video : -21 ms
Stream size : 45.8 MiB (5%)
Title : Stereo
Language : English
Default : Yes
Forced : No

Text
ID : 3
Format : ASS
Codec ID : S_TEXT/ASS
Duration : 1 h 19 min
Bit rate : 157 b/s
Count of elements : 1493
Compression mode : Lossless
Stream size : 91.4 KiB (0%)
Language : English
Default : Yes
Forced : Yes

[collapse]
Download Link(s)

Download

Direct download files get automatically deleted after a month or so. Posted on : 03/07/2020

[collapse]
Magnet Link

Magnet

You.Cant.Take.My.Daughter.2020.1080p.HDTV.x264-W4F-4.47 GB

[collapse]

Media information

General
Format : Matroska
Format version : Version 4
File size : 421 MiB
Duration : 1 h 19 min
Overall bit rate : 739 kb/s
Movie name : You.Cant.Take.My.Daughter.2020.720p.HDTV.2CH.x265.HEVC

Video
ID : 1
Format : HEVC
Format/Info : High Efficiency Video Coding
Format profile : [email protected]@Main
Codec ID : V_MPEGH/ISO/HEVC
Duration : 1 h 19 min
Bit rate : 656 kb/s
Width : 1 280 pixels
Height : 720 pixels
Display aspect ratio : 16:9
Frame rate mode : Constant
Frame rate : 23.976 (24000/1001) FPS
Color space : YUV
Chroma subsampling : 4:2:0
Bit depth : 8 bits
Bits/(Pixel*Frame) : 0.030
Stream size : 374 MiB (89%)
Default : Yes
Forced : No
Color range : Limited
Color primaries : BT.709
Transfer characteristics : BT.709
Matrix coefficients : BT.709

Audio
ID : 2
Format : AAC LC
Codec ID : A_AAC-2
Duration : 1 h 19 min
Bit rate : 80.4 kb/s
Channel(s) : 2 channels
Channel layout : L R
Sampling rate : 48.0 kHz
Frame rate : 46.875 FPS (1024 SPF)
Compression mode : Lossy
Delay relative to video : -21 ms
Stream size : 45.8 MiB (11%)
Title : Stereo
Language : English
Default : Yes
Forced : No

Text
ID : 3
Format : ASS
Codec ID : S_TEXT/ASS
Duration : 1 h 19 min
Bit rate : 157 b/s
Count of elements : 1493
Compression mode : Lossless
Stream size : 91.4 KiB (0%)
Language : English
Default : Yes
Forced : Yes

[collapse]
Download Link(s)

Download

Direct download files get automatically deleted after a month or so. Posted on : 03/06/2020

[collapse]
Magnet Link

Magnet

You.Cant.Take.My.Daughter.2020.1080p.HDTV.x264-W4F-4.47 GB

[collapse]

You may also like...

error: nah :p~