Wrong Turn 4: Bloody Beginnings (2011)

R | 1h 33min | Horror | 25 October 2011 (USA)

A group of college students gets lost in a storm during their snowmobiling trip and takes shelter in an abandoned sanitarium which, unbeknown to them, is home to three deformed cannibals.

Watch trailer

Media information

General
Format : Matroska
Format version : Version 4
File size : 1.53 GiB
Duration : 1 h 33 min
Overall bit rate : 2 352 kb/s
Movie name : 2011.Wrong.Turn.4.Bloody.Beginnings.1080p.10bit.BluRay.6CH.x265.HEVC

Video
ID : 1
Format : HEVC
Format/Info : High Efficiency Video Coding
Format profile : Main 10@L4@Main
Codec ID : V_MPEGH/ISO/HEVC
Duration : 1 h 33 min
Bit rate : 2 001 kb/s
Width : 1 920 pixels
Height : 1 080 pixels
Display aspect ratio : 16:9
Frame rate mode : Variable
Frame rate : 23.976 FPS
Color space : YUV
Chroma subsampling : 4:2:0 (Type 0)
Bit depth : 10 bits
Bits/(Pixel*Frame) : 0.040
Stream size : 1.30 GiB (85%)
Default : Yes
Forced : No
Color range : Limited
Color primaries : BT.709
Transfer characteristics : BT.709
Matrix coefficients : BT.709

Audio
ID : 2
Format : AAC LC
Codec ID : A_AAC-2
Duration : 1 h 33 min
Bit rate : 288 kb/s
Channel(s) : 6 channels
Channel layout : L R C Cb Lb Rb
Sampling rate : 48.0 kHz
Frame rate : 46.875 FPS (1024 SPF)
Compression mode : Lossy
Stream size : 192 MiB (12%)
Language : English
Default : Yes
Forced : No

Text #1
ID : 3
Format : PGS
Muxing mode : zlib
Codec ID : S_HDMV/PGS
Duration : 1 h 32 min
Bit rate : 60.1 kb/s
Count of elements : 2671
Stream size : 39.9 MiB (3%)
Language : English
Default : Yes
Forced : No

Text #2
ID : 4
Format : PGS
Muxing mode : zlib
Codec ID : S_HDMV/PGS
Duration : 1 h 32 min
Bit rate : 39.3 kb/s
Count of elements : 1776
Stream size : 26.1 MiB (2%)
Language : Spanish
Default : No
Forced : No

Text #3
ID : 5
Format : PGS
Muxing mode : zlib
Codec ID : S_HDMV/PGS
Duration : 1 h 32 min
Bit rate : 39.1 kb/s
Count of elements : 1772
Stream size : 26.0 MiB (2%)
Language : French
Default : No
Forced : No

[collapse]
Download Link(s)

Download

Direct download files get automatically deleted after a month or so. Posted on : 08/19/2021

[collapse]
Magnet Link

Magnet

Wrong.Turn.The.Complete.Collection.2003-2021.BDRip.1080p-84.76 GiB

[collapse]

Media information

General
Format : Matroska
Format version : Version 4
File size : 838 MiB
Duration : 1 h 33 min
Overall bit rate : 1 255 kb/s
Movie name : 2011.Wrong.Turn.4.Bloody.Beginnings.720p.10bit.BluRay.6CH.x265.HEVC

Video
ID : 1
Format : HEVC
Format/Info : High Efficiency Video Coding
Format profile : Main [email protected]@Main
Codec ID : V_MPEGH/ISO/HEVC
Duration : 1 h 33 min
Bit rate : 1 000 kb/s
Width : 1 280 pixels
Height : 720 pixels
Display aspect ratio : 16:9
Frame rate mode : Variable
Frame rate : 23.976 FPS
Color space : YUV
Chroma subsampling : 4:2:0 (Type 0)
Bit depth : 10 bits
Bits/(Pixel*Frame) : 0.045
Stream size : 668 MiB (80%)
Default : Yes
Forced : No
Color range : Limited
Color primaries : BT.709
Transfer characteristics : BT.709
Matrix coefficients : BT.709

Audio
ID : 2
Format : AAC LC
Codec ID : A_AAC-2
Duration : 1 h 33 min
Bit rate : 192 kb/s
Channel(s) : 6 channels
Channel layout : L R C Cb Lb Rb
Sampling rate : 48.0 kHz
Frame rate : 46.875 FPS (1024 SPF)
Compression mode : Lossy
Stream size : 128 MiB (15%)
Language : English
Default : Yes
Forced : No

Text #1
ID : 3
Format : PGS
Muxing mode : zlib
Codec ID : S_HDMV/PGS
Duration : 1 h 32 min
Bit rate : 60.1 kb/s
Count of elements : 2671
Stream size : 39.9 MiB (5%)
Language : English
Default : Yes
Forced : No

Text #2
ID : 4
Format : PGS
Muxing mode : zlib
Codec ID : S_HDMV/PGS
Duration : 1 h 32 min
Bit rate : 39.3 kb/s
Count of elements : 1776
Stream size : 26.1 MiB (3%)
Language : Spanish
Default : No
Forced : No

Text #3
ID : 5
Format : PGS
Muxing mode : zlib
Codec ID : S_HDMV/PGS
Duration : 1 h 32 min
Bit rate : 39.1 kb/s
Count of elements : 1772
Stream size : 26.0 MiB (3%)
Language : French
Default : No
Forced : No

[collapse]
Download Link(s)

Download

Direct download files get automatically deleted after a month or so. Posted on : 08/19/2021

[collapse]
Magnet Link

Magnet

Wrong.Turn.The.Complete.Collection.2003-2021.BDRip.1080p-84.76 GiB

[collapse]

You may also like...

error: nah :p~
spond.js">