Wrong Turn (2021)

R | 1h 49min | Horror, Thriller | 26 January 2021 (USA)

Friends hiking the Appalachian Trail are confronted by ‘The Foundation’, a community of people who have lived in the mountains for hundreds of years.

Watch trailer

Media information

General
Format : Matroska
Format version : Version 4
File size : 1.79 GiB
Duration : 1 h 50 min
Overall bit rate : 2 322 kb/s
Movie name : 2021.Wrong.Turn.1080p.10bit.BluRay.6CH.x265.HEVC

Video
ID : 1
Format : HEVC
Format/Info : High Efficiency Video Coding
Format profile : Main 10@L4@Main
Codec ID : V_MPEGH/ISO/HEVC
Duration : 1 h 50 min
Bit rate : 2 001 kb/s
Width : 1 920 pixels
Height : 808 pixels
Display aspect ratio : 2.40:1
Frame rate mode : Variable
Frame rate : 23.976 FPS
Color space : YUV
Chroma subsampling : 4:2:0 (Type 0)
Bit depth : 10 bits
Bits/(Pixel*Frame) : 0.054
Stream size : 1.54 GiB (86%)
Default : Yes
Forced : No
Color range : Limited
Color primaries : BT.709
Transfer characteristics : BT.709
Matrix coefficients : BT.709

Audio
ID : 2
Format : AAC LC
Codec ID : A_AAC-2
Duration : 1 h 50 min
Bit rate : 288 kb/s
Channel(s) : 6 channels
Channel layout : L R C Cb Lb Rb
Sampling rate : 48.0 kHz
Frame rate : 46.875 FPS (1024 SPF)
Compression mode : Lossy
Stream size : 227 MiB (12%)
Language : English
Default : Yes
Forced : No

Text #1
ID : 3
Format : PGS
Muxing mode : zlib
Codec ID : S_HDMV/PGS
Duration : 1 h 47 min
Bit rate : 32.6 kb/s
Count of elements : 3024
Stream size : 25.1 MiB (1%)
Language : English
Default : Yes
Forced : No

Text #2
ID : 4
Format : PGS
Muxing mode : zlib
Codec ID : S_HDMV/PGS
Duration : 1 h 42 min
Bit rate : 27.0 kb/s
Count of elements : 2596
Stream size : 19.8 MiB (1%)
Language : Spanish
Default : No
Forced : No

[collapse]
Download Link(s)

Download

Direct download files get automatically deleted after a month or so. Posted on : 08/20/2021

[collapse]
Magnet Link

Magnet

Wrong.Turn.The.Complete.Collection.2003-2021.BDRip.1080p-84.76 GiB

[collapse]

Media information

General
Format : Matroska
Format version : Version 4
File size : 966 MiB
Duration : 1 h 50 min
Overall bit rate : 1 226 kb/s
Movie name : 2021.Wrong.Turn.720p.10bit.BluRay.6CH.x265.HEVC

Video
ID : 1
Format : HEVC
Format/Info : High Efficiency Video Coding
Format profile : Main [email protected]@Main
Codec ID : V_MPEGH/ISO/HEVC
Duration : 1 h 50 min
Bit rate : 1 001 kb/s
Width : 1 280 pixels
Height : 536 pixels
Display aspect ratio : 2.40:1
Frame rate mode : Variable
Frame rate : 23.976 FPS
Color space : YUV
Chroma subsampling : 4:2:0 (Type 0)
Bit depth : 10 bits
Bits/(Pixel*Frame) : 0.061
Stream size : 789 MiB (82%)
Default : Yes
Forced : No
Color range : Limited
Color primaries : BT.709
Transfer characteristics : BT.709
Matrix coefficients : BT.709

Audio
ID : 2
Format : AAC LC
Codec ID : A_AAC-2
Duration : 1 h 50 min
Bit rate : 192 kb/s
Channel(s) : 6 channels
Channel layout : L R C Cb Lb Rb
Sampling rate : 48.0 kHz
Frame rate : 46.875 FPS (1024 SPF)
Compression mode : Lossy
Stream size : 152 MiB (16%)
Language : English
Default : Yes
Forced : No

Text #1
ID : 3
Format : PGS
Muxing mode : zlib
Codec ID : S_HDMV/PGS
Duration : 1 h 47 min
Bit rate : 32.6 kb/s
Count of elements : 3024
Stream size : 25.1 MiB (3%)
Language : English
Default : Yes
Forced : No

Text #2
ID : 4
Format : PGS
Muxing mode : zlib
Codec ID : S_HDMV/PGS
Duration : 1 h 42 min
Bit rate : 27.0 kb/s
Count of elements : 2596
Stream size : 19.8 MiB (2%)
Language : Spanish
Default : No
Forced : No

[collapse]
Download Link(s)

Download

Direct download files get automatically deleted after a month or so. Posted on : 08/20/2021

[collapse]
Magnet Link

Magnet

Wrong.Turn.The.Complete.Collection.2003-2021.BDRip.1080p-84.76 GiB

[collapse]

You may also like...

error: nah :p~