Viper Club (2018)

R | 1h 49min | Drama | 26 October 2018 (USA)

A war correspondent gets taken hostage while on assignment, prompting his mother, impatient with the government’s lack of concern, to take matters into her own hands.

Watch trailer

Media information

General
Format : Matroska
Format version : Version 4
File size : 852 MiB
Duration : 1 h 46 min
Overall bit rate : 1 118 kb/s
Movie name : Viper.Club.2018.720p.WEB-DL.2CH.x264.AVC
Encoded date : UTC 2019-01-26 15:15:20
Writing application : mkvmerge v30.1.0 (‘Forever And More’) 32-bit
Writing library : libebml v1.3.6 + libmatroska v1.4.9

Video
ID : 9
Format : AVC
Format/Info : Advanced Video Codec
Format profile : [email protected]
Format settings : CABAC / 5 Ref Frames
Format settings, CABAC : Yes
Format settings, RefFrames : 5 frames
Codec ID : V_MPEG4/ISO/AVC
Duration : 1 h 46 min
Bit rate : 1 053 kb/s
Width : 1 280 pixels
Height : 692 pixels
Display aspect ratio : 1.85:1
Frame rate mode : Constant
Frame rate : 23.976 (24000/1001) FPS
Color space : YUV
Chroma subsampling : 4:2:0
Bit depth : 8 bits
Scan type : Progressive
Bits/(Pixel*Frame) : 0.050
Stream size : 801 MiB (94%)
Default : Yes
Forced : No
Color range : Limited
Color primaries : BT.709
Transfer characteristics : BT.709
Matrix coefficients : BT.709

Audio
ID : 1
Format : AAC LC SBR
Commercial name : HE-AAC
Format settings : Explicit
Codec ID : A_AAC-2
Duration : 1 h 46 min
Bit rate : 64.0 kb/s
Channel(s) : 2 channels
Channel layout : L R
Sampling rate : 48.0 kHz
Frame rate : 23.438 FPS (2048 SPF)
Compression mode : Lossy
Delay relative to video : 31 ms
Stream size : 48.8 MiB (6%)
Language : English
Default : Yes
Forced : No

Text #1
ID : 2
Format : UTF-8
Codec ID : S_TEXT/UTF8
Codec ID/Info : UTF-8 Plain Text
Duration : 1 h 41 min
Bit rate : 53 b/s
Count of elements : 1462
Stream size : 39.7 KiB (0%)
Language : French
Default : No
Forced : No

Text #2
ID : 3
Format : UTF-8
Codec ID : S_TEXT/UTF8
Codec ID/Info : UTF-8 Plain Text
Duration : 1 h 41 min
Bit rate : 50 b/s
Count of elements : 1172
Stream size : 37.4 KiB (0%)
Language : Japanese
Default : No
Forced : No

Text #3
ID : 4
Format : UTF-8
Codec ID : S_TEXT/UTF8
Codec ID/Info : UTF-8 Plain Text
Duration : 1 h 41 min
Bit rate : 51 b/s
Count of elements : 1466
Stream size : 38.8 KiB (0%)
Language : Portuguese
Default : No
Forced : No

Text #4
ID : 5
Format : UTF-8
Codec ID : S_TEXT/UTF8
Codec ID/Info : UTF-8 Plain Text
Duration : 1 h 41 min
Bit rate : 86 b/s
Count of elements : 1468
Stream size : 64.4 KiB (0%)
Language : Russian
Default : No
Forced : No

Text #5
ID : 6
Format : UTF-8
Codec ID : S_TEXT/UTF8
Codec ID/Info : UTF-8 Plain Text
Duration : 1 h 41 min
Bit rate : 54 b/s
Count of elements : 1461
Stream size : 40.6 KiB (0%)
Language : German
Default : No
Forced : No

Text #6
ID : 7
Format : UTF-8
Codec ID : S_TEXT/UTF8
Codec ID/Info : UTF-8 Plain Text
Duration : 1 h 38 min
Bit rate : 75 b/s
Count of elements : 1630
Stream size : 54.4 KiB (0%)
Language : English
Default : Yes
Forced : No

Text #7
ID : 8
Format : UTF-8
Codec ID : S_TEXT/UTF8
Codec ID/Info : UTF-8 Plain Text
Duration : 1 h 41 min
Bit rate : 53 b/s
Count of elements : 1466
Stream size : 40.2 KiB (0%)
Language : Spanish
Default : No
Forced : No

[collapse]
Download Link(s)

Download

Direct download files get automatically deleted after a month or so. Posted on : 01/26/2019

[collapse]
Magnet Link

Magnet

Viper.Club.2018.1080p.RED.WEBRip.AAC5.1.x264-TOMMY-2.14 GB

[collapse]

You may also like...

error: nah :p~