Vesper (2022)

1h 54min | Adventure, Drama, Sci-Fi

After the collapse of Earth’s ecosystem, Vesper, a 13-year-old girl struggling to survive with her paralyzed father, meets a woman with a secret who will force her to use her wits, strengths and bio-hacking abilities to fight for the possibility of having a future.

Watch trailer

Media information

General
Format : Matroska
Format version : Version 4
File size : 1.55 GiB
Duration : 1 h 54 min
Overall bit rate : 1 941 kb/s
Movie name : Vesper.2022.1080p.10bit.WEBRip.6CH.x265.HEVC

Video
ID : 1
Format : HEVC
Format/Info : High Efficiency Video Coding
Format profile : Main [email protected]@Main
Codec ID : V_MPEGH/ISO/HEVC
Duration : 1 h 54 min
Bit rate : 1 717 kb/s
Width : 1 920 pixels
Height : 800 pixels
Display aspect ratio : 2.40:1
Frame rate mode : Constant
Frame rate : 23.976 (24000/1001) FPS
Color space : YUV
Chroma subsampling : 4:2:0
Bit depth : 10 bits
Bits/(Pixel*Frame) : 0.047
Stream size : 1.37 GiB (88%)
Default : Yes
Forced : No
Color range : Limited
Color primaries : BT.709
Transfer characteristics : BT.709
Matrix coefficients : BT.709

Audio
ID : 2
Format : AAC LC SBR
Commercial name : HE-AAC
Format settings : Explicit
Codec ID : A_AAC-2
Duration : 1 h 54 min
Bit rate : 222 kb/s
Channel(s) : 6 channels
Channel layout : C L R Ls Rs LFE
Sampling rate : 48.0 kHz
Frame rate : 23.438 FPS (2048 SPF)
Compression mode : Lossy
Delay relative to video : 23 ms
Stream size : 181 MiB (11%)
Language : English
Default : Yes
Forced : No

Text #1
ID : 3
Format : UTF-8
Codec ID : S_TEXT/UTF8
Codec ID/Info : UTF-8 Plain Text
Duration : 1 h 33 min
Bit rate : 22 b/s
Frame rate : 0.107 FPS
Count of elements : 601
Stream size : 15.3 KiB (0%)
Language : English
Default : No
Forced : No

Text #2
ID : 4
Format : UTF-8
Codec ID : S_TEXT/UTF8
Codec ID/Info : UTF-8 Plain Text
Duration : 1 h 46 min
Bit rate : 27 b/s
Frame rate : 0.139 FPS
Count of elements : 889
Stream size : 21.3 KiB (0%)
Title : SDH
Language : English
Default : Yes
Forced : No

Text #3
ID : 5
Format : UTF-8
Codec ID : S_TEXT/UTF8
Codec ID/Info : UTF-8 Plain Text
Duration : 1 h 52 min
Bit rate : 21 b/s
Frame rate : 0.087 FPS
Count of elements : 587
Stream size : 17.8 KiB (0%)
Language : French
Default : No
Forced : No

Text #4
ID : 6
Format : UTF-8
Codec ID : S_TEXT/UTF8
Codec ID/Info : UTF-8 Plain Text
Duration : 1 h 52 min
Bit rate : 21 b/s
Frame rate : 0.087 FPS
Count of elements : 587
Stream size : 17.8 KiB (0%)
Title : SDH
Language : French
Default : No
Forced : No

[collapse]
Download Link(s)

Download

Direct download files get automatically deleted after a month or so. Posted on : 09/30/2022

[collapse]
Magnet Link

Magnet

Vesper.2022.1080p.AMZN.WEBRip.DDP5.1.x264-SMURF-6.77 GB

[collapse]

Media information

General
Format : Matroska
Format version : Version 4
File size : 753 MiB
Duration : 1 h 54 min
Overall bit rate : 923 kb/s
Movie name : Vesper.2022.720p.10bit.WEBRip.6CH.x265.HEVC

Video
ID : 1
Format : HEVC
Format/Info : High Efficiency Video Coding
Format profile : Main [email protected]@Main
Codec ID : V_MPEGH/ISO/HEVC
Duration : 1 h 54 min
Bit rate : 699 kb/s
Width : 1 280 pixels
Height : 536 pixels
Display aspect ratio : 2.40:1
Frame rate mode : Constant
Frame rate : 23.976 (24000/1001) FPS
Color space : YUV
Chroma subsampling : 4:2:0
Bit depth : 10 bits
Bits/(Pixel*Frame) : 0.042
Stream size : 570 MiB (76%)
Default : Yes
Forced : No
Color range : Limited
Color primaries : BT.709
Transfer characteristics : BT.709
Matrix coefficients : BT.709

Audio
ID : 2
Format : AAC LC SBR
Commercial name : HE-AAC
Format settings : Explicit
Codec ID : A_AAC-2
Duration : 1 h 54 min
Bit rate : 222 kb/s
Channel(s) : 6 channels
Channel layout : C L R Ls Rs LFE
Sampling rate : 48.0 kHz
Frame rate : 23.438 FPS (2048 SPF)
Compression mode : Lossy
Delay relative to video : 23 ms
Stream size : 181 MiB (24%)
Language : English
Default : Yes
Forced : No

Text #1
ID : 3
Format : UTF-8
Codec ID : S_TEXT/UTF8
Codec ID/Info : UTF-8 Plain Text
Duration : 1 h 33 min
Bit rate : 22 b/s
Frame rate : 0.107 FPS
Count of elements : 601
Stream size : 15.3 KiB (0%)
Language : English
Default : No
Forced : No

Text #2
ID : 4
Format : UTF-8
Codec ID : S_TEXT/UTF8
Codec ID/Info : UTF-8 Plain Text
Duration : 1 h 46 min
Bit rate : 27 b/s
Frame rate : 0.139 FPS
Count of elements : 889
Stream size : 21.3 KiB (0%)
Title : SDH
Language : English
Default : Yes
Forced : No

Text #3
ID : 5
Format : UTF-8
Codec ID : S_TEXT/UTF8
Codec ID/Info : UTF-8 Plain Text
Duration : 1 h 52 min
Bit rate : 21 b/s
Frame rate : 0.087 FPS
Count of elements : 587
Stream size : 17.8 KiB (0%)
Language : French
Default : No
Forced : No

Text #4
ID : 6
Format : UTF-8
Codec ID : S_TEXT/UTF8
Codec ID/Info : UTF-8 Plain Text
Duration : 1 h 52 min
Bit rate : 21 b/s
Frame rate : 0.087 FPS
Count of elements : 587
Stream size : 17.8 KiB (0%)
Title : SDH
Language : French
Default : No
Forced : No

[collapse]
Download Link(s)

Download

Direct download files get automatically deleted after a month or so. Posted on : 09/30/2022

[collapse]
Magnet Link

Magnet

Vesper.2022.1080p.AMZN.WEBRip.DDP5.1.x264-SMURF-6.77 GB

[collapse]

You may also like...

error: nah :p~