Valley of the Kings: The Lost Tombs (2021)

Reality-TV | TV Special 1 March 2021

“The Lost Tombs,” which will stream on Discovery+ in addition to airing on the Discovery Channel, chronicles the largest excavation in Egypt in 100 years. Dr. Zahi Hawass explores the infamous Valley of the Kings looking for Queen Nefertiti’s treasure, among other priceless artifacts from the New Kingdom.

Watch trailer

Media information

General
Format : Matroska
Format version : Version 4
File size : 1.25 GiB
Duration : 1 h 28 min
Overall bit rate : 2 031 kb/s
Movie name : Valley.of.the.Kings.The.Lost.Tombs.2021.1080p.10bit.WEBRip.2CH.x265.HEVC

Video
ID : 1
Format : HEVC
Format/Info : High Efficiency Video Coding
Format profile : Main [email protected]@Main
Codec ID : V_MPEGH/ISO/HEVC
Duration : 1 h 28 min
Bit rate : 1 868 kb/s
Width : 1 920 pixels
Height : 1 080 pixels
Display aspect ratio : 16:9
Frame rate mode : Constant
Frame rate : 25.000 FPS
Color space : YUV
Chroma subsampling : 4:2:0
Bit depth : 10 bits
Bits/(Pixel*Frame) : 0.036
Stream size : 1.15 GiB (92%)
Default : Yes
Forced : No
Color range : Limited
Color primaries : BT.709
Transfer characteristics : BT.709
Matrix coefficients : BT.709

Audio
ID : 2
Format : AAC LC
Codec ID : A_AAC-2
Duration : 1 h 28 min
Bit rate : 161 kb/s
Channel(s) : 2 channels
Channel layout : L R
Sampling rate : 48.0 kHz
Frame rate : 46.875 FPS (1024 SPF)
Compression mode : Lossy
Delay relative to video : -21 ms
Stream size : 102 MiB (8%)
Language : English
Default : Yes
Forced : No

[collapse]
Download Link(s)

Download

Direct download files get automatically deleted after a month or so. Posted on : 04/04/2021

[collapse]
Magnet Link

Magnet

Valley.of.the.Kings.The.Lost.Tombs.2021.1080p.DSCP.WEBRip.AAC2.0.x264-playWEB-4.02 GB

[collapse]

Media information

General
Format : Matroska
Format version : Version 4
File size : 601 MiB
Duration : 1 h 28 min
Overall bit rate : 952 kb/s
Movie name : Valley.of.the.Kings.The.Lost.Tombs.2021.720p.10bit.WEBRip.2CH.x265.HEVC

Video
ID : 1
Format : HEVC
Format/Info : High Efficiency Video Coding
Format profile : Main [email protected]@Main
Codec ID : V_MPEGH/ISO/HEVC
Duration : 1 h 28 min
Bit rate : 821 kb/s
Width : 1 280 pixels
Height : 720 pixels
Display aspect ratio : 16:9
Frame rate mode : Constant
Frame rate : 25.000 FPS
Color space : YUV
Chroma subsampling : 4:2:0
Bit depth : 10 bits
Bits/(Pixel*Frame) : 0.036
Stream size : 518 MiB (86%)
Default : Yes
Forced : No
Color range : Limited
Color primaries : BT.709
Transfer characteristics : BT.709
Matrix coefficients : BT.709

Audio
ID : 2
Format : AAC LC
Codec ID : A_AAC-2
Duration : 1 h 28 min
Bit rate : 129 kb/s
Channel(s) : 2 channels
Channel layout : L R
Sampling rate : 48.0 kHz
Frame rate : 46.875 FPS (1024 SPF)
Compression mode : Lossy
Delay relative to video : -21 ms
Stream size : 81.2 MiB (14%)
Language : English
Default : Yes
Forced : No

[collapse]
Download Link(s)

Download

Direct download files get automatically deleted after a month or so. Posted on : 04/05/2021

[collapse]
Magnet Link

Magnet

Valley.of.the.Kings.The.Lost.Tombs.2021.1080p.DSCP.WEBRip.AAC2.0.x264-playWEB-4.02 GB

[collapse]

You may also like...

error: nah :p~