To Catch a Killer (2023)

Original title: Misanthrope | R | 1h 59min | Action, Crime, Drama

Baltimore. New Year’s Eve. A talented but troubled police officer (Shailene Woodley) is recruited by the FBI’s chief investigator (Ben Mendelsohn) to help profile and track down a disturbed individual terrorizing the city.

Watch trailer

Media information

General
Format : Matroska
Format version : Version 4
File size : 1.42 GiB
Duration : 1 h 59 min
Overall bit rate : 1 708 kb/s
Frame rate : 23.976 FPS
Movie name : To.Catch.A.Killer.2023.1080p.10bit.WEBRip.6CH.x265.HEVC

Video
ID : 1
Format : HEVC
Format/Info : High Efficiency Video Coding
Format profile : Main 10@L4@Main
Codec ID : V_MPEGH/ISO/HEVC
Duration : 1 h 59 min
Bit rate : 1 418 kb/s
Width : 1 920 pixels
Height : 800 pixels
Display aspect ratio : 2.40:1
Frame rate mode : Constant
Frame rate : 23.976 (24000/1001) FPS
Color space : YUV
Chroma subsampling : 4:2:0 (Type 0)
Bit depth : 10 bits
Bits/(Pixel*Frame) : 0.039
Stream size : 1.18 GiB (83%)
Default : Yes
Forced : No
Color range : Limited
Color primaries : BT.709
Transfer characteristics : BT.709
Matrix coefficients : BT.709

Audio
ID : 2
Format : E-AC-3
Format/Info : Enhanced AC-3
Commercial name : Dolby Digital Plus
Codec ID : A_EAC3
Duration : 1 h 59 min
Bit rate mode : Constant
Bit rate : 288 kb/s
Channel(s) : 6 channels
Channel layout : L R C LFE Ls Rs
Sampling rate : 48.0 kHz
Frame rate : 31.250 FPS (1536 SPF)
Bit depth : 32 bits
Compression mode : Lossy
Stream size : 246 MiB (17%)
Language : English
Service kind : Complete Main
Default : Yes
Forced : No

Text #1
ID : 3
Format : UTF-8
Codec ID : S_TEXT/UTF8
Codec ID/Info : UTF-8 Plain Text
Duration : 1 h 54 min
Bit rate : 71 b/s
Frame rate : 0.286 FPS
Count of elements : 1956
Stream size : 59.9 KiB (0%)
Language : English
Default : No
Forced : No

Text #2
ID : 4
Format : UTF-8
Codec ID : S_TEXT/UTF8
Codec ID/Info : UTF-8 Plain Text
Duration : 1 h 58 min
Bit rate : 78 b/s
Frame rate : 0.316 FPS
Count of elements : 2253
Stream size : 68.4 KiB (0%)
Title : SDH
Language : English
Default : Yes
Forced : No

[collapse]
Download Link(s)

Download

Direct download files get automatically deleted after a month or so. Posted on : 05/18/2023

[collapse]
Magnet Link

Magnet

To.Catch.A.Killer.2023.1080p.AMZN.WEBRip.DDP5.1.x264-CM-4.86 GB

[collapse]

Media information

General
Format : Matroska
Format version : Version 4
File size : 912 MiB
Duration : 1 h 59 min
Overall bit rate : 1 070 kb/s
Frame rate : 23.976 FPS
Movie name : To.Catch.A.Killer.2023.720p.10bit.WEBRip.6CH.x265.HEVC

Video
ID : 1
Format : HEVC
Format/Info : High Efficiency Video Coding
Format profile : Main [email protected]@Main
Codec ID : V_MPEGH/ISO/HEVC
Duration : 1 h 59 min
Bit rate : 876 kb/s
Width : 1 280 pixels
Height : 536 pixels
Display aspect ratio : 2.40:1
Frame rate mode : Constant
Frame rate : 23.976 (24000/1001) FPS
Color space : YUV
Chroma subsampling : 4:2:0 (Type 0)
Bit depth : 10 bits
Bits/(Pixel*Frame) : 0.053
Stream size : 747 MiB (82%)
Default : Yes
Forced : No
Color range : Limited
Color primaries : BT.709
Transfer characteristics : BT.709
Matrix coefficients : BT.709

Audio
ID : 2
Format : E-AC-3
Format/Info : Enhanced AC-3
Commercial name : Dolby Digital Plus
Codec ID : A_EAC3
Duration : 1 h 59 min
Bit rate mode : Constant
Bit rate : 192 kb/s
Channel(s) : 6 channels
Channel layout : L R C LFE Ls Rs
Sampling rate : 48.0 kHz
Frame rate : 31.250 FPS (1536 SPF)
Bit depth : 32 bits
Compression mode : Lossy
Stream size : 164 MiB (18%)
Language : English
Service kind : Complete Main
Default : Yes
Forced : No

Text #1
ID : 3
Format : UTF-8
Codec ID : S_TEXT/UTF8
Codec ID/Info : UTF-8 Plain Text
Duration : 1 h 54 min
Bit rate : 71 b/s
Frame rate : 0.286 FPS
Count of elements : 1956
Stream size : 59.9 KiB (0%)
Language : English
Default : No
Forced : No

Text #2
ID : 4
Format : UTF-8
Codec ID : S_TEXT/UTF8
Codec ID/Info : UTF-8 Plain Text
Duration : 1 h 58 min
Bit rate : 78 b/s
Frame rate : 0.316 FPS
Count of elements : 2253
Stream size : 68.4 KiB (0%)
Title : SDH
Language : English
Default : Yes
Forced : No

[collapse]
Download Link(s)

Download

Direct download files get automatically deleted after a month or so. Posted on : 05/18/2023

[collapse]
Magnet Link

Magnet

To.Catch.A.Killer.2023.1080p.AMZN.WEBRip.DDP5.1.x264-CM-4.86 GB

[collapse]

You may also like...

error: nah :p~