Through My Window: Across the Sea (2023)

Original title: A través del mar | TV-MA | 1h 49min | Comedy, Drama, Romance

Follows Raquel and Ares as they face challenges in the next chapter of their relationship and their individual lives.

Watch trailer

Media information

General
Format : Matroska
Format version : Version 4
File size : 1.98 GiB
Duration : 1 h 51 min
Overall bit rate : 2 532 kb/s
Frame rate : 25.000 FPS
Movie name : Through.My.Window.Across.the.Sea.2023.1080p.10bit.WEBRip.6CH.x265.HEVC

Video
ID : 1
Format : HEVC
Format/Info : High Efficiency Video Coding
Format profile : Main 10@L4@Main
Codec ID : V_MPEGH/ISO/HEVC
Duration : 1 h 51 min
Bit rate : 2 239 kb/s
Width : 1 920 pixels
Height : 1 080 pixels
Display aspect ratio : 16:9
Frame rate mode : Constant
Frame rate : 25.000 FPS
Color space : YUV
Chroma subsampling : 4:2:0 (Type 0)
Bit depth : 10 bits
Bits/(Pixel*Frame) : 0.043
Stream size : 1.75 GiB (88%)
Default : Yes
Forced : No
Color range : Limited

Audio
ID : 2
Format : E-AC-3
Format/Info : Enhanced AC-3
Commercial name : Dolby Digital Plus
Codec ID : A_EAC3
Duration : 1 h 51 min
Bit rate mode : Constant
Bit rate : 288 kb/s
Channel(s) : 6 channels
Channel layout : L R C LFE Ls Rs
Sampling rate : 48.0 kHz
Frame rate : 31.250 FPS (1536 SPF)
Bit depth : 32 bits
Compression mode : Lossy
Stream size : 230 MiB (11%)
Language : Spanish
Service kind : Complete Main
Default : Yes
Forced : No

Text #1
ID : 3
Format : UTF-8
Codec ID : S_TEXT/UTF8
Codec ID/Info : UTF-8 Plain Text
Duration : 1 h 48 min
Bit rate : 34 b/s
Frame rate : 0.146 FPS
Count of elements : 949
Stream size : 27.7 KiB (0%)
Title : English
Language : English
Default : No
Forced : No

Text #2
ID : 4
Format : UTF-8
Codec ID : S_TEXT/UTF8
Codec ID/Info : UTF-8 Plain Text
Duration : 1 h 48 min
Bit rate : 47 b/s
Frame rate : 0.201 FPS
Count of elements : 1309
Stream size : 38.0 KiB (0%)
Title : English (SDH)
Language : English
Default : Yes
Forced : No

Text #3
ID : 5
Format : UTF-8
Codec ID : S_TEXT/UTF8
Codec ID/Info : UTF-8 Plain Text
Duration : 1 h 45 min
Bit rate : 41 b/s
Frame rate : 0.175 FPS
Count of elements : 1110
Stream size : 32.4 KiB (0%)
Title : English (dub)
Language : English
Default : No
Forced : No

Text #4
ID : 6
Format : UTF-8
Codec ID : S_TEXT/UTF8
Codec ID/Info : UTF-8 Plain Text
Duration : 51 min 25 s
Bit rate : 0 b/s
Frame rate : 0.005 FPS
Count of elements : 16
Stream size : 344 Bytes (0%)
Title : Spanish (Spain) (forced)
Language : Spanish
Default : No
Forced : No

Text #5
ID : 7
Format : UTF-8
Codec ID : S_TEXT/UTF8
Codec ID/Info : UTF-8 Plain Text
Duration : 1 h 50 min
Bit rate : 61 b/s
Frame rate : 0.240 FPS
Count of elements : 1584
Stream size : 49.4 KiB (0%)
Title : European Spanish (SDH)
Language : Spanish
Default : No
Forced : No

Text #6
ID : 8
Format : UTF-8
Codec ID : S_TEXT/UTF8
Codec ID/Info : UTF-8 Plain Text
Duration : 1 h 45 min
Bit rate : 68 b/s
Frame rate : 0.160 FPS
Count of elements : 1013
Stream size : 53.0 KiB (0%)
Title : Arabic
Language : Arabic
Default : No
Forced : No

Text #7
ID : 9
Format : UTF-8
Codec ID : S_TEXT/UTF8
Codec ID/Info : UTF-8 Plain Text
Duration : 1 h 48 min
Bit rate : 33 b/s
Frame rate : 0.154 FPS
Count of elements : 998
Stream size : 26.8 KiB (0%)
Title : Czech
Language : Czech
Default : No
Forced : No

Text #8
ID : 10
Format : UTF-8
Codec ID : S_TEXT/UTF8
Codec ID/Info : UTF-8 Plain Text
Duration : 1 h 48 min
Bit rate : 33 b/s
Frame rate : 0.148 FPS
Count of elements : 961
Stream size : 26.4 KiB (0%)
Title : Danish
Language : Danish
Default : No
Forced : No

Text #9
ID : 11
Format : UTF-8
Codec ID : S_TEXT/UTF8
Codec ID/Info : UTF-8 Plain Text
Duration : 1 h 49 min
Bit rate : 36 b/s
Frame rate : 0.147 FPS
Count of elements : 962
Stream size : 29.3 KiB (0%)
Title : German
Language : German
Default : No
Forced : No

Text #10
ID : 12
Format : UTF-8
Codec ID : S_TEXT/UTF8
Codec ID/Info : UTF-8 Plain Text
Duration : 1 h 48 min
Bit rate : 57 b/s
Frame rate : 0.154 FPS
Count of elements : 1002
Stream size : 45.7 KiB (0%)
Title : Greek
Language : Greek
Default : No
Forced : No

Text #11
ID : 13
Format : UTF-8
Codec ID : S_TEXT/UTF8
Codec ID/Info : UTF-8 Plain Text
Duration : 1 h 48 min
Bit rate : 34 b/s
Frame rate : 0.116 FPS
Count of elements : 750
Stream size : 27.3 KiB (0%)
Title : Finnish
Language : Finnish
Default : No
Forced : No

Text #12
ID : 14
Format : UTF-8
Codec ID : S_TEXT/UTF8
Codec ID/Info : UTF-8 Plain Text
Duration : 1 h 48 min
Bit rate : 37 b/s
Frame rate : 0.147 FPS
Count of elements : 952
Stream size : 29.7 KiB (0%)
Title : Filipino
Language : English
Default : No
Forced : No

Text #13
ID : 15
Format : UTF-8
Codec ID : S_TEXT/UTF8
Codec ID/Info : UTF-8 Plain Text
Duration : 1 h 48 min
Bit rate : 37 b/s
Frame rate : 0.154 FPS
Count of elements : 1002
Stream size : 29.7 KiB (0%)
Title : French
Language : French
Default : No
Forced : No

Text #14
ID : 16
Format : UTF-8
Codec ID : S_TEXT/UTF8
Codec ID/Info : UTF-8 Plain Text
Duration : 1 h 49 min
Bit rate : 59 b/s
Frame rate : 0.153 FPS
Count of elements : 1002
Stream size : 47.8 KiB (0%)
Title : Hebrew
Language : Hebrew
Default : No
Forced : No

Text #15
ID : 17
Format : UTF-8
Codec ID : S_TEXT/UTF8
Codec ID/Info : UTF-8 Plain Text
Duration : 1 h 48 min
Bit rate : 30 b/s
Frame rate : 0.155 FPS
Count of elements : 1004
Stream size : 24.4 KiB (0%)
Title : Croatian
Language : Croatian
Default : No
Forced : No

Text #16
ID : 18
Format : UTF-8
Codec ID : S_TEXT/UTF8
Codec ID/Info : UTF-8 Plain Text
Duration : 1 h 48 min
Bit rate : 35 b/s
Frame rate : 0.150 FPS
Count of elements : 974
Stream size : 28.0 KiB (0%)
Title : Hungarian
Language : Hungarian
Default : No
Forced : No

Text #17
ID : 19
Format : UTF-8
Codec ID : S_TEXT/UTF8
Codec ID/Info : UTF-8 Plain Text
Duration : 1 h 48 min
Bit rate : 33 b/s
Frame rate : 0.155 FPS
Count of elements : 1005
Stream size : 26.9 KiB (0%)
Title : Indonesian
Language : Indonesian
Default : No
Forced : No

Text #18
ID : 20
Format : UTF-8
Codec ID : S_TEXT/UTF8
Codec ID/Info : UTF-8 Plain Text
Duration : 1 h 48 min
Bit rate : 34 b/s
Frame rate : 0.156 FPS
Count of elements : 1013
Stream size : 27.7 KiB (0%)
Title : Italian
Language : Italian
Default : No
Forced : No

Text #19
ID : 21
Format : UTF-8
Codec ID : S_TEXT/UTF8
Codec ID/Info : UTF-8 Plain Text
Duration : 1 h 48 min
Bit rate : 30 b/s
Frame rate : 0.159 FPS
Count of elements : 1030
Stream size : 24.5 KiB (0%)
Title : Japanese
Language : Japanese
Default : No
Forced : No

Text #20
ID : 22
Format : UTF-8
Codec ID : S_TEXT/UTF8
Codec ID/Info : UTF-8 Plain Text
Duration : 1 h 48 min
Bit rate : 41 b/s
Frame rate : 0.163 FPS
Count of elements : 1058
Stream size : 32.9 KiB (0%)
Title : Korean
Language : Korean
Default : No
Forced : No

Text #21
ID : 23
Format : UTF-8
Codec ID : S_TEXT/UTF8
Codec ID/Info : UTF-8 Plain Text
Duration : 1 h 48 min
Bit rate : 35 b/s
Frame rate : 0.150 FPS
Count of elements : 971
Stream size : 28.3 KiB (0%)
Title : Malay
Language : Malay
Default : No
Forced : No

Text #22
ID : 24
Format : UTF-8
Codec ID : S_TEXT/UTF8
Codec ID/Info : UTF-8 Plain Text
Duration : 1 h 48 min
Bit rate : 35 b/s
Frame rate : 0.127 FPS
Count of elements : 823
Stream size : 28.2 KiB (0%)
Title : Norwegian
Language : Norwegian Bokmal
Default : No
Forced : No

Text #23
ID : 25
Format : UTF-8
Codec ID : S_TEXT/UTF8
Codec ID/Info : UTF-8 Plain Text
Duration : 1 h 48 min
Bit rate : 33 b/s
Frame rate : 0.145 FPS
Count of elements : 939
Stream size : 26.4 KiB (0%)
Title : Dutch
Language : Dutch
Default : No
Forced : No

Text #24
ID : 26
Format : UTF-8
Codec ID : S_TEXT/UTF8
Codec ID/Info : UTF-8 Plain Text
Duration : 1 h 49 min
Bit rate : 32 b/s
Frame rate : 0.155 FPS
Count of elements : 1011
Stream size : 25.7 KiB (0%)
Title : Polish
Language : Polish
Default : No
Forced : No

Text #25
ID : 27
Format : UTF-8
Codec ID : S_TEXT/UTF8
Codec ID/Info : UTF-8 Plain Text
Duration : 1 h 48 min
Bit rate : 36 b/s
Frame rate : 0.154 FPS
Count of elements : 1002
Stream size : 28.6 KiB (0%)
Title : Portuguese
Language : Portuguese
Default : No
Forced : No

Text #26
ID : 28
Format : UTF-8
Codec ID : S_TEXT/UTF8
Codec ID/Info : UTF-8 Plain Text
Duration : 1 h 48 min
Bit rate : 34 b/s
Frame rate : 0.155 FPS
Count of elements : 1006
Stream size : 27.4 KiB (0%)
Title : Brazilian Portuguese
Language : Portuguese
Default : No
Forced : No

Text #27
ID : 29
Format : UTF-8
Codec ID : S_TEXT/UTF8
Codec ID/Info : UTF-8 Plain Text
Duration : 1 h 48 min
Bit rate : 35 b/s
Frame rate : 0.146 FPS
Count of elements : 948
Stream size : 28.0 KiB (0%)
Title : Romanian
Language : Romanian
Default : No
Forced : No

Text #28
ID : 30
Format : UTF-8
Codec ID : S_TEXT/UTF8
Codec ID/Info : UTF-8 Plain Text
Duration : 1 h 48 min
Bit rate : 38 b/s
Frame rate : 0.135 FPS
Count of elements : 875
Stream size : 30.2 KiB (0%)
Title : Swedish
Language : Swedish
Default : No
Forced : No

Text #29
ID : 31
Format : UTF-8
Codec ID : S_TEXT/UTF8
Codec ID/Info : UTF-8 Plain Text
Duration : 1 h 48 min
Bit rate : 93 b/s
Frame rate : 0.156 FPS
Count of elements : 1016
Stream size : 74.0 KiB (0%)
Title : Thai
Language : Thai
Default : No
Forced : No

Text #30
ID : 32
Format : UTF-8
Codec ID : S_TEXT/UTF8
Codec ID/Info : UTF-8 Plain Text
Duration : 1 h 48 min
Bit rate : 35 b/s
Frame rate : 0.151 FPS
Count of elements : 982
Stream size : 27.8 KiB (0%)
Title : Turkish
Language : Turkish
Default : No
Forced : No

Text #31
ID : 33
Format : UTF-8
Codec ID : S_TEXT/UTF8
Codec ID/Info : UTF-8 Plain Text
Duration : 1 h 48 min
Bit rate : 58 b/s
Frame rate : 0.154 FPS
Count of elements : 1002
Stream size : 46.6 KiB (0%)
Title : Ukrainian
Language : Ukrainian
Default : No
Forced : No

Text #32
ID : 34
Format : UTF-8
Codec ID : S_TEXT/UTF8
Codec ID/Info : UTF-8 Plain Text
Duration : 1 h 48 min
Bit rate : 50 b/s
Frame rate : 0.156 FPS
Count of elements : 1011
Stream size : 40.3 KiB (0%)
Title : Vietnamese
Language : Vietnamese
Default : No
Forced : No

Text #33
ID : 35
Format : UTF-8
Codec ID : S_TEXT/UTF8
Codec ID/Info : UTF-8 Plain Text
Duration : 1 h 48 min
Bit rate : 36 b/s
Frame rate : 0.156 FPS
Count of elements : 1015
Stream size : 29.2 KiB (0%)
Title : Simplified Chinese
Language : Chinese
Default : No
Forced : No

Text #34
ID : 36
Format : UTF-8
Codec ID : S_TEXT/UTF8
Codec ID/Info : UTF-8 Plain Text
Duration : 1 h 48 min
Bit rate : 31 b/s
Frame rate : 0.156 FPS
Count of elements : 1011
Stream size : 25.1 KiB (0%)
Title : Traditional Chinese
Language : Chinese
Default : No
Forced : No

Text #35
ID : 37
Format : UTF-8
Codec ID : S_TEXT/UTF8
Codec ID/Info : UTF-8 Plain Text
Duration : 1 h 48 min
Bit rate : 51 b/s
Frame rate : 0.207 FPS
Count of elements : 1351
Stream size : 40.8 KiB (0%)
Title : German (SDH)
Language : German
Default : No
Forced : No

Text #36
ID : 38
Format : UTF-8
Codec ID : S_TEXT/UTF8
Codec ID/Info : UTF-8 Plain Text
Duration : 1 h 49 min
Bit rate : 54 b/s
Frame rate : 0.211 FPS
Count of elements : 1382
Stream size : 43.6 KiB (0%)
Title : French (SDH)
Language : French
Default : No
Forced : No

Text #37
ID : 39
Format : UTF-8
Codec ID : S_TEXT/UTF8
Codec ID/Info : UTF-8 Plain Text
Duration : 1 h 46 min
Bit rate : 54 b/s
Frame rate : 0.220 FPS
Count of elements : 1407
Stream size : 42.8 KiB (0%)
Title : Italian (SDH)
Language : Italian
Default : No
Forced : No

Text #38
ID : 40
Format : UTF-8
Codec ID : S_TEXT/UTF8
Codec ID/Info : UTF-8 Plain Text
Duration : 1 h 48 min
Bit rate : 53 b/s
Frame rate : 0.216 FPS
Count of elements : 1410
Stream size : 42.7 KiB (0%)
Title : Brazilian Portuguese (SDH)
Language : Portuguese
Default : No
Forced : No

Text #39
ID : 41
Format : UTF-8
Codec ID : S_TEXT/UTF8
Codec ID/Info : UTF-8 Plain Text
Duration : 1 h 45 min
Bit rate : 41 b/s
Frame rate : 0.158 FPS
Count of elements : 1003
Stream size : 32.4 KiB (0%)
Title : German (dub)
Language : German
Default : No
Forced : No

Text #40
ID : 42
Format : UTF-8
Codec ID : S_TEXT/UTF8
Codec ID/Info : UTF-8 Plain Text
Duration : 1 h 45 min
Bit rate : 43 b/s
Frame rate : 0.162 FPS
Count of elements : 1026
Stream size : 33.9 KiB (0%)
Title : French (dub)
Language : French
Default : No
Forced : No

Text #41
ID : 43
Format : UTF-8
Codec ID : S_TEXT/UTF8
Codec ID/Info : UTF-8 Plain Text
Duration : 1 h 43 min
Bit rate : 40 b/s
Frame rate : 0.165 FPS
Count of elements : 1026
Stream size : 30.5 KiB (0%)
Title : Italian (dub)
Language : Italian
Default : No
Forced : No

Text #42
ID : 44
Format : UTF-8
Codec ID : S_TEXT/UTF8
Codec ID/Info : UTF-8 Plain Text
Duration : 1 h 43 min
Bit rate : 42 b/s
Frame rate : 0.170 FPS
Count of elements : 1063
Stream size : 32.1 KiB (0%)
Title : Brazilian Portuguese (dub)
Language : Portuguese
Default : No
Forced : No

[collapse]
Download Link(s)

Download

Direct download files get automatically deleted after a month or so. Posted on : 06/26/2023

[collapse]
Magnet Link

Magnet

Through.My.Window.Across.the.Sea.2023.1080p.WEB.h264-ED-4.35 GB

[collapse]

Media information

General
Format : Matroska
Format version : Version 4
File size : 1.14 GiB
Duration : 1 h 51 min
Overall bit rate : 1 466 kb/s
Frame rate : 25.000 FPS
Movie name : Through.My.Window.Across.the.Sea.2023.720p.10bit.WEBRip.6CH.x265.HEVC

Video
ID : 1
Format : HEVC
Format/Info : High Efficiency Video Coding
Format profile : Main [email protected]@Main
Codec ID : V_MPEGH/ISO/HEVC
Duration : 1 h 51 min
Bit rate : 1 269 kb/s
Width : 1 280 pixels
Height : 720 pixels
Display aspect ratio : 16:9
Frame rate mode : Constant
Frame rate : 25.000 FPS
Color space : YUV
Chroma subsampling : 4:2:0 (Type 0)
Bit depth : 10 bits
Bits/(Pixel*Frame) : 0.055
Stream size : 1 014 MiB (87%)
Default : Yes
Forced : No
Color range : Limited

Audio
ID : 2
Format : E-AC-3
Format/Info : Enhanced AC-3
Commercial name : Dolby Digital Plus
Codec ID : A_EAC3
Duration : 1 h 51 min
Bit rate mode : Constant
Bit rate : 192 kb/s
Channel(s) : 6 channels
Channel layout : L R C LFE Ls Rs
Sampling rate : 48.0 kHz
Frame rate : 31.250 FPS (1536 SPF)
Bit depth : 32 bits
Compression mode : Lossy
Stream size : 153 MiB (13%)
Language : Spanish
Service kind : Complete Main
Default : Yes
Forced : No

Text #1
ID : 3
Format : UTF-8
Codec ID : S_TEXT/UTF8
Codec ID/Info : UTF-8 Plain Text
Duration : 1 h 48 min
Bit rate : 34 b/s
Frame rate : 0.146 FPS
Count of elements : 949
Stream size : 27.7 KiB (0%)
Title : English
Language : English
Default : Yes
Forced : No

Text #2
ID : 4
Format : UTF-8
Codec ID : S_TEXT/UTF8
Codec ID/Info : UTF-8 Plain Text
Duration : 1 h 48 min
Bit rate : 47 b/s
Frame rate : 0.201 FPS
Count of elements : 1309
Stream size : 38.0 KiB (0%)
Title : English (SDH)
Language : English
Default : Yes
Forced : No

Text #3
ID : 5
Format : UTF-8
Codec ID : S_TEXT/UTF8
Codec ID/Info : UTF-8 Plain Text
Duration : 1 h 45 min
Bit rate : 41 b/s
Frame rate : 0.175 FPS
Count of elements : 1110
Stream size : 32.4 KiB (0%)
Title : English (dub)
Language : English
Default : No
Forced : No

Text #4
ID : 6
Format : UTF-8
Codec ID : S_TEXT/UTF8
Codec ID/Info : UTF-8 Plain Text
Duration : 51 min 25 s
Bit rate : 0 b/s
Frame rate : 0.005 FPS
Count of elements : 16
Stream size : 344 Bytes (0%)
Title : Spanish (Spain) (forced)
Language : Spanish
Default : No
Forced : No

Text #5
ID : 7
Format : UTF-8
Codec ID : S_TEXT/UTF8
Codec ID/Info : UTF-8 Plain Text
Duration : 1 h 50 min
Bit rate : 61 b/s
Frame rate : 0.240 FPS
Count of elements : 1584
Stream size : 49.4 KiB (0%)
Title : European Spanish (SDH)
Language : Spanish
Default : No
Forced : No

Text #6
ID : 8
Format : UTF-8
Codec ID : S_TEXT/UTF8
Codec ID/Info : UTF-8 Plain Text
Duration : 1 h 45 min
Bit rate : 68 b/s
Frame rate : 0.160 FPS
Count of elements : 1013
Stream size : 53.0 KiB (0%)
Title : Arabic
Language : Arabic
Default : No
Forced : No

Text #7
ID : 9
Format : UTF-8
Codec ID : S_TEXT/UTF8
Codec ID/Info : UTF-8 Plain Text
Duration : 1 h 48 min
Bit rate : 33 b/s
Frame rate : 0.154 FPS
Count of elements : 998
Stream size : 26.8 KiB (0%)
Title : Czech
Language : Czech
Default : No
Forced : No

Text #8
ID : 10
Format : UTF-8
Codec ID : S_TEXT/UTF8
Codec ID/Info : UTF-8 Plain Text
Duration : 1 h 48 min
Bit rate : 33 b/s
Frame rate : 0.148 FPS
Count of elements : 961
Stream size : 26.4 KiB (0%)
Title : Danish
Language : Danish
Default : No
Forced : No

Text #9
ID : 11
Format : UTF-8
Codec ID : S_TEXT/UTF8
Codec ID/Info : UTF-8 Plain Text
Duration : 1 h 49 min
Bit rate : 36 b/s
Frame rate : 0.147 FPS
Count of elements : 962
Stream size : 29.3 KiB (0%)
Title : German
Language : German
Default : No
Forced : No

Text #10
ID : 12
Format : UTF-8
Codec ID : S_TEXT/UTF8
Codec ID/Info : UTF-8 Plain Text
Duration : 1 h 48 min
Bit rate : 57 b/s
Frame rate : 0.154 FPS
Count of elements : 1002
Stream size : 45.7 KiB (0%)
Title : Greek
Language : Greek
Default : No
Forced : No

Text #11
ID : 13
Format : UTF-8
Codec ID : S_TEXT/UTF8
Codec ID/Info : UTF-8 Plain Text
Duration : 1 h 48 min
Bit rate : 34 b/s
Frame rate : 0.116 FPS
Count of elements : 750
Stream size : 27.3 KiB (0%)
Title : Finnish
Language : Finnish
Default : No
Forced : No

Text #12
ID : 14
Format : UTF-8
Codec ID : S_TEXT/UTF8
Codec ID/Info : UTF-8 Plain Text
Duration : 1 h 48 min
Bit rate : 37 b/s
Frame rate : 0.147 FPS
Count of elements : 952
Stream size : 29.7 KiB (0%)
Title : Filipino
Language : English
Default : No
Forced : No

Text #13
ID : 15
Format : UTF-8
Codec ID : S_TEXT/UTF8
Codec ID/Info : UTF-8 Plain Text
Duration : 1 h 48 min
Bit rate : 37 b/s
Frame rate : 0.154 FPS
Count of elements : 1002
Stream size : 29.7 KiB (0%)
Title : French
Language : French
Default : No
Forced : No

Text #14
ID : 16
Format : UTF-8
Codec ID : S_TEXT/UTF8
Codec ID/Info : UTF-8 Plain Text
Duration : 1 h 49 min
Bit rate : 59 b/s
Frame rate : 0.153 FPS
Count of elements : 1002
Stream size : 47.8 KiB (0%)
Title : Hebrew
Language : Hebrew
Default : No
Forced : No

Text #15
ID : 17
Format : UTF-8
Codec ID : S_TEXT/UTF8
Codec ID/Info : UTF-8 Plain Text
Duration : 1 h 48 min
Bit rate : 30 b/s
Frame rate : 0.155 FPS
Count of elements : 1004
Stream size : 24.4 KiB (0%)
Title : Croatian
Language : Croatian
Default : No
Forced : No

Text #16
ID : 18
Format : UTF-8
Codec ID : S_TEXT/UTF8
Codec ID/Info : UTF-8 Plain Text
Duration : 1 h 48 min
Bit rate : 35 b/s
Frame rate : 0.150 FPS
Count of elements : 974
Stream size : 28.0 KiB (0%)
Title : Hungarian
Language : Hungarian
Default : No
Forced : No

Text #17
ID : 19
Format : UTF-8
Codec ID : S_TEXT/UTF8
Codec ID/Info : UTF-8 Plain Text
Duration : 1 h 48 min
Bit rate : 33 b/s
Frame rate : 0.155 FPS
Count of elements : 1005
Stream size : 26.9 KiB (0%)
Title : Indonesian
Language : Indonesian
Default : No
Forced : No

Text #18
ID : 20
Format : UTF-8
Codec ID : S_TEXT/UTF8
Codec ID/Info : UTF-8 Plain Text
Duration : 1 h 48 min
Bit rate : 34 b/s
Frame rate : 0.156 FPS
Count of elements : 1013
Stream size : 27.7 KiB (0%)
Title : Italian
Language : Italian
Default : No
Forced : No

Text #19
ID : 21
Format : UTF-8
Codec ID : S_TEXT/UTF8
Codec ID/Info : UTF-8 Plain Text
Duration : 1 h 48 min
Bit rate : 30 b/s
Frame rate : 0.159 FPS
Count of elements : 1030
Stream size : 24.5 KiB (0%)
Title : Japanese
Language : Japanese
Default : No
Forced : No

Text #20
ID : 22
Format : UTF-8
Codec ID : S_TEXT/UTF8
Codec ID/Info : UTF-8 Plain Text
Duration : 1 h 48 min
Bit rate : 41 b/s
Frame rate : 0.163 FPS
Count of elements : 1058
Stream size : 32.9 KiB (0%)
Title : Korean
Language : Korean
Default : No
Forced : No

Text #21
ID : 23
Format : UTF-8
Codec ID : S_TEXT/UTF8
Codec ID/Info : UTF-8 Plain Text
Duration : 1 h 48 min
Bit rate : 35 b/s
Frame rate : 0.150 FPS
Count of elements : 971
Stream size : 28.3 KiB (0%)
Title : Malay
Language : Malay
Default : No
Forced : No

Text #22
ID : 24
Format : UTF-8
Codec ID : S_TEXT/UTF8
Codec ID/Info : UTF-8 Plain Text
Duration : 1 h 48 min
Bit rate : 35 b/s
Frame rate : 0.127 FPS
Count of elements : 823
Stream size : 28.2 KiB (0%)
Title : Norwegian
Language : Norwegian Bokmal
Default : No
Forced : No

Text #23
ID : 25
Format : UTF-8
Codec ID : S_TEXT/UTF8
Codec ID/Info : UTF-8 Plain Text
Duration : 1 h 48 min
Bit rate : 33 b/s
Frame rate : 0.145 FPS
Count of elements : 939
Stream size : 26.4 KiB (0%)
Title : Dutch
Language : Dutch
Default : No
Forced : No

Text #24
ID : 26
Format : UTF-8
Codec ID : S_TEXT/UTF8
Codec ID/Info : UTF-8 Plain Text
Duration : 1 h 49 min
Bit rate : 32 b/s
Frame rate : 0.155 FPS
Count of elements : 1011
Stream size : 25.7 KiB (0%)
Title : Polish
Language : Polish
Default : No
Forced : No

Text #25
ID : 27
Format : UTF-8
Codec ID : S_TEXT/UTF8
Codec ID/Info : UTF-8 Plain Text
Duration : 1 h 48 min
Bit rate : 36 b/s
Frame rate : 0.154 FPS
Count of elements : 1002
Stream size : 28.6 KiB (0%)
Title : Portuguese
Language : Portuguese
Default : No
Forced : No

Text #26
ID : 28
Format : UTF-8
Codec ID : S_TEXT/UTF8
Codec ID/Info : UTF-8 Plain Text
Duration : 1 h 48 min
Bit rate : 34 b/s
Frame rate : 0.155 FPS
Count of elements : 1006
Stream size : 27.4 KiB (0%)
Title : Brazilian Portuguese
Language : Portuguese
Default : No
Forced : No

Text #27
ID : 29
Format : UTF-8
Codec ID : S_TEXT/UTF8
Codec ID/Info : UTF-8 Plain Text
Duration : 1 h 48 min
Bit rate : 35 b/s
Frame rate : 0.146 FPS
Count of elements : 948
Stream size : 28.0 KiB (0%)
Title : Romanian
Language : Romanian
Default : No
Forced : No

Text #28
ID : 30
Format : UTF-8
Codec ID : S_TEXT/UTF8
Codec ID/Info : UTF-8 Plain Text
Duration : 1 h 48 min
Bit rate : 38 b/s
Frame rate : 0.135 FPS
Count of elements : 875
Stream size : 30.2 KiB (0%)
Title : Swedish
Language : Swedish
Default : No
Forced : No

Text #29
ID : 31
Format : UTF-8
Codec ID : S_TEXT/UTF8
Codec ID/Info : UTF-8 Plain Text
Duration : 1 h 48 min
Bit rate : 93 b/s
Frame rate : 0.156 FPS
Count of elements : 1016
Stream size : 74.0 KiB (0%)
Title : Thai
Language : Thai
Default : No
Forced : No

Text #30
ID : 32
Format : UTF-8
Codec ID : S_TEXT/UTF8
Codec ID/Info : UTF-8 Plain Text
Duration : 1 h 48 min
Bit rate : 35 b/s
Frame rate : 0.151 FPS
Count of elements : 982
Stream size : 27.8 KiB (0%)
Title : Turkish
Language : Turkish
Default : No
Forced : No

Text #31
ID : 33
Format : UTF-8
Codec ID : S_TEXT/UTF8
Codec ID/Info : UTF-8 Plain Text
Duration : 1 h 48 min
Bit rate : 58 b/s
Frame rate : 0.154 FPS
Count of elements : 1002
Stream size : 46.6 KiB (0%)
Title : Ukrainian
Language : Ukrainian
Default : No
Forced : No

Text #32
ID : 34
Format : UTF-8
Codec ID : S_TEXT/UTF8
Codec ID/Info : UTF-8 Plain Text
Duration : 1 h 48 min
Bit rate : 50 b/s
Frame rate : 0.156 FPS
Count of elements : 1011
Stream size : 40.3 KiB (0%)
Title : Vietnamese
Language : Vietnamese
Default : No
Forced : No

Text #33
ID : 35
Format : UTF-8
Codec ID : S_TEXT/UTF8
Codec ID/Info : UTF-8 Plain Text
Duration : 1 h 48 min
Bit rate : 36 b/s
Frame rate : 0.156 FPS
Count of elements : 1015
Stream size : 29.2 KiB (0%)
Title : Simplified Chinese
Language : Chinese
Default : No
Forced : No

Text #34
ID : 36
Format : UTF-8
Codec ID : S_TEXT/UTF8
Codec ID/Info : UTF-8 Plain Text
Duration : 1 h 48 min
Bit rate : 31 b/s
Frame rate : 0.156 FPS
Count of elements : 1011
Stream size : 25.1 KiB (0%)
Title : Traditional Chinese
Language : Chinese
Default : No
Forced : No

Text #35
ID : 37
Format : UTF-8
Codec ID : S_TEXT/UTF8
Codec ID/Info : UTF-8 Plain Text
Duration : 1 h 48 min
Bit rate : 51 b/s
Frame rate : 0.207 FPS
Count of elements : 1351
Stream size : 40.8 KiB (0%)
Title : German (SDH)
Language : German
Default : No
Forced : No

Text #36
ID : 38
Format : UTF-8
Codec ID : S_TEXT/UTF8
Codec ID/Info : UTF-8 Plain Text
Duration : 1 h 49 min
Bit rate : 54 b/s
Frame rate : 0.211 FPS
Count of elements : 1382
Stream size : 43.6 KiB (0%)
Title : French (SDH)
Language : French
Default : No
Forced : No

Text #37
ID : 39
Format : UTF-8
Codec ID : S_TEXT/UTF8
Codec ID/Info : UTF-8 Plain Text
Duration : 1 h 46 min
Bit rate : 54 b/s
Frame rate : 0.220 FPS
Count of elements : 1407
Stream size : 42.8 KiB (0%)
Title : Italian (SDH)
Language : Italian
Default : No
Forced : No

Text #38
ID : 40
Format : UTF-8
Codec ID : S_TEXT/UTF8
Codec ID/Info : UTF-8 Plain Text
Duration : 1 h 48 min
Bit rate : 53 b/s
Frame rate : 0.216 FPS
Count of elements : 1410
Stream size : 42.7 KiB (0%)
Title : Brazilian Portuguese (SDH)
Language : Portuguese
Default : No
Forced : No

Text #39
ID : 41
Format : UTF-8
Codec ID : S_TEXT/UTF8
Codec ID/Info : UTF-8 Plain Text
Duration : 1 h 45 min
Bit rate : 41 b/s
Frame rate : 0.158 FPS
Count of elements : 1003
Stream size : 32.4 KiB (0%)
Title : German (dub)
Language : German
Default : No
Forced : No

Text #40
ID : 42
Format : UTF-8
Codec ID : S_TEXT/UTF8
Codec ID/Info : UTF-8 Plain Text
Duration : 1 h 45 min
Bit rate : 43 b/s
Frame rate : 0.162 FPS
Count of elements : 1026
Stream size : 33.9 KiB (0%)
Title : French (dub)
Language : French
Default : No
Forced : No

Text #41
ID : 43
Format : UTF-8
Codec ID : S_TEXT/UTF8
Codec ID/Info : UTF-8 Plain Text
Duration : 1 h 43 min
Bit rate : 40 b/s
Frame rate : 0.165 FPS
Count of elements : 1026
Stream size : 30.5 KiB (0%)
Title : Italian (dub)
Language : Italian
Default : No
Forced : No

Text #42
ID : 44
Format : UTF-8
Codec ID : S_TEXT/UTF8
Codec ID/Info : UTF-8 Plain Text
Duration : 1 h 43 min
Bit rate : 42 b/s
Frame rate : 0.170 FPS
Count of elements : 1063
Stream size : 32.1 KiB (0%)
Title : Brazilian Portuguese (dub)
Language : Portuguese
Default : No
Forced : No

[collapse]
Download Link(s)

Download

Direct download files get automatically deleted after a month or so. Posted on : 06/26/2023

[collapse]
Magnet Link

Magnet

Through.My.Window.Across.the.Sea.2023.1080p.WEB.h264-ED-4.35 GB

[collapse]

You may also like...

error: nah :p~