Things Heard & Seen (2021)

TV-MA | 2h 1min | Drama, Horror, Mystery | 29 April 2021 (USA)

An artist relocates to the Hudson Valley and begins to suspect that her marriage has a sinister darkness, one that rivals her new home’s history.

Watch trailer

Media information

General
Format : Matroska
Format version : Version 4
File size : 2.21 GiB
Duration : 2 h 1 min
Overall bit rate : 2 599 kb/s
Movie name : Things.Heard.And.Seen.2021.1080p.10bit.WEB-DL.6CH.x265.HEVC

Video
ID : 1
Format : HEVC
Format/Info : High Efficiency Video Coding
Format profile : Main [email protected]@Main
Codec ID : V_MPEGH/ISO/HEVC
Duration : 2 h 1 min
Bit rate : 1 825 kb/s
Width : 1 920 pixels
Height : 1 080 pixels
Display aspect ratio : 16:9
Frame rate mode : Constant
Frame rate : 23.976 (24000/1001) FPS
Color space : YUV
Chroma subsampling : 4:2:0
Bit depth : 10 bits
Bits/(Pixel*Frame) : 0.037
Stream size : 1.55 GiB (70%)
Default : Yes
Forced : No
Color range : Limited
Color primaries : BT.709
Transfer characteristics : BT.709
Matrix coefficients : BT.709

Audio
ID : 2
Format : E-AC-3 JOC
Format/Info : Enhanced AC-3 with Joint Object Coding
Commercial name : Dolby Digital Plus with Dolby Atmos
Codec ID : A_EAC3
Duration : 2 h 1 min
Bit rate mode : Constant
Bit rate : 768 kb/s
Channel(s) : 6 channels
Channel layout : L R C LFE Ls Rs
Sampling rate : 48.0 kHz
Frame rate : 31.250 FPS (1536 SPF)
Compression mode : Lossy
Stream size : 667 MiB (30%)
Language : English
Service kind : Complete Main
Default : Yes
Forced : No
Complexity index : 16
Number of dynamic objects : 15
Bed channel count : 1 channel
Bed channel configuration : LFE

Text #1
ID : 3
Format : ASS
Codec ID : S_TEXT/ASS
Duration : 1 h 59 min
Bit rate : 117 b/s
Count of elements : 1366
Compression mode : Lossless
Stream size : 103 KiB (0%)
Title : Arabic
Language : Arabic
Default : No
Forced : No

Text #2
ID : 4
Format : ASS
Codec ID : S_TEXT/ASS
Duration : 1 h 59 min
Bit rate : 75 b/s
Count of elements : 1333
Compression mode : Lossless
Stream size : 65.9 KiB (0%)
Title : Czech
Language : Czech
Default : No
Forced : No

Text #3
ID : 5
Format : ASS
Codec ID : S_TEXT/ASS
Duration : 1 h 59 min
Bit rate : 75 b/s
Count of elements : 1257
Compression mode : Lossless
Stream size : 65.8 KiB (0%)
Title : Danish
Language : Danish
Default : No
Forced : No

Text #4
ID : 6
Format : ASS
Codec ID : S_TEXT/ASS
Duration : 1 h 59 min
Bit rate : 79 b/s
Count of elements : 1320
Compression mode : Lossless
Stream size : 69.3 KiB (0%)
Title : German
Language : German
Default : No
Forced : No

Text #5
ID : 7
Format : ASS
Codec ID : S_TEXT/ASS
Duration : 1 h 59 min
Bit rate : 113 b/s
Count of elements : 1366
Compression mode : Lossless
Stream size : 98.8 KiB (0%)
Title : Greek
Language : Greek
Default : No
Forced : No

Text #6
ID : 8
Format : ASS
Codec ID : S_TEXT/ASS
Duration : 1 h 57 min
Bit rate : 106 b/s
Count of elements : 1755
Compression mode : Lossless
Stream size : 91.0 KiB (0%)
Title : English (SDH)
Language : English
Default : Yes
Forced : Yes

Text #7
ID : 9
Format : ASS
Codec ID : S_TEXT/ASS
Duration : 1 h 54 min
Bit rate : 82 b/s
Count of elements : 1331
Compression mode : Lossless
Stream size : 68.8 KiB (0%)
Title : Spanish
Language : Spanish
Default : No
Forced : No

Text #8
ID : 10
Format : ASS
Codec ID : S_TEXT/ASS
Duration : 1 h 59 min
Bit rate : 77 b/s
Count of elements : 1329
Compression mode : Lossless
Stream size : 68.0 KiB (0%)
Title : European Spanish
Language : Spanish
Default : No
Forced : No

Text #9
ID : 11
Format : ASS
Codec ID : S_TEXT/ASS
Duration : 1 h 59 min
Bit rate : 74 b/s
Count of elements : 1213
Compression mode : Lossless
Stream size : 64.9 KiB (0%)
Title : Finnish
Language : Finnish
Default : No
Forced : No

Text #10
ID : 12
Format : ASS
Codec ID : S_TEXT/ASS
Duration : 1 h 59 min
Bit rate : 76 b/s
Count of elements : 1292
Compression mode : Lossless
Stream size : 67.3 KiB (0%)
Title : French
Language : French
Default : No
Forced : No

Text #11
ID : 13
Format : ASS
Codec ID : S_TEXT/ASS
Duration : 1 h 59 min
Bit rate : 114 b/s
Count of elements : 1327
Compression mode : Lossless
Stream size : 99.9 KiB (0%)
Title : Hebrew
Language : Hebrew
Default : No
Forced : No

Text #12
ID : 14
Format : ASS
Codec ID : S_TEXT/ASS
Duration : 1 h 59 min
Bit rate : 75 b/s
Count of elements : 1317
Compression mode : Lossless
Stream size : 66.4 KiB (0%)
Title : Croatian
Language : Croatian
Default : No
Forced : No

Text #13
ID : 15
Format : ASS
Codec ID : S_TEXT/ASS
Duration : 1 h 59 min
Bit rate : 75 b/s
Count of elements : 1266
Compression mode : Lossless
Stream size : 66.0 KiB (0%)
Title : Hungarian
Language : Hungarian
Default : No
Forced : No

Text #14
ID : 16
Format : ASS
Codec ID : S_TEXT/ASS
Duration : 1 h 59 min
Bit rate : 79 b/s
Count of elements : 1358
Compression mode : Lossless
Stream size : 69.5 KiB (0%)
Title : Indonesian
Language : Indonesian
Default : No
Forced : No

Text #15
ID : 17
Format : ASS
Codec ID : S_TEXT/ASS
Duration : 1 h 59 min
Bit rate : 78 b/s
Count of elements : 1289
Compression mode : Lossless
Stream size : 69.0 KiB (0%)
Title : Italian
Language : Italian
Default : No
Forced : No

Text #16
ID : 18
Format : ASS
Codec ID : S_TEXT/ASS
Duration : 1 h 59 min
Bit rate : 81 b/s
Count of elements : 1395
Compression mode : Lossless
Stream size : 71.2 KiB (0%)
Title : Japanese
Language : Japanese
Default : No
Forced : No

Text #17
ID : 19
Format : ASS
Codec ID : S_TEXT/ASS
Duration : 1 h 59 min
Bit rate : 92 b/s
Count of elements : 1417
Compression mode : Lossless
Stream size : 81.1 KiB (0%)
Title : Korean
Language : Korean
Default : No
Forced : No

Text #18
ID : 20
Format : ASS
Codec ID : S_TEXT/ASS
Duration : 1 h 59 min
Bit rate : 78 b/s
Count of elements : 1360
Compression mode : Lossless
Stream size : 69.1 KiB (0%)
Title : Malay
Default : No
Forced : No

Text #19
ID : 21
Format : ASS
Codec ID : S_TEXT/ASS
Duration : 1 h 59 min
Bit rate : 76 b/s
Count of elements : 1285
Compression mode : Lossless
Stream size : 66.6 KiB (0%)
Title : Norwegian
Language : Norwegian
Default : No
Forced : No

Text #20
ID : 22
Format : ASS
Codec ID : S_TEXT/ASS
Duration : 1 h 53 min
Bit rate : 78 b/s
Count of elements : 1192
Compression mode : Lossless
Stream size : 65.6 KiB (0%)
Title : Dutch
Language : Dutch
Default : No
Forced : No

Text #21
ID : 23
Format : ASS
Codec ID : S_TEXT/ASS
Duration : 1 h 59 min
Bit rate : 79 b/s
Count of elements : 1374
Compression mode : Lossless
Stream size : 69.2 KiB (0%)
Title : Polish
Language : Polish
Default : No
Forced : No

Text #22
ID : 24
Format : ASS
Codec ID : S_TEXT/ASS
Duration : 1 h 59 min
Bit rate : 79 b/s
Count of elements : 1329
Compression mode : Lossless
Stream size : 69.6 KiB (0%)
Title : Portuguese
Language : Portuguese
Default : No
Forced : No

Text #23
ID : 25
Format : ASS
Codec ID : S_TEXT/ASS
Duration : 1 h 59 min
Bit rate : 79 b/s
Count of elements : 1358
Compression mode : Lossless
Stream size : 69.9 KiB (0%)
Title : Brazilian Portuguese
Language : Portuguese
Default : No
Forced : No

Text #24
ID : 26
Format : ASS
Codec ID : S_TEXT/ASS
Duration : 1 h 53 min
Bit rate : 83 b/s
Count of elements : 1283
Compression mode : Lossless
Stream size : 69.4 KiB (0%)
Title : Romanian
Language : Romanian
Default : No
Forced : No

Text #25
ID : 27
Format : ASS
Codec ID : S_TEXT/ASS
Duration : 1 h 59 min
Bit rate : 114 b/s
Count of elements : 1379
Compression mode : Lossless
Stream size : 99.8 KiB (0%)
Title : Russian
Language : Russian
Default : No
Forced : No

Text #26
ID : 28
Format : ASS
Codec ID : S_TEXT/ASS
Duration : 1 h 59 min
Bit rate : 78 b/s
Count of elements : 1273
Compression mode : Lossless
Stream size : 68.7 KiB (0%)
Title : Swedish
Language : Swedish
Default : No
Forced : No

Text #27
ID : 29
Format : ASS
Codec ID : S_TEXT/ASS
Duration : 1 h 59 min
Bit rate : 154 b/s
Count of elements : 1364
Compression mode : Lossless
Stream size : 135 KiB (0%)
Title : Thai
Language : Thai
Default : No
Forced : No

Text #28
ID : 30
Format : ASS
Codec ID : S_TEXT/ASS
Duration : 1 h 59 min
Bit rate : 76 b/s
Count of elements : 1233
Compression mode : Lossless
Stream size : 66.8 KiB (0%)
Title : Turkish
Language : Turkish
Default : No
Forced : No

Text #29
ID : 31
Format : ASS
Codec ID : S_TEXT/ASS
Duration : 1 h 59 min
Bit rate : 101 b/s
Count of elements : 1231
Compression mode : Lossless
Stream size : 88.5 KiB (0%)
Title : Vietnamese
Language : Vietnamese
Default : No
Forced : No

Text #30
ID : 32
Format : ASS
Codec ID : S_TEXT/ASS
Duration : 1 h 59 min
Bit rate : 85 b/s
Count of elements : 1366
Compression mode : Lossless
Stream size : 74.8 KiB (0%)
Title : Simplified Chinese
Language : Chinese
Default : No
Forced : No

Text #31
ID : 33
Format : ASS
Codec ID : S_TEXT/ASS
Duration : 1 h 59 min
Bit rate : 82 b/s
Count of elements : 1366
Compression mode : Lossless
Stream size : 72.1 KiB (0%)
Title : Traditional Chinese
Language : Chinese
Default : No
Forced : No

[collapse]
Download Link(s)

Download

Direct download files get automatically deleted after a month or so. Posted on : 04/30/2021

[collapse]
Magnet Link

Magnet

Things.Heard.And.Seen.2021.1080p.WEB.h264-RUMOUR-5.72 GB

[collapse]

Media information

General
Format : Matroska
Format version : Version 4
File size : 880 MiB
Duration : 2 h 1 min
Overall bit rate : 1 012 kb/s
Movie name : Things.Heard.And.Seen.2021.720p.10bit.WEB-DL.6CH.x265.HEVC

Video
ID : 1
Format : HEVC
Format/Info : High Efficiency Video Coding
Format profile : Main [email protected]@Main
Codec ID : V_MPEGH/ISO/HEVC
Duration : 2 h 1 min
Bit rate : 784 kb/s
Width : 1 280 pixels
Height : 720 pixels
Display aspect ratio : 16:9
Frame rate mode : Constant
Frame rate : 23.976 (24000/1001) FPS
Color space : YUV
Chroma subsampling : 4:2:0
Bit depth : 10 bits
Bits/(Pixel*Frame) : 0.035
Stream size : 681 MiB (77%)
Default : Yes
Forced : No
Color range : Limited
Color primaries : BT.709
Transfer characteristics : BT.709
Matrix coefficients : BT.709

Audio
ID : 2
Format : AAC LC
Codec ID : A_AAC-2
Duration : 2 h 1 min
Bit rate : 221 kb/s
Channel(s) : 6 channels
Channel layout : C L R Ls Rs LFE
Sampling rate : 48.0 kHz
Frame rate : 46.875 FPS (1024 SPF)
Compression mode : Lossy
Delay relative to video : -21 ms
Stream size : 192 MiB (22%)
Title : Surround
Language : English
Default : Yes
Forced : No

Text #1
ID : 3
Format : ASS
Codec ID : S_TEXT/ASS
Duration : 1 h 59 min
Bit rate : 117 b/s
Count of elements : 1366
Compression mode : Lossless
Stream size : 103 KiB (0%)
Title : Arabic
Language : Arabic
Default : No
Forced : No

Text #2
ID : 4
Format : ASS
Codec ID : S_TEXT/ASS
Duration : 1 h 59 min
Bit rate : 75 b/s
Count of elements : 1333
Compression mode : Lossless
Stream size : 65.9 KiB (0%)
Title : Czech
Language : Czech
Default : No
Forced : No

Text #3
ID : 5
Format : ASS
Codec ID : S_TEXT/ASS
Duration : 1 h 59 min
Bit rate : 75 b/s
Count of elements : 1257
Compression mode : Lossless
Stream size : 65.8 KiB (0%)
Title : Danish
Language : Danish
Default : No
Forced : No

Text #4
ID : 6
Format : ASS
Codec ID : S_TEXT/ASS
Duration : 1 h 59 min
Bit rate : 79 b/s
Count of elements : 1320
Compression mode : Lossless
Stream size : 69.3 KiB (0%)
Title : German
Language : German
Default : No
Forced : No

Text #5
ID : 7
Format : ASS
Codec ID : S_TEXT/ASS
Duration : 1 h 59 min
Bit rate : 113 b/s
Count of elements : 1366
Compression mode : Lossless
Stream size : 98.8 KiB (0%)
Title : Greek
Language : Greek
Default : No
Forced : No

Text #6
ID : 8
Format : ASS
Codec ID : S_TEXT/ASS
Duration : 1 h 57 min
Bit rate : 106 b/s
Count of elements : 1755
Compression mode : Lossless
Stream size : 91.0 KiB (0%)
Title : English (SDH)
Language : English
Default : Yes
Forced : Yes

Text #7
ID : 9
Format : ASS
Codec ID : S_TEXT/ASS
Duration : 1 h 54 min
Bit rate : 82 b/s
Count of elements : 1331
Compression mode : Lossless
Stream size : 68.8 KiB (0%)
Title : Spanish
Language : Spanish
Default : No
Forced : No

Text #8
ID : 10
Format : ASS
Codec ID : S_TEXT/ASS
Duration : 1 h 59 min
Bit rate : 77 b/s
Count of elements : 1329
Compression mode : Lossless
Stream size : 68.0 KiB (0%)
Title : European Spanish
Language : Spanish
Default : No
Forced : No

Text #9
ID : 11
Format : ASS
Codec ID : S_TEXT/ASS
Duration : 1 h 59 min
Bit rate : 74 b/s
Count of elements : 1213
Compression mode : Lossless
Stream size : 64.9 KiB (0%)
Title : Finnish
Language : Finnish
Default : No
Forced : No

Text #10
ID : 12
Format : ASS
Codec ID : S_TEXT/ASS
Duration : 1 h 59 min
Bit rate : 76 b/s
Count of elements : 1292
Compression mode : Lossless
Stream size : 67.3 KiB (0%)
Title : French
Language : French
Default : No
Forced : No

Text #11
ID : 13
Format : ASS
Codec ID : S_TEXT/ASS
Duration : 1 h 59 min
Bit rate : 114 b/s
Count of elements : 1327
Compression mode : Lossless
Stream size : 99.9 KiB (0%)
Title : Hebrew
Language : Hebrew
Default : No
Forced : No

Text #12
ID : 14
Format : ASS
Codec ID : S_TEXT/ASS
Duration : 1 h 59 min
Bit rate : 75 b/s
Count of elements : 1317
Compression mode : Lossless
Stream size : 66.4 KiB (0%)
Title : Croatian
Language : Croatian
Default : No
Forced : No

Text #13
ID : 15
Format : ASS
Codec ID : S_TEXT/ASS
Duration : 1 h 59 min
Bit rate : 75 b/s
Count of elements : 1266
Compression mode : Lossless
Stream size : 66.0 KiB (0%)
Title : Hungarian
Language : Hungarian
Default : No
Forced : No

Text #14
ID : 16
Format : ASS
Codec ID : S_TEXT/ASS
Duration : 1 h 59 min
Bit rate : 79 b/s
Count of elements : 1358
Compression mode : Lossless
Stream size : 69.5 KiB (0%)
Title : Indonesian
Language : Indonesian
Default : No
Forced : No

Text #15
ID : 17
Format : ASS
Codec ID : S_TEXT/ASS
Duration : 1 h 59 min
Bit rate : 78 b/s
Count of elements : 1289
Compression mode : Lossless
Stream size : 69.0 KiB (0%)
Title : Italian
Language : Italian
Default : No
Forced : No

Text #16
ID : 18
Format : ASS
Codec ID : S_TEXT/ASS
Duration : 1 h 59 min
Bit rate : 81 b/s
Count of elements : 1395
Compression mode : Lossless
Stream size : 71.2 KiB (0%)
Title : Japanese
Language : Japanese
Default : No
Forced : No

Text #17
ID : 19
Format : ASS
Codec ID : S_TEXT/ASS
Duration : 1 h 59 min
Bit rate : 92 b/s
Count of elements : 1417
Compression mode : Lossless
Stream size : 81.1 KiB (0%)
Title : Korean
Language : Korean
Default : No
Forced : No

Text #18
ID : 20
Format : ASS
Codec ID : S_TEXT/ASS
Duration : 1 h 59 min
Bit rate : 78 b/s
Count of elements : 1360
Compression mode : Lossless
Stream size : 69.1 KiB (0%)
Title : Malay
Default : No
Forced : No

Text #19
ID : 21
Format : ASS
Codec ID : S_TEXT/ASS
Duration : 1 h 59 min
Bit rate : 76 b/s
Count of elements : 1285
Compression mode : Lossless
Stream size : 66.6 KiB (0%)
Title : Norwegian
Language : Norwegian
Default : No
Forced : No

Text #20
ID : 22
Format : ASS
Codec ID : S_TEXT/ASS
Duration : 1 h 53 min
Bit rate : 78 b/s
Count of elements : 1192
Compression mode : Lossless
Stream size : 65.6 KiB (0%)
Title : Dutch
Language : Dutch
Default : No
Forced : No

Text #21
ID : 23
Format : ASS
Codec ID : S_TEXT/ASS
Duration : 1 h 59 min
Bit rate : 79 b/s
Count of elements : 1374
Compression mode : Lossless
Stream size : 69.2 KiB (0%)
Title : Polish
Language : Polish
Default : No
Forced : No

Text #22
ID : 24
Format : ASS
Codec ID : S_TEXT/ASS
Duration : 1 h 59 min
Bit rate : 79 b/s
Count of elements : 1329
Compression mode : Lossless
Stream size : 69.6 KiB (0%)
Title : Portuguese
Language : Portuguese
Default : No
Forced : No

Text #23
ID : 25
Format : ASS
Codec ID : S_TEXT/ASS
Duration : 1 h 59 min
Bit rate : 79 b/s
Count of elements : 1358
Compression mode : Lossless
Stream size : 69.9 KiB (0%)
Title : Brazilian Portuguese
Language : Portuguese
Default : No
Forced : No

Text #24
ID : 26
Format : ASS
Codec ID : S_TEXT/ASS
Duration : 1 h 53 min
Bit rate : 83 b/s
Count of elements : 1283
Compression mode : Lossless
Stream size : 69.4 KiB (0%)
Title : Romanian
Language : Romanian
Default : No
Forced : No

Text #25
ID : 27
Format : ASS
Codec ID : S_TEXT/ASS
Duration : 1 h 59 min
Bit rate : 114 b/s
Count of elements : 1379
Compression mode : Lossless
Stream size : 99.8 KiB (0%)
Title : Russian
Language : Russian
Default : No
Forced : No

Text #26
ID : 28
Format : ASS
Codec ID : S_TEXT/ASS
Duration : 1 h 59 min
Bit rate : 78 b/s
Count of elements : 1273
Compression mode : Lossless
Stream size : 68.7 KiB (0%)
Title : Swedish
Language : Swedish
Default : No
Forced : No

Text #27
ID : 29
Format : ASS
Codec ID : S_TEXT/ASS
Duration : 1 h 59 min
Bit rate : 154 b/s
Count of elements : 1364
Compression mode : Lossless
Stream size : 135 KiB (0%)
Title : Thai
Language : Thai
Default : No
Forced : No

Text #28
ID : 30
Format : ASS
Codec ID : S_TEXT/ASS
Duration : 1 h 59 min
Bit rate : 76 b/s
Count of elements : 1233
Compression mode : Lossless
Stream size : 66.8 KiB (0%)
Title : Turkish
Language : Turkish
Default : No
Forced : No

Text #29
ID : 31
Format : ASS
Codec ID : S_TEXT/ASS
Duration : 1 h 59 min
Bit rate : 101 b/s
Count of elements : 1231
Compression mode : Lossless
Stream size : 88.5 KiB (0%)
Title : Vietnamese
Language : Vietnamese
Default : No
Forced : No

Text #30
ID : 32
Format : ASS
Codec ID : S_TEXT/ASS
Duration : 1 h 59 min
Bit rate : 85 b/s
Count of elements : 1366
Compression mode : Lossless
Stream size : 74.8 KiB (0%)
Title : Simplified Chinese
Language : Chinese
Default : No
Forced : No

Text #31
ID : 33
Format : ASS
Codec ID : S_TEXT/ASS
Duration : 1 h 59 min
Bit rate : 82 b/s
Count of elements : 1366
Compression mode : Lossless
Stream size : 72.1 KiB (0%)
Title : Traditional Chinese
Language : Chinese
Default : No
Forced : No

[collapse]
Download Link(s)

Download

Direct download files get automatically deleted after a month or so. Posted on : 04/30/2021

[collapse]
Magnet Link

Magnet

Things.Heard.And.Seen.2021.1080p.WEB.h264-RUMOUR-5.72 GB

[collapse]

You may also like...

error: nah :p~