The Twilight Saga: New Moon (2009)

PG-13 | 2h 10min | Drama, Fantasy, Romance | 20 November 2009 (USA)

Edward leaves Bella after an attack that nearly claimed her life, and, in her depression, she falls into yet another difficult relationship – this time with her close friend, Jacob Black.

Watch trailer

Media information

General
Format : Matroska
Format version : Version 4
File size : 1.57 GiB
Duration : 2 h 10 min
Overall bit rate : 1 719 kb/s
Movie name : Twilight.Saga.2.New.Moon.2009.1080p.10bit.BluRay.6CH.x265.HEVC

Video
ID : 1
Format : HEVC
Format/Info : High Efficiency Video Coding
Format profile : Main [email protected]@Main
Codec ID : V_MPEGH/ISO/HEVC
Duration : 2 h 10 min
Bit rate : 1 500 kb/s
Width : 1 920 pixels
Height : 800 pixels
Display aspect ratio : 2.40:1
Frame rate mode : Constant
Frame rate : 23.976 FPS
Color space : YUV
Chroma subsampling : 4:2:0
Bit depth : 10 bits
Bits/(Pixel*Frame) : 0.041
Stream size : 1.37 GiB (87%)
Default : Yes
Forced : No

Audio
ID : 2
Format : AAC LC SBR
Commercial name : HE-AAC
Format settings : Explicit
Codec ID : A_AAC-2
Duration : 2 h 10 min
Bit rate : 206 kb/s
Channel(s) : 6 channels
Channel layout : C L R Ls Rs LFE
Sampling rate : 48.0 kHz
Frame rate : 23.438 FPS (2048 SPF)
Compression mode : Lossy
Delay relative to video : 40 ms
Stream size : 193 MiB (12%)
Title : English 5.1
Language : English
Default : Yes
Forced : No

Text #1
ID : 3
Format : PGS
Muxing mode : zlib
Codec ID : S_HDMV/PGS
Duration : 2 h 9 min
Bit rate : 31.7 kb/s
Count of elements : 3268
Stream size : 29.3 MiB (2%)
Language : English
Default : Yes
Forced : No

Text #2
ID : 4
Format : UTF-8
Codec ID : S_TEXT/UTF8
Codec ID/Info : UTF-8 Plain Text
Duration : 2 h 1 min
Bit rate : 8 b/s
Count of elements : 1214
Stream size : 7.37 KiB (0%)
Language : Arabic
Default : No
Forced : No

Text #3
ID : 5
Format : UTF-8
Codec ID : S_TEXT/UTF8
Codec ID/Info : UTF-8 Plain Text
Duration : 2 h 0 min
Bit rate : 38 b/s
Count of elements : 1265
Stream size : 34.0 KiB (0%)
Language : Chinese
Default : No
Forced : No

Text #4
ID : 6
Format : UTF-8
Codec ID : S_TEXT/UTF8
Codec ID/Info : UTF-8 Plain Text
Duration : 2 h 1 min
Bit rate : 41 b/s
Count of elements : 1204
Stream size : 36.8 KiB (0%)
Title : Brazillian
Language : Portuguese
Default : No
Forced : No

Text #5
ID : 7
Format : UTF-8
Codec ID : S_TEXT/UTF8
Codec ID/Info : UTF-8 Plain Text
Duration : 2 h 0 min
Bit rate : 42 b/s
Count of elements : 1150
Stream size : 37.6 KiB (0%)
Language : Danish
Default : No
Forced : No

Text #6
ID : 8
Format : UTF-8
Codec ID : S_TEXT/UTF8
Codec ID/Info : UTF-8 Plain Text
Duration : 2 h 0 min
Bit rate : 42 b/s
Count of elements : 1023
Stream size : 37.7 KiB (0%)
Language : Dutch
Default : No
Forced : No

Text #7
ID : 9
Format : UTF-8
Codec ID : S_TEXT/UTF8
Codec ID/Info : UTF-8 Plain Text
Duration : 2 h 2 min
Bit rate : 67 b/s
Count of elements : 1321
Stream size : 60.6 KiB (0%)
Language : Persian
Default : No
Forced : No

Text #8
ID : 10
Format : UTF-8
Codec ID : S_TEXT/UTF8
Codec ID/Info : UTF-8 Plain Text
Duration : 2 h 9 min
Bit rate : 30 b/s
Count of elements : 1274
Stream size : 29.3 KiB (0%)
Language : French
Default : No
Forced : No

Text #9
ID : 11
Format : UTF-8
Codec ID : S_TEXT/UTF8
Codec ID/Info : UTF-8 Plain Text
Duration : 2 h 1 min
Bit rate : 59 b/s
Count of elements : 1359
Stream size : 53.2 KiB (0%)
Language : Hebrew
Default : No
Forced : No

Text #10
ID : 12
Format : UTF-8
Codec ID : S_TEXT/UTF8
Codec ID/Info : UTF-8 Plain Text
Duration : 2 h 0 min
Bit rate : 75 b/s
Count of elements : 1307
Stream size : 66.5 KiB (0%)
Language : Greek
Default : No
Forced : No

Text #11
ID : 13
Format : UTF-8
Codec ID : S_TEXT/UTF8
Codec ID/Info : UTF-8 Plain Text
Duration : 2 h 0 min
Bit rate : 45 b/s
Count of elements : 1403
Stream size : 40.1 KiB (0%)
Language : Italian
Default : No
Forced : No

Text #12
ID : 14
Format : UTF-8
Codec ID : S_TEXT/UTF8
Codec ID/Info : UTF-8 Plain Text
Duration : 2 h 1 min
Bit rate : 39 b/s
Count of elements : 1149
Stream size : 35.0 KiB (0%)
Language : Norwegian
Default : No
Forced : No

Text #13
ID : 15
Format : UTF-8
Codec ID : S_TEXT/UTF8
Codec ID/Info : UTF-8 Plain Text
Duration : 2 h 0 min
Bit rate : 43 b/s
Count of elements : 1197
Stream size : 38.3 KiB (0%)
Language : Portuguese
Default : No
Forced : No

Text #14
ID : 16
Format : UTF-8
Codec ID : S_TEXT/UTF8
Codec ID/Info : UTF-8 Plain Text
Duration : 2 h 1 min
Bit rate : 41 b/s
Count of elements : 930
Stream size : 37.2 KiB (0%)
Language : Swedish
Default : No
Forced : No

Text #15
ID : 17
Format : UTF-8
Codec ID : S_TEXT/UTF8
Codec ID/Info : UTF-8 Plain Text
Duration : 2 h 9 min
Bit rate : 66 b/s
Count of elements : 1446
Stream size : 62.6 KiB (0%)
Language : Vietnamese
Default : No
Forced : No

[collapse]
Download Link(s)

Download

Direct download files get automatically deleted after a month or so. Posted on : 03/22/2020

[collapse]
Magnet Link

Magnet

Twilight-Saga-2-New-Moon-2009-1080p-BluRay-x265-HEVC-10bit-AAC-5-1-Joy-UTR-1.6 GB

[collapse]

Media information

General
Format : Matroska
Format version : Version 4
File size : 527 MiB
Duration : 2 h 10 min
Overall bit rate : 564 kb/s
Movie name : Twilight.Saga.2.New.Moon.2009.720p.10bit.BluRay.2CH.x265.HEVC

Video
ID : 1
Format : HEVC
Format/Info : High Efficiency Video Coding
Format profile : Main [email protected]@Main
Codec ID : V_MPEGH/ISO/HEVC
Duration : 2 h 10 min
Bit rate : 469 kb/s
Width : 1 280 pixels
Height : 534 pixels
Display aspect ratio : 2.40:1
Frame rate mode : Constant
Frame rate : 23.976 (24000/1001) FPS
Color space : YUV
Chroma subsampling : 4:2:0
Bit depth : 10 bits
Bits/(Pixel*Frame) : 0.029
Stream size : 438 MiB (83%)
Default : Yes
Forced : No
Color range : Limited
Color primaries : BT.709
Transfer characteristics : BT.709
Matrix coefficients : BT.709

Audio
ID : 2
Format : AAC LC
Codec ID : A_AAC-2
Duration : 2 h 10 min
Bit rate : 80.3 kb/s
Channel(s) : 2 channels
Channel layout : L R
Sampling rate : 48.0 kHz
Frame rate : 46.875 FPS (1024 SPF)
Compression mode : Lossy
Delay relative to video : 19 ms
Stream size : 75.0 MiB (14%)
Title : Stereo
Language : English
Default : Yes
Forced : No

Text #1
ID : 3
Format : PGS
Muxing mode : zlib
Codec ID : S_HDMV/PGS
Duration : 2 h 9 min
Bit rate : 31.7 kb/s
Count of elements : 3268
Stream size : 29.3 MiB (6%)
Language : English
Default : Yes
Forced : Yes

Text #2
ID : 4
Format : ASS
Codec ID : S_TEXT/ASS
Duration : 2 h 1 min
Bit rate : 36 b/s
Count of elements : 1214
Compression mode : Lossless
Stream size : 32.4 KiB (0%)
Language : Arabic
Default : No
Forced : No

Text #3
ID : 5
Format : ASS
Codec ID : S_TEXT/ASS
Duration : 2 h 0 min
Bit rate : 67 b/s
Count of elements : 1265
Compression mode : Lossless
Stream size : 60.1 KiB (0%)
Language : Chinese
Default : No
Forced : No

Text #4
ID : 6
Format : ASS
Codec ID : S_TEXT/ASS
Duration : 2 h 1 min
Bit rate : 69 b/s
Count of elements : 1204
Compression mode : Lossless
Stream size : 61.6 KiB (0%)
Title : Brazillian
Language : Portuguese
Default : No
Forced : No

Text #5
ID : 7
Format : ASS
Codec ID : S_TEXT/ASS
Duration : 2 h 0 min
Bit rate : 69 b/s
Count of elements : 1150
Compression mode : Lossless
Stream size : 61.6 KiB (0%)
Language : Danish
Default : No
Forced : No

Text #6
ID : 8
Format : ASS
Codec ID : S_TEXT/ASS
Duration : 2 h 0 min
Bit rate : 66 b/s
Count of elements : 1023
Compression mode : Lossless
Stream size : 58.6 KiB (0%)
Language : Dutch
Default : No
Forced : No

Text #7
ID : 9
Format : ASS
Codec ID : S_TEXT/ASS
Duration : 2 h 2 min
Bit rate : 98 b/s
Count of elements : 1321
Compression mode : Lossless
Stream size : 88.3 KiB (0%)
Language : Persian
Default : No
Forced : No

Text #8
ID : 10
Format : ASS
Codec ID : S_TEXT/ASS
Duration : 2 h 9 min
Bit rate : 58 b/s
Count of elements : 1274
Compression mode : Lossless
Stream size : 55.9 KiB (0%)
Language : French
Default : No
Forced : No

Text #9
ID : 11
Format : ASS
Codec ID : S_TEXT/ASS
Duration : 2 h 1 min
Bit rate : 91 b/s
Count of elements : 1359
Compression mode : Lossless
Stream size : 81.6 KiB (0%)
Default : No
Forced : No

Text #10
ID : 12
Format : ASS
Codec ID : S_TEXT/ASS
Duration : 2 h 0 min
Bit rate : 105 b/s
Count of elements : 1306
Compression mode : Lossless
Stream size : 93.5 KiB (0%)
Language : Greek
Default : No
Forced : No

Text #11
ID : 13
Format : ASS
Codec ID : S_TEXT/ASS
Duration : 2 h 0 min
Bit rate : 78 b/s
Count of elements : 1403
Compression mode : Lossless
Stream size : 69.1 KiB (0%)
Language : Italian
Default : No
Forced : No

Text #12
ID : 14
Format : ASS
Codec ID : S_TEXT/ASS
Duration : 2 h 1 min
Bit rate : 65 b/s
Count of elements : 1149
Compression mode : Lossless
Stream size : 58.7 KiB (0%)
Language : Norwegian
Default : No
Forced : No

Text #13
ID : 15
Format : ASS
Codec ID : S_TEXT/ASS
Duration : 2 h 0 min
Bit rate : 71 b/s
Count of elements : 1197
Compression mode : Lossless
Stream size : 63.0 KiB (0%)
Language : Portuguese
Default : No
Forced : No

Text #14
ID : 16
Format : ASS
Codec ID : S_TEXT/ASS
Duration : 2 h 1 min
Bit rate : 63 b/s
Count of elements : 930
Compression mode : Lossless
Stream size : 56.3 KiB (0%)
Language : Swedish
Default : No
Forced : No

Text #15
ID : 17
Format : ASS
Codec ID : S_TEXT/ASS
Duration : 2 h 9 min
Bit rate : 98 b/s
Count of elements : 1446
Compression mode : Lossless
Stream size : 93.1 KiB (0%)
Language : Vietnamese
Default : No
Forced : No

[collapse]
Download Link(s)

Download

Direct download files get automatically deleted after a month or so. Posted on : 03/22/2020

[collapse]
Magnet Link

Magnet

Twilight-Saga-2-New-Moon-2009-1080p-BluRay-x265-HEVC-10bit-AAC-5-1-Joy-UTR-1.6 GB

[collapse]

You may also like...

error: nah :p~