The Twilight Saga: Eclipse (2010)

PG-13 | 2h 4min | Action, Drama, Fantasy | 30 June 2010 (USA)

As a string of mysterious killings grips Seattle, Bella, whose high school graduation is fast approaching, is forced to choose between her love for vampire Edward and her friendship with werewolf Jacob.

Watch trailer

Media information

General
Format : Matroska
Format version : Version 4
File size : 1.48 GiB
Duration : 2 h 3 min
Overall bit rate : 1 704 kb/s
Movie name : Twilight.Saga.3.Eclipse.2010.1080p.10bit.BluRay.6CH.x265.HEVC

Video
ID : 1
Format : HEVC
Format/Info : High Efficiency Video Coding
Format profile : Main 10@L4@Main
Codec ID : V_MPEGH/ISO/HEVC
Duration : 2 h 3 min
Bit rate : 1 483 kb/s
Width : 1 920 pixels
Height : 800 pixels
Display aspect ratio : 2.40:1
Frame rate mode : Constant
Frame rate : 23.976 (24000/1001) FPS
Color space : YUV
Chroma subsampling : 4:2:0
Bit depth : 10 bits
Bits/(Pixel*Frame) : 0.040
Stream size : 1.28 GiB (87%)
Default : Yes
Forced : No

Audio
ID : 2
Format : AAC LC SBR
Commercial name : HE-AAC
Format settings : Explicit
Codec ID : A_AAC-2
Duration : 2 h 3 min
Bit rate : 208 kb/s
Channel(s) : 6 channels
Channel layout : C L R Ls Rs LFE
Sampling rate : 48.0 kHz
Frame rate : 23.438 FPS (2048 SPF)
Compression mode : Lossy
Delay relative to video : 40 ms
Stream size : 184 MiB (12%)
Language : English
Default : Yes
Forced : No

Text #1
ID : 3
Format : PGS
Muxing mode : zlib
Codec ID : S_HDMV/PGS
Duration : 2 h 3 min
Bit rate : 32.9 kb/s
Count of elements : 2978
Stream size : 29.1 MiB (2%)
Language : English
Default : Yes
Forced : No

Text #2
ID : 4
Format : UTF-8
Codec ID : S_TEXT/UTF8
Codec ID/Info : UTF-8 Plain Text
Duration : 1 h 54 min
Bit rate : 39 b/s
Count of elements : 1032
Stream size : 32.9 KiB (0%)
Language : Persian
Default : No
Forced : No

Text #3
ID : 5
Format : UTF-8
Codec ID : S_TEXT/UTF8
Codec ID/Info : UTF-8 Plain Text
Duration : 1 h 54 min
Bit rate : 46 b/s
Count of elements : 1158
Stream size : 38.8 KiB (0%)
Language : Norwegian Bokmal
Default : No
Forced : No

Text #4
ID : 6
Format : UTF-8
Codec ID : S_TEXT/UTF8
Codec ID/Info : UTF-8 Plain Text
Duration : 1 h 55 min
Bit rate : 47 b/s
Count of elements : 1284
Stream size : 39.9 KiB (0%)
Language : Portuguese
Default : No
Forced : No

Text #5
ID : 7
Format : UTF-8
Codec ID : S_TEXT/UTF8
Codec ID/Info : UTF-8 Plain Text
Duration : 1 h 54 min
Bit rate : 46 b/s
Count of elements : 916
Stream size : 39.1 KiB (0%)
Language : Swedish
Default : No
Forced : No

Text #6
ID : 8
Format : ASS
Codec ID : S_TEXT/ASS
Duration : 1 h 54 min
Bit rate : 118 b/s
Count of elements : 1248
Compression mode : Lossless
Stream size : 98.9 KiB (0%)
Language : Vietnamese
Default : No
Forced : No

Text #7
ID : 9
Format : UTF-8
Codec ID : S_TEXT/UTF8
Codec ID/Info : UTF-8 Plain Text
Duration : 2 h 2 min
Bit rate : 9 b/s
Count of elements : 1310
Stream size : 8.39 KiB (0%)
Language : Arabic
Default : No
Forced : No

Text #8
ID : 10
Format : UTF-8
Codec ID : S_TEXT/UTF8
Codec ID/Info : UTF-8 Plain Text
Duration : 1 h 55 min
Bit rate : 46 b/s
Count of elements : 1284
Stream size : 39.1 KiB (0%)
Language : Portuguese
Default : No
Forced : No

Text #9
ID : 11
Format : UTF-8
Codec ID : S_TEXT/UTF8
Codec ID/Info : UTF-8 Plain Text
Duration : 1 h 49 min
Bit rate : 38 b/s
Count of elements : 1234
Stream size : 31.2 KiB (0%)
Language : Chinese
Default : No
Forced : No

Text #10
ID : 12
Format : UTF-8
Codec ID : S_TEXT/UTF8
Codec ID/Info : UTF-8 Plain Text
Duration : 1 h 54 min
Bit rate : 49 b/s
Count of elements : 1158
Stream size : 41.8 KiB (0%)
Language : Danish
Default : No
Forced : No

Text #11
ID : 13
Format : UTF-8
Codec ID : S_TEXT/UTF8
Codec ID/Info : UTF-8 Plain Text
Duration : 1 h 54 min
Bit rate : 47 b/s
Count of elements : 1073
Stream size : 39.9 KiB (0%)
Language : Dutch
Default : No
Forced : No

[collapse]
Download Link(s)

Download

Direct download files get automatically deleted after a month or so. Posted on : 03/23/2020

[collapse]
Magnet Link

Magnet

Twilight-Saga-3-Eclipse-2010-1080p-BluRay-x265-HEVC-10bit-AAC-5-1-Joy-UTR-1.5 GB

[collapse]

Media information

General
Format : Matroska
Format version : Version 4
File size : 617 MiB
Duration : 2 h 3 min
Overall bit rate : 696 kb/s
Movie name : Twilight.Saga.3.Eclipse.2010.720p.10bit.BluRay.2CH.x265.HEVC

Video
ID : 1
Format : HEVC
Format/Info : High Efficiency Video Coding
Format profile : Main [email protected]@Main
Codec ID : V_MPEGH/ISO/HEVC
Duration : 2 h 3 min
Bit rate : 602 kb/s
Width : 1 280 pixels
Height : 534 pixels
Display aspect ratio : 2.40:1
Frame rate mode : Constant
Frame rate : 23.976 (24000/1001) FPS
Color space : YUV
Chroma subsampling : 4:2:0
Bit depth : 10 bits
Bits/(Pixel*Frame) : 0.037
Stream size : 533 MiB (86%)
Default : Yes
Forced : No
Color range : Limited
Color primaries : BT.709
Transfer characteristics : BT.709
Matrix coefficients : BT.709

Audio
ID : 2
Format : AAC LC
Codec ID : A_AAC-2
Duration : 2 h 3 min
Bit rate : 80.3 kb/s
Channel(s) : 2 channels
Channel layout : L R
Sampling rate : 48.0 kHz
Frame rate : 46.875 FPS (1024 SPF)
Compression mode : Lossy
Delay relative to video : 19 ms
Stream size : 71.2 MiB (12%)
Title : Stereo
Language : English
Default : Yes
Forced : No

Text #1
ID : 3
Format : PGS
Muxing mode : zlib
Codec ID : S_HDMV/PGS
Duration : 2 h 3 min
Bit rate : 32.9 kb/s
Count of elements : 2978
Stream size : 29.1 MiB (5%)
Language : English
Default : Yes
Forced : Yes

Text #2
ID : 4
Format : ASS
Codec ID : S_TEXT/ASS
Duration : 1 h 54 min
Bit rate : 64 b/s
Count of elements : 1032
Compression mode : Lossless
Stream size : 54.0 KiB (0%)
Language : Persian
Default : No
Forced : No

Text #3
ID : 5
Format : ASS
Codec ID : S_TEXT/ASS
Duration : 1 h 54 min
Bit rate : 74 b/s
Count of elements : 1158
Compression mode : Lossless
Stream size : 62.6 KiB (0%)
Language : Norwegian Bokmal
Default : No
Forced : No

Text #4
ID : 6
Format : ASS
Codec ID : S_TEXT/ASS
Duration : 1 h 55 min
Bit rate : 78 b/s
Count of elements : 1284
Compression mode : Lossless
Stream size : 66.4 KiB (0%)
Language : Portuguese
Default : No
Forced : No

Text #5
ID : 7
Format : ASS
Codec ID : S_TEXT/ASS
Duration : 1 h 54 min
Bit rate : 69 b/s
Count of elements : 916
Compression mode : Lossless
Stream size : 57.9 KiB (0%)
Language : Swedish
Default : No
Forced : No

Text #6
ID : 8
Format : ASS
Codec ID : S_TEXT/ASS
Duration : 1 h 54 min
Bit rate : 118 b/s
Count of elements : 1248
Compression mode : Lossless
Stream size : 98.9 KiB (0%)
Language : Vietnamese
Default : No
Forced : No

Text #7
ID : 9
Format : ASS
Codec ID : S_TEXT/ASS
Duration : 2 h 2 min
Bit rate : 39 b/s
Count of elements : 1310
Compression mode : Lossless
Stream size : 35.5 KiB (0%)
Language : Arabic
Default : No
Forced : No

Text #8
ID : 10
Format : ASS
Codec ID : S_TEXT/ASS
Duration : 1 h 55 min
Bit rate : 77 b/s
Count of elements : 1284
Compression mode : Lossless
Stream size : 65.6 KiB (0%)
Language : Portuguese
Default : No
Forced : No

Text #9
ID : 11
Format : ASS
Codec ID : S_TEXT/ASS
Duration : 1 h 49 min
Bit rate : 70 b/s
Count of elements : 1234
Compression mode : Lossless
Stream size : 56.6 KiB (0%)
Language : Chinese
Default : No
Forced : No

Text #10
ID : 12
Format : ASS
Codec ID : S_TEXT/ASS
Duration : 1 h 54 min
Bit rate : 78 b/s
Count of elements : 1158
Compression mode : Lossless
Stream size : 65.7 KiB (0%)
Language : Danish
Default : No
Forced : No

Text #11
ID : 13
Format : ASS
Codec ID : S_TEXT/ASS
Duration : 1 h 54 min
Bit rate : 73 b/s
Count of elements : 1073
Compression mode : Lossless
Stream size : 61.9 KiB (0%)
Language : Dutch
Default : No
Forced : No

[collapse]
Download Link(s)

Download

Direct download files get automatically deleted after a month or so. Posted on : 03/23/2020

[collapse]
Magnet Link

Magnet

Twilight-Saga-3-Eclipse-2010-1080p-BluRay-x265-HEVC-10bit-AAC-5-1-Joy-UTR-1.5 GB

[collapse]

You may also like...

error: nah :p~