The Twilight Saga: Breaking Dawn – Part 1 (2011)

PG-13 | 1h 57min | Action, Adventure, Drama | 18 November 2011 (USA)

The Quileutes close in on expecting parents Edward and Bella, whose unborn child poses a threat to the Wolf Pack and the towns people of Forks.

Watch trailer

Media information

General
Format : Matroska
Format version : Version 4
File size : 1.39 GiB
Duration : 1 h 57 min
Overall bit rate : 1 703 kb/s
Movie name : Twilight.Saga.4.Breaking.Dawn.Part.1.2011.1080p.10bit.BluRay.6CH.x265.HEVC

Video
ID : 1
Format : HEVC
Format/Info : High Efficiency Video Coding
Format profile : Main 10@L4@Main
Codec ID : V_MPEGH/ISO/HEVC
Duration : 1 h 57 min
Bit rate : 1 479 kb/s
Width : 1 920 pixels
Height : 800 pixels
Display aspect ratio : 2.40:1
Frame rate mode : Constant
Frame rate : 23.976 (24000/1001) FPS
Color space : YUV
Chroma subsampling : 4:2:0
Bit depth : 10 bits
Bits/(Pixel*Frame) : 0.040
Stream size : 1.21 GiB (87%)
Default : Yes
Forced : No

Audio
ID : 2
Format : AAC LC SBR
Commercial name : HE-AAC
Format settings : Explicit
Codec ID : A_AAC-2
Duration : 1 h 57 min
Bit rate : 212 kb/s
Channel(s) : 6 channels
Channel layout : C L R Ls Rs LFE
Sampling rate : 48.0 kHz
Frame rate : 23.438 FPS (2048 SPF)
Compression mode : Lossy
Delay relative to video : 40 ms
Stream size : 178 MiB (12%)
Language : English
Default : Yes
Forced : No

Text #1
ID : 3
Format : PGS
Muxing mode : zlib
Codec ID : S_HDMV/PGS
Duration : 1 h 56 min
Bit rate : 27.3 kb/s
Count of elements : 2640
Stream size : 22.7 MiB (2%)
Language : English
Default : Yes
Forced : No

Text #2
ID : 4
Format : UTF-8
Codec ID : S_TEXT/UTF8
Codec ID/Info : UTF-8 Plain Text
Duration : 1 h 56 min
Bit rate : 40 b/s
Count of elements : 968
Stream size : 34.2 KiB (0%)
Language : French
Default : No
Forced : No

Text #3
ID : 5
Format : UTF-8
Codec ID : S_TEXT/UTF8
Codec ID/Info : UTF-8 Plain Text
Duration : 1 h 48 min
Bit rate : 59 b/s
Count of elements : 861
Stream size : 47.2 KiB (0%)
Language : Greek
Default : No
Forced : No

Text #4
ID : 6
Format : UTF-8
Codec ID : S_TEXT/UTF8
Codec ID/Info : UTF-8 Plain Text
Duration : 1 h 48 min
Bit rate : 33 b/s
Count of elements : 839
Stream size : 26.2 KiB (0%)
Language : Italian
Default : No
Forced : No

Text #5
ID : 7
Format : UTF-8
Codec ID : S_TEXT/UTF8
Codec ID/Info : UTF-8 Plain Text
Duration : 1 h 56 min
Bit rate : 38 b/s
Count of elements : 1169
Stream size : 32.8 KiB (0%)
Language : Norwegian Bokmal
Default : No
Forced : No

Text #6
ID : 8
Format : UTF-8
Codec ID : S_TEXT/UTF8
Codec ID/Info : UTF-8 Plain Text
Duration : 1 h 56 min
Bit rate : 28 b/s
Count of elements : 1015
Stream size : 24.5 KiB (0%)
Language : Spanish
Default : No
Forced : No

Text #7
ID : 9
Format : UTF-8
Codec ID : S_TEXT/UTF8
Codec ID/Info : UTF-8 Plain Text
Duration : 1 h 48 min
Bit rate : 34 b/s
Count of elements : 762
Stream size : 27.5 KiB (0%)
Language : Swedish
Default : No
Forced : No

Text #8
ID : 10
Format : UTF-8
Codec ID : S_TEXT/UTF8
Codec ID/Info : UTF-8 Plain Text
Duration : 1 h 56 min
Bit rate : 62 b/s
Count of elements : 1159
Stream size : 53.1 KiB (0%)
Language : Vietnamese
Default : No
Forced : No

Text #9
ID : 11
Format : UTF-8
Codec ID : S_TEXT/UTF8
Codec ID/Info : UTF-8 Plain Text
Duration : 1 h 48 min
Bit rate : 30 b/s
Count of elements : 919
Stream size : 24.0 KiB (0%)
Language : Portuguese
Default : No
Forced : No

Text #10
ID : 12
Format : UTF-8
Codec ID : S_TEXT/UTF8
Codec ID/Info : UTF-8 Plain Text
Duration : 1 h 56 min
Bit rate : 24 b/s
Count of elements : 1079
Stream size : 20.5 KiB (0%)
Language : Arabic
Default : No
Forced : No

Text #11
ID : 13
Format : UTF-8
Codec ID : S_TEXT/UTF8
Codec ID/Info : UTF-8 Plain Text
Duration : 1 h 56 min
Bit rate : 33 b/s
Count of elements : 1156
Stream size : 28.5 KiB (0%)
Language : Chinese
Default : No
Forced : No

Text #12
ID : 14
Format : UTF-8
Codec ID : S_TEXT/UTF8
Codec ID/Info : UTF-8 Plain Text
Duration : 1 h 48 min
Bit rate : 32 b/s
Count of elements : 802
Stream size : 25.7 KiB (0%)
Language : Dutch
Default : No
Forced : No

Text #13
ID : 15
Format : UTF-8
Codec ID : S_TEXT/UTF8
Codec ID/Info : UTF-8 Plain Text
Duration : 1 h 48 min
Bit rate : 32 b/s
Count of elements : 921
Stream size : 26.1 KiB (0%)
Language : Persian
Default : No
Forced : No

[collapse]
Download Link(s)

Download

Direct download files get automatically deleted after a month or so. Posted on : 03/24/2020

[collapse]
Magnet Link

Magnet

Twilight-Saga-4-Breaking-Dawn-Part-1-2011-1080p-BluRay-x265-HEVC-10bit-AAC-5-1-Joy-UTR-1.4 GB

[collapse]

Media information

General
Format : Matroska
Format version : Version 4
File size : 640 MiB
Duration : 1 h 57 min
Overall bit rate : 764 kb/s
Movie name : Twilight.Saga.4.Breaking.Dawn.Part.1.2011.720p.10bit.BluRay.2CH.x265.HEVC

Video
ID : 1
Format : HEVC
Format/Info : High Efficiency Video Coding
Format profile : Main [email protected]@Main
Codec ID : V_MPEGH/ISO/HEVC
Duration : 1 h 57 min
Bit rate : 671 kb/s
Width : 1 280 pixels
Height : 720 pixels
Display aspect ratio : 2.40:1
Frame rate mode : Constant
Frame rate : 23.976 (24000/1001) FPS
Color space : YUV
Chroma subsampling : 4:2:0
Bit depth : 10 bits
Bits/(Pixel*Frame) : 0.030
Stream size : 562 MiB (88%)
Default : Yes
Forced : No
Color range : Limited
Color primaries : BT.709
Transfer characteristics : BT.709
Matrix coefficients : BT.709

Audio
ID : 2
Format : AAC LC
Codec ID : A_AAC-2
Duration : 1 h 57 min
Bit rate : 80.3 kb/s
Channel(s) : 2 channels
Channel layout : L R
Sampling rate : 48.0 kHz
Frame rate : 46.875 FPS (1024 SPF)
Compression mode : Lossy
Delay relative to video : 19 ms
Stream size : 67.3 MiB (11%)
Title : Stereo
Language : English
Default : Yes
Forced : No

Text #1
ID : 3
Format : PGS
Muxing mode : zlib
Codec ID : S_HDMV/PGS
Duration : 1 h 56 min
Bit rate : 27.3 kb/s
Count of elements : 2640
Stream size : 22.7 MiB (4%)
Language : English
Default : Yes
Forced : Yes

Text #2
ID : 4
Format : ASS
Codec ID : S_TEXT/ASS
Duration : 1 h 56 min
Bit rate : 63 b/s
Count of elements : 968
Compression mode : Lossless
Stream size : 54.1 KiB (0%)
Language : French
Default : No
Forced : No

Text #3
ID : 5
Format : ASS
Codec ID : S_TEXT/ASS
Duration : 1 h 48 min
Bit rate : 82 b/s
Count of elements : 861
Compression mode : Lossless
Stream size : 65.0 KiB (0%)
Language : Greek
Default : No
Forced : No

Text #4
ID : 6
Format : ASS
Codec ID : S_TEXT/ASS
Duration : 1 h 48 min
Bit rate : 54 b/s
Count of elements : 839
Compression mode : Lossless
Stream size : 43.3 KiB (0%)
Language : Italian
Default : No
Forced : No

Text #5
ID : 7
Format : ASS
Codec ID : S_TEXT/ASS
Duration : 1 h 56 min
Bit rate : 66 b/s
Count of elements : 1169
Compression mode : Lossless
Stream size : 56.8 KiB (0%)
Language : Norwegian Bokmal
Default : No
Forced : No

Text #6
ID : 8
Format : ASS
Codec ID : S_TEXT/ASS
Duration : 1 h 56 min
Bit rate : 53 b/s
Count of elements : 1015
Compression mode : Lossless
Stream size : 45.2 KiB (0%)
Language : Spanish
Default : No
Forced : No

Text #7
ID : 9
Format : ASS
Codec ID : S_TEXT/ASS
Duration : 1 h 48 min
Bit rate : 54 b/s
Count of elements : 762
Compression mode : Lossless
Stream size : 43.1 KiB (0%)
Language : Swedish
Default : No
Forced : No

Text #8
ID : 10
Format : ASS
Codec ID : S_TEXT/ASS
Duration : 1 h 56 min
Bit rate : 90 b/s
Count of elements : 1159
Compression mode : Lossless
Stream size : 77.0 KiB (0%)
Language : Vietnamese
Default : No
Forced : No

Text #9
ID : 11
Format : ASS
Codec ID : S_TEXT/ASS
Duration : 1 h 48 min
Bit rate : 53 b/s
Count of elements : 919
Compression mode : Lossless
Stream size : 42.8 KiB (0%)
Language : Portuguese
Default : No
Forced : No

Text #10
ID : 12
Format : ASS
Codec ID : S_TEXT/ASS
Duration : 1 h 56 min
Bit rate : 49 b/s
Count of elements : 1079
Compression mode : Lossless
Stream size : 42.6 KiB (0%)
Language : Arabic
Default : No
Forced : No

Text #11
ID : 13
Format : ASS
Codec ID : S_TEXT/ASS
Duration : 1 h 56 min
Bit rate : 61 b/s
Count of elements : 1156
Compression mode : Lossless
Stream size : 52.2 KiB (0%)
Language : Chinese
Default : No
Forced : No

Text #12
ID : 14
Format : ASS
Codec ID : S_TEXT/ASS
Duration : 1 h 48 min
Bit rate : 52 b/s
Count of elements : 802
Compression mode : Lossless
Stream size : 42.0 KiB (0%)
Language : Dutch
Default : No
Forced : No

Text #13
ID : 15
Format : ASS
Codec ID : S_TEXT/ASS
Duration : 1 h 48 min
Bit rate : 56 b/s
Count of elements : 921
Compression mode : Lossless
Stream size : 44.9 KiB (0%)
Language : Persian
Default : No
Forced : No

[collapse]
Download Link(s)

Download

Direct download files get automatically deleted after a month or so. Posted on : 03/24/2020

[collapse]
Magnet Link

Magnet

Twilight-Saga-4-Breaking-Dawn-Part-1-2011-1080p-BluRay-x265-HEVC-10bit-AAC-5-1-Joy-UTR-1.4 GB

[collapse]

You may also like...

error: nah :p~