The Shawshank Redemption (1994)

R | 2h 22min | Drama | 14 October 1994 (USA)

Two imprisoned men bond over a number of years, finding solace and eventual redemption through acts of common decency.

Watch trailer

Media information

General
Format : Matroska
Format version : Version 4
File size : 2.75 GiB
Duration : 2 h 22 min
Overall bit rate : 2 760 kb/s
Movie name : The.Shawshank.Redemption.1994.REMASTERED.1080p.10bit.BluRay.6CH.x265.HEVC

Video
ID : 1
Format : HEVC
Format/Info : High Efficiency Video Coding
Format profile : Main 10@L4@Main
Codec ID : V_MPEGH/ISO/HEVC
Duration : 2 h 22 min
Bit rate : 2 133 kb/s
Width : 1 920 pixels
Height : 1 038 pixels
Display aspect ratio : 1.85:1
Frame rate mode : Variable
Frame rate : 23.976 FPS
Color space : YUV
Chroma subsampling : 4:2:0 (Type 0)
Bit depth : 10 bits
Bits/(Pixel*Frame) : 0.045
Stream size : 2.12 GiB (77%)
Default : Yes
Forced : No
Color range : Limited

Audio
ID : 2
Format : AAC LC
Codec ID : A_AAC-2
Duration : 2 h 22 min
Bit rate : 384 kb/s
Channel(s) : 6 channels
Channel layout : L R C Cb Lb Rb
Sampling rate : 48.0 kHz
Frame rate : 46.875 FPS (1024 SPF)
Compression mode : Lossy
Stream size : 393 MiB (14%)
Language : English
Default : Yes
Forced : No

Text #1
ID : 3
Format : PGS
Muxing mode : zlib
Codec ID : S_HDMV/PGS
Duration : 2 h 17 min
Bit rate : 34.9 kb/s
Count of elements : 3556
Stream size : 34.3 MiB (2%)
Language : English
Default : No
Forced : No

Text #2
ID : 4
Format : PGS
Muxing mode : zlib
Codec ID : S_HDMV/PGS
Duration : 2 h 21 min
Bit rate : 22.0 kb/s
Count of elements : 3176
Stream size : 22.3 MiB (1%)
Language : French
Default : No
Forced : No

Text #3
ID : 5
Format : PGS
Muxing mode : zlib
Codec ID : S_HDMV/PGS
Duration : 2 h 21 min
Bit rate : 37.6 kb/s
Count of elements : 3522
Stream size : 37.9 MiB (2%)
Language : German
Default : No
Forced : No

Text #4
ID : 6
Format : PGS
Muxing mode : zlib
Codec ID : S_HDMV/PGS
Duration : 2 h 17 min
Bit rate : 34.5 kb/s
Count of elements : 3536
Stream size : 33.9 MiB (2%)
Language : Italian
Default : No
Forced : No

Text #5
ID : 7
Format : PGS
Muxing mode : zlib
Codec ID : S_HDMV/PGS
Duration : 2 h 21 min
Bit rate : 31.7 kb/s
Count of elements : 3472
Stream size : 32.1 MiB (2%)
Language : Spanish
Default : No
Forced : No

Text #6
ID : 8
Format : PGS
Muxing mode : zlib
Codec ID : S_HDMV/PGS
Duration : 2 h 20 min
Bit rate : 29.8 kb/s
Count of elements : 3020
Stream size : 29.9 MiB (2%)
Language : Dutch
Default : No
Forced : No

Text #7
ID : 9
Format : PGS
Muxing mode : zlib
Codec ID : S_HDMV/PGS
Duration : 2 h 17 min
Bit rate : 28.3 kb/s
Count of elements : 3416
Stream size : 27.9 MiB (2%)
Language : Chinese
Default : No
Forced : No

Text #8
ID : 10
Format : PGS
Muxing mode : zlib
Codec ID : S_HDMV/PGS
Duration : 2 h 17 min
Bit rate : 28.5 kb/s
Count of elements : 3416
Stream size : 28.1 MiB (2%)
Language : Chinese
Default : No
Forced : No

Text #9
ID : 11
Format : PGS
Muxing mode : zlib
Codec ID : S_HDMV/PGS
Duration : 2 h 17 min
Bit rate : 24.0 kb/s
Count of elements : 3444
Stream size : 23.6 MiB (1%)
Language : Korean
Default : No
Forced : No

Text #10
ID : 12
Format : PGS
Muxing mode : zlib
Codec ID : S_HDMV/PGS
Duration : 2 h 17 min
Bit rate : 29.6 kb/s
Count of elements : 3390
Stream size : 29.1 MiB (2%)
Language : Spanish
Default : No
Forced : No

Text #11
ID : 13
Format : PGS
Muxing mode : zlib
Codec ID : S_HDMV/PGS
Duration : 2 h 21 min
Bit rate : 28.8 kb/s
Count of elements : 3412
Stream size : 29.1 MiB (2%)
Language : Czech
Default : No
Forced : No

Text #12
ID : 14
Format : PGS
Muxing mode : zlib
Codec ID : S_HDMV/PGS
Duration : 2 h 21 min
Bit rate : 34.6 kb/s
Count of elements : 3724
Stream size : 35.1 MiB (2%)
Language : Danish
Default : No
Forced : No

Text #13
ID : 15
Format : PGS
Muxing mode : zlib
Codec ID : S_HDMV/PGS
Duration : 2 h 20 min
Bit rate : 30.7 kb/s
Count of elements : 3276
Stream size : 30.8 MiB (2%)
Language : Finnish
Default : No
Forced : No

Text #14
ID : 16
Format : PGS
Muxing mode : zlib
Codec ID : S_HDMV/PGS
Duration : 2 h 20 min
Bit rate : 29.7 kb/s
Count of elements : 3710
Stream size : 29.8 MiB (2%)
Language : Norwegian
Default : No
Forced : No

Text #15
ID : 17
Format : PGS
Muxing mode : zlib
Codec ID : S_HDMV/PGS
Duration : 2 h 16 min
Bit rate : 35.2 kb/s
Count of elements : 3730
Stream size : 34.3 MiB (2%)
Language : Polish
Default : No
Forced : No

Text #16
ID : 18
Format : PGS
Muxing mode : zlib
Codec ID : S_HDMV/PGS
Duration : 2 h 20 min
Bit rate : 32.0 kb/s
Count of elements : 3410
Stream size : 32.1 MiB (2%)
Language : Romanian
Default : No
Forced : No

Text #17
ID : 19
Format : PGS
Muxing mode : zlib
Codec ID : S_HDMV/PGS
Duration : 2 h 20 min
Bit rate : 33.0 kb/s
Count of elements : 3408
Stream size : 33.1 MiB (2%)
Language : Swedish
Default : No
Forced : No

Text #18
ID : 20
Format : UTF-8
Codec ID : S_TEXT/UTF8
Codec ID/Info : UTF-8 Plain Text
Duration : 2 h 17 min
Bit rate : 61 b/s
Count of elements : 1738
Stream size : 61.4 KiB (0%)
Language : English
Default : No
Forced : No

Text #19
ID : 21
Format : UTF-8
Codec ID : S_TEXT/UTF8
Codec ID/Info : UTF-8 Plain Text
Duration : 2 h 17 min
Bit rate : 62 b/s
Count of elements : 1778
Stream size : 63.4 KiB (0%)
Title : SDH
Language : English
Default : Yes
Forced : No

[collapse]
Download Link(s)

Download

Direct download files get automatically deleted after a month or so. Posted on : 12/15/2021

[collapse]
Magnet Link

Magnet

The.Shawshank.Redemption.1994.REMASTERED.1080p.BluRay.x264-CiNEPHiLiA-17.36 GB

[collapse]

Media information

General
Format : Matroska
Format version : Version 4
File size : 1.65 GiB
Duration : 2 h 22 min
Overall bit rate : 1 661 kb/s
Movie name : The.Shawshank.Redemption.1994.REMASTERED.720p.10bit.BluRay.6CH.x265.HEVC

Video
ID : 1
Format : HEVC
Format/Info : High Efficiency Video Coding
Format profile : Main [email protected]@Main
Codec ID : V_MPEGH/ISO/HEVC
Duration : 2 h 22 min
Bit rate : 1 130 kb/s
Width : 1 280 pixels
Height : 696 pixels
Display aspect ratio : 1.85:1
Frame rate mode : Variable
Frame rate : 23.976 FPS
Color space : YUV
Chroma subsampling : 4:2:0 (Type 0)
Bit depth : 10 bits
Bits/(Pixel*Frame) : 0.053
Stream size : 1.12 GiB (68%)
Default : Yes
Forced : No
Color range : Limited

Audio
ID : 2
Format : AAC LC
Codec ID : A_AAC-2
Duration : 2 h 22 min
Bit rate : 288 kb/s
Channel(s) : 6 channels
Channel layout : L R C Cb Lb Rb
Sampling rate : 48.0 kHz
Frame rate : 46.875 FPS (1024 SPF)
Compression mode : Lossy
Stream size : 294 MiB (17%)
Language : English
Default : Yes
Forced : No

Text #1
ID : 3
Format : PGS
Muxing mode : zlib
Codec ID : S_HDMV/PGS
Duration : 2 h 17 min
Bit rate : 34.9 kb/s
Count of elements : 3556
Stream size : 34.3 MiB (2%)
Language : English
Default : No
Forced : No

Text #2
ID : 4
Format : PGS
Muxing mode : zlib
Codec ID : S_HDMV/PGS
Duration : 2 h 21 min
Bit rate : 22.0 kb/s
Count of elements : 3176
Stream size : 22.3 MiB (1%)
Language : French
Default : No
Forced : No

Text #3
ID : 5
Format : PGS
Muxing mode : zlib
Codec ID : S_HDMV/PGS
Duration : 2 h 21 min
Bit rate : 37.6 kb/s
Count of elements : 3522
Stream size : 37.9 MiB (2%)
Language : German
Default : No
Forced : No

Text #4
ID : 6
Format : PGS
Muxing mode : zlib
Codec ID : S_HDMV/PGS
Duration : 2 h 17 min
Bit rate : 34.5 kb/s
Count of elements : 3536
Stream size : 33.9 MiB (2%)
Language : Italian
Default : No
Forced : No

Text #5
ID : 7
Format : PGS
Muxing mode : zlib
Codec ID : S_HDMV/PGS
Duration : 2 h 21 min
Bit rate : 31.7 kb/s
Count of elements : 3472
Stream size : 32.1 MiB (2%)
Language : Spanish
Default : No
Forced : No

Text #6
ID : 8
Format : PGS
Muxing mode : zlib
Codec ID : S_HDMV/PGS
Duration : 2 h 20 min
Bit rate : 29.8 kb/s
Count of elements : 3020
Stream size : 29.9 MiB (2%)
Language : Dutch
Default : No
Forced : No

Text #7
ID : 9
Format : PGS
Muxing mode : zlib
Codec ID : S_HDMV/PGS
Duration : 2 h 17 min
Bit rate : 28.3 kb/s
Count of elements : 3416
Stream size : 27.9 MiB (2%)
Language : Chinese
Default : No
Forced : No

Text #8
ID : 10
Format : PGS
Muxing mode : zlib
Codec ID : S_HDMV/PGS
Duration : 2 h 17 min
Bit rate : 28.5 kb/s
Count of elements : 3416
Stream size : 28.1 MiB (2%)
Language : Chinese
Default : No
Forced : No

Text #9
ID : 11
Format : PGS
Muxing mode : zlib
Codec ID : S_HDMV/PGS
Duration : 2 h 17 min
Bit rate : 24.0 kb/s
Count of elements : 3444
Stream size : 23.6 MiB (1%)
Language : Korean
Default : No
Forced : No

Text #10
ID : 12
Format : PGS
Muxing mode : zlib
Codec ID : S_HDMV/PGS
Duration : 2 h 17 min
Bit rate : 29.6 kb/s
Count of elements : 3390
Stream size : 29.1 MiB (2%)
Language : Spanish
Default : No
Forced : No

Text #11
ID : 13
Format : PGS
Muxing mode : zlib
Codec ID : S_HDMV/PGS
Duration : 2 h 21 min
Bit rate : 28.8 kb/s
Count of elements : 3412
Stream size : 29.1 MiB (2%)
Language : Czech
Default : No
Forced : No

Text #12
ID : 14
Format : PGS
Muxing mode : zlib
Codec ID : S_HDMV/PGS
Duration : 2 h 21 min
Bit rate : 34.6 kb/s
Count of elements : 3724
Stream size : 35.1 MiB (2%)
Language : Danish
Default : No
Forced : No

Text #13
ID : 15
Format : PGS
Muxing mode : zlib
Codec ID : S_HDMV/PGS
Duration : 2 h 20 min
Bit rate : 30.7 kb/s
Count of elements : 3276
Stream size : 30.8 MiB (2%)
Language : Finnish
Default : No
Forced : No

Text #14
ID : 16
Format : PGS
Muxing mode : zlib
Codec ID : S_HDMV/PGS
Duration : 2 h 20 min
Bit rate : 29.7 kb/s
Count of elements : 3710
Stream size : 29.8 MiB (2%)
Language : Norwegian
Default : No
Forced : No

Text #15
ID : 17
Format : PGS
Muxing mode : zlib
Codec ID : S_HDMV/PGS
Duration : 2 h 16 min
Bit rate : 35.2 kb/s
Count of elements : 3730
Stream size : 34.3 MiB (2%)
Language : Polish
Default : No
Forced : No

Text #16
ID : 18
Format : PGS
Muxing mode : zlib
Codec ID : S_HDMV/PGS
Duration : 2 h 20 min
Bit rate : 32.0 kb/s
Count of elements : 3410
Stream size : 32.1 MiB (2%)
Language : Romanian
Default : No
Forced : No

Text #17
ID : 19
Format : PGS
Muxing mode : zlib
Codec ID : S_HDMV/PGS
Duration : 2 h 20 min
Bit rate : 33.0 kb/s
Count of elements : 3408
Stream size : 33.1 MiB (2%)
Language : Swedish
Default : No
Forced : No

Text #18
ID : 20
Format : UTF-8
Codec ID : S_TEXT/UTF8
Codec ID/Info : UTF-8 Plain Text
Duration : 2 h 17 min
Bit rate : 61 b/s
Count of elements : 1738
Stream size : 61.4 KiB (0%)
Language : English
Default : No
Forced : No

Text #19
ID : 21
Format : UTF-8
Codec ID : S_TEXT/UTF8
Codec ID/Info : UTF-8 Plain Text
Duration : 2 h 17 min
Bit rate : 62 b/s
Count of elements : 1778
Stream size : 63.4 KiB (0%)
Title : SDH
Language : English
Default : Yes
Forced : No

[collapse]
Download Link(s)

Download

Direct download files get automatically deleted after a month or so. Posted on : 12/15/2021

[collapse]
Magnet Link

Magnet

The.Shawshank.Redemption.1994.REMASTERED.1080p.BluRay.x264-CiNEPHiLiA-17.36 GB

[collapse]

You may also like...

error: nah :p~