The Secret of Christ’s Tomb (2017)

46min | Documentary, History

National Geographic is invited to follow a team of restoration experts and archaeologists as they race against time to have the Aedicule restored before the Easter ceremonies.

Watch trailer

Media information

General
Format : Matroska
Format version : Version 4
File size : 804 MiB
Duration : 46 min 43 s
Overall bit rate : 2 405 kb/s
Movie name : Secrets.of.Christs.Tomb.Explorer.Special.2017.1080p.10bit.WEBRip.6CH.x265.HEVC

Video
ID : 1
Format : HEVC
Format/Info : High Efficiency Video Coding
Format profile : Main [email protected]@Main
Codec ID : V_MPEGH/ISO/HEVC
Duration : 46 min 43 s
Bit rate : 2 018 kb/s
Width : 1 920 pixels
Height : 1 080 pixels
Display aspect ratio : 16:9
Frame rate mode : Variable
Frame rate : 23.976 FPS
Color space : YUV
Chroma subsampling : 4:2:0 (Type 0)
Bit depth : 10 bits
Bits/(Pixel*Frame) : 0.041
Stream size : 674 MiB (84%)
Default : Yes
Forced : No
Color range : Limited
Color primaries : BT.709
Transfer characteristics : BT.709
Matrix coefficients : BT.709

Audio
ID : 2
Format : E-AC-3
Format/Info : Enhanced AC-3
Commercial name : Dolby Digital Plus
Codec ID : A_EAC3
Duration : 46 min 43 s
Bit rate mode : Constant
Bit rate : 384 kb/s
Channel(s) : 6 channels
Channel layout : L R C LFE Ls Rs
Sampling rate : 48.0 kHz
Frame rate : 31.250 FPS (1536 SPF)
Bit depth : 32 bits
Compression mode : Lossy
Stream size : 128 MiB (16%)
Language : English
Service kind : Complete Main
Default : Yes
Forced : No

Text #1
ID : 3
Format : UTF-8
Codec ID : S_TEXT/UTF8
Codec ID/Info : UTF-8 Plain Text
Duration : 46 min 35 s
Bit rate : 108 b/s
Count of elements : 670
Stream size : 36.9 KiB (0%)
Language : English
Default : No
Forced : No

Text #2
ID : 4
Format : UTF-8
Codec ID : S_TEXT/UTF8
Codec ID/Info : UTF-8 Plain Text
Duration : 46 min 35 s
Bit rate : 108 b/s
Count of elements : 672
Stream size : 36.9 KiB (0%)
Title : SDH
Language : English
Default : Yes
Forced : No

Text #3
ID : 5
Format : UTF-8
Codec ID : S_TEXT/UTF8
Codec ID/Info : UTF-8 Plain Text
Duration : 46 min 36 s
Bit rate : 91 b/s
Count of elements : 643
Stream size : 31.2 KiB (0%)
Language : Danish
Default : No
Forced : No

Text #4
ID : 6
Format : UTF-8
Codec ID : S_TEXT/UTF8
Codec ID/Info : UTF-8 Plain Text
Duration : 46 min 36 s
Bit rate : 110 b/s
Count of elements : 706
Stream size : 37.6 KiB (0%)
Language : Spanish
Default : No
Forced : No

Text #5
ID : 7
Format : UTF-8
Codec ID : S_TEXT/UTF8
Codec ID/Info : UTF-8 Plain Text
Duration : 46 min 36 s
Bit rate : 92 b/s
Count of elements : 607
Stream size : 31.5 KiB (0%)
Language : Norwegian
Default : No
Forced : No

Text #6
ID : 8
Format : UTF-8
Codec ID : S_TEXT/UTF8
Codec ID/Info : UTF-8 Plain Text
Duration : 46 min 36 s
Bit rate : 100 b/s
Count of elements : 706
Stream size : 34.4 KiB (0%)
Language : Portuguese
Default : No
Forced : No

Text #7
ID : 9
Format : UTF-8
Codec ID : S_TEXT/UTF8
Codec ID/Info : UTF-8 Plain Text
Duration : 46 min 36 s
Bit rate : 88 b/s
Count of elements : 628
Stream size : 30.3 KiB (0%)
Language : Finnish
Default : No
Forced : No

Text #8
ID : 10
Format : UTF-8
Codec ID : S_TEXT/UTF8
Codec ID/Info : UTF-8 Plain Text
Duration : 46 min 36 s
Bit rate : 91 b/s
Count of elements : 600
Stream size : 31.1 KiB (0%)
Language : Swedish
Default : No
Forced : No

[collapse]
Download Link(s)

Download

Direct download files get automatically deleted after a month or so. Posted on : 07/13/2021

[collapse]
Magnet Link

Magnet

Secrets.of.Christs.Tomb.Explorer.Special.2017.1080p.DSNP.WEBRip.DDP5.1.x264-FLUX-2.85 GB

[collapse]

Media information

General
Format : Matroska
Format version : Version 4
File size : 512 MiB
Duration : 46 min 43 s
Overall bit rate : 1 533 kb/s
Movie name : Secrets.of.Christs.Tomb.Explorer.Special.2017.720p.10bit.WEBRip.6CH.x265.HEVC

Video
ID : 1
Format : HEVC
Format/Info : High Efficiency Video Coding
Format profile : Main [email protected]@Main
Codec ID : V_MPEGH/ISO/HEVC
Duration : 46 min 43 s
Bit rate : 1 242 kb/s
Width : 1 280 pixels
Height : 720 pixels
Display aspect ratio : 16:9
Frame rate mode : Variable
Frame rate : 23.976 FPS
Color space : YUV
Chroma subsampling : 4:2:0 (Type 0)
Bit depth : 10 bits
Bits/(Pixel*Frame) : 0.056
Stream size : 415 MiB (81%)
Default : Yes
Forced : No
Color range : Limited
Color primaries : BT.709
Transfer characteristics : BT.709
Matrix coefficients : BT.709

Audio
ID : 2
Format : E-AC-3
Format/Info : Enhanced AC-3
Commercial name : Dolby Digital Plus
Codec ID : A_EAC3
Duration : 46 min 43 s
Bit rate mode : Constant
Bit rate : 288 kb/s
Channel(s) : 6 channels
Channel layout : L R C LFE Ls Rs
Sampling rate : 48.0 kHz
Frame rate : 31.250 FPS (1536 SPF)
Bit depth : 32 bits
Compression mode : Lossy
Stream size : 96.3 MiB (19%)
Language : English
Service kind : Complete Main
Default : Yes
Forced : No

Text #1
ID : 3
Format : UTF-8
Codec ID : S_TEXT/UTF8
Codec ID/Info : UTF-8 Plain Text
Duration : 46 min 35 s
Bit rate : 108 b/s
Count of elements : 670
Stream size : 36.9 KiB (0%)
Language : English
Default : No
Forced : No

Text #2
ID : 4
Format : UTF-8
Codec ID : S_TEXT/UTF8
Codec ID/Info : UTF-8 Plain Text
Duration : 46 min 35 s
Bit rate : 108 b/s
Count of elements : 672
Stream size : 36.9 KiB (0%)
Title : SDH
Language : English
Default : Yes
Forced : No

Text #3
ID : 5
Format : UTF-8
Codec ID : S_TEXT/UTF8
Codec ID/Info : UTF-8 Plain Text
Duration : 46 min 36 s
Bit rate : 91 b/s
Count of elements : 643
Stream size : 31.2 KiB (0%)
Language : Danish
Default : No
Forced : No

Text #4
ID : 6
Format : UTF-8
Codec ID : S_TEXT/UTF8
Codec ID/Info : UTF-8 Plain Text
Duration : 46 min 36 s
Bit rate : 110 b/s
Count of elements : 706
Stream size : 37.6 KiB (0%)
Language : Spanish
Default : No
Forced : No

Text #5
ID : 7
Format : UTF-8
Codec ID : S_TEXT/UTF8
Codec ID/Info : UTF-8 Plain Text
Duration : 46 min 36 s
Bit rate : 92 b/s
Count of elements : 607
Stream size : 31.5 KiB (0%)
Language : Norwegian
Default : No
Forced : No

Text #6
ID : 8
Format : UTF-8
Codec ID : S_TEXT/UTF8
Codec ID/Info : UTF-8 Plain Text
Duration : 46 min 36 s
Bit rate : 100 b/s
Count of elements : 706
Stream size : 34.4 KiB (0%)
Language : Portuguese
Default : No
Forced : No

Text #7
ID : 9
Format : UTF-8
Codec ID : S_TEXT/UTF8
Codec ID/Info : UTF-8 Plain Text
Duration : 46 min 36 s
Bit rate : 88 b/s
Count of elements : 628
Stream size : 30.3 KiB (0%)
Language : Finnish
Default : No
Forced : No

Text #8
ID : 10
Format : UTF-8
Codec ID : S_TEXT/UTF8
Codec ID/Info : UTF-8 Plain Text
Duration : 46 min 36 s
Bit rate : 91 b/s
Count of elements : 600
Stream size : 31.1 KiB (0%)
Language : Swedish
Default : No
Forced : No

[collapse]
Download Link(s)

Download

Direct download files get automatically deleted after a month or so. Posted on : 07/13/2021

[collapse]
Magnet Link

Magnet

Secrets.of.Christs.Tomb.Explorer.Special.2017.1080p.DSNP.WEBRip.DDP5.1.x264-FLUX-2.85 GB

[collapse]

You may also like...

error: nah :p~