The Science of Sleep (2016)

Not Rated | 43min | Documentary, Short | 1 September 2016 (Japan)

From controlling our weight, to helping us learn, to washing our brain, and fighting off disease like Alzheimer’s, around the world researchers are penetrating the mysterious world of sleep and deciphering its secrets.

Watch trailer

Media information

General
Format : Matroska
Format version : Version 4
File size : 320 MiB
Duration : 43 min 33 s
Overall bit rate : 1 027 kb/s
Movie name : The.Science.of.Sleep.2016.720p.10bit.WEBRip.2CH.x265.HEVC

Video
ID : 1
Format : HEVC
Format/Info : High Efficiency Video Coding
Format profile : Main [email protected]@Main
Codec ID : V_MPEGH/ISO/HEVC
Duration : 43 min 33 s
Bit rate : 863 kb/s
Width : 1 280 pixels
Height : 720 pixels
Display aspect ratio : 16:9
Frame rate mode : Constant
Frame rate : 29.970 (30000/1001) FPS
Color space : YUV
Chroma subsampling : 4:2:0
Bit depth : 10 bits
Bits/(Pixel*Frame) : 0.031
Stream size : 269 MiB (84%)
Default : Yes
Forced : No
Color range : Limited
Color primaries : BT.709
Transfer characteristics : BT.709
Matrix coefficients : BT.709

Audio
ID : 2
Format : AAC LC
Codec ID : A_AAC-2
Duration : 43 min 33 s
Bit rate : 161 kb/s
Channel(s) : 2 channels
Channel layout : L R
Sampling rate : 48.0 kHz
Frame rate : 46.875 FPS (1024 SPF)
Compression mode : Lossy
Delay relative to video : -21 ms
Stream size : 50.0 MiB (16%)
Language : English
Default : Yes
Forced : No

Text
ID : 3
Format : UTF-8
Codec ID : S_TEXT/UTF8
Codec ID/Info : UTF-8 Plain Text
Duration : 43 min 28 s
Bit rate : 91 b/s
Count of elements : 797
Stream size : 29.2 KiB (0%)
Language : English
Default : Yes
Forced : No

[collapse]
Download Link(s)

Download

Direct download files get automatically deleted after a month or so. Posted on : 04/07/2021

[collapse]
Magnet Link

Magnet

The.Science.of.Sleep.2016.1080p.AMZN.WEBRip.DDP2.0.x264-NWD-2.67 GB

[collapse]

You may also like...

error: nah :p~