The Power (2021)

2h 34min | Action, Thriller | 14 January 2021 (India)

It is a hair-raising journey into the world of two lovers as both their families are ripped apart for the sake of revenge and power, and an entertaining look at how they rise out of that pit of blood lust and despair, together.

Watch trailer

Media information

General
Format : Matroska
Format version : Version 4
File size : 1.03 GiB
Duration : 2 h 33 min
Overall bit rate : 963 kb/s
Movie name : The.Power.2021.Hindi.720p.10bit.WEB-DL.2CH.x265.HEVC

Video
ID : 1
Format : HEVC
Format/Info : High Efficiency Video Coding
Format profile : Main [email protected]@Main
Codec ID : V_MPEGH/ISO/HEVC
Duration : 2 h 33 min
Bit rate : 897 kb/s
Width : 1 280 pixels
Height : 720 pixels
Display aspect ratio : 2.35:1
Frame rate mode : Constant
Frame rate : 25.000 FPS
Color space : YUV
Chroma subsampling : 4:2:0
Bit depth : 10 bits
Bits/(Pixel*Frame) : 0.039
Stream size : 984 MiB (93%)
Default : Yes
Forced : No
Color range : Limited
Color primaries : BT.709
Transfer characteristics : BT.709
Matrix coefficients : BT.709

Audio
ID : 2
Format : AAC LC
Codec ID : A_AAC-2
Duration : 2 h 33 min
Bit rate : 64.1 kb/s
Channel(s) : 2 channels
Channel layout : L R
Sampling rate : 48.0 kHz
Frame rate : 46.875 FPS (1024 SPF)
Compression mode : Lossy
Delay relative to video : -21 ms
Stream size : 70.3 MiB (7%)
Language : Hindi
Default : Yes
Forced : No

Text
ID : 3
Format : UTF-8
Codec ID : S_TEXT/UTF8
Codec ID/Info : UTF-8 Plain Text
Duration : 2 h 29 min
Bit rate : 50 b/s
Count of elements : 2426
Stream size : 55.4 KiB (0%)
Language : English
Default : Yes
Forced : No

[collapse]
Download Link(s)

Download

Direct download files get automatically deleted after a month or so. Posted on : 01/17/2021

[collapse]
Magnet Link

Magnet

The.Power.2021.1080p.ZEE5.WEB-DL.Hin-Tam.Tel.Multi.Audio.AAC.2.0-1.9 GB

[collapse]

You may also like...

error: nah :p~